osu file format v14

[General]
AudioFilename: audio.mp3
AudioLeadIn: 0
PreviewTime: 71682
Countdown: 1
SampleSet: Normal
StackLeniency: 0.5
Mode: 0
LetterboxInBreaks: 0
WidescreenStoryboard: 1

[Editor]
DistanceSpacing: 1.2
BeatDivisor: 2
GridSize: 8
TimelineZoom: 1.100001

[Metadata]
Title:Brain Revolution Girl
TitleUnicode:Brain Revolution Girl
Artist:Reol
ArtistUnicode:Reol
Creator:WalterandAaron
Version:Hard
Source:Soundcloud
Tags:Vocaloid
BeatmapID:1866875
BeatmapSetID:893228

[Difficulty]
HPDrainRate:3
CircleSize:4
OverallDifficulty:4
ApproachRate:7
SliderMultiplier:1.4
SliderTickRate:1

[Events]
//Background and Video events
Video,0,"れをる 脳内革命ガール ill.bell.mp4"
0,0,"https_%2F%2Fimages.genius.com%2Fa0797daa8c3c0549b394f3e83a03d727.1000x472x1.jpg",0,0
//Break Periods
2,91382,99132
2,107382,115007
2,131882,147132
2,156132,163132
2,183382,191132
//Storyboard Layer 0 (Background)
//Storyboard Layer 1 (Fail)
//Storyboard Layer 2 (Pass)
//Storyboard Layer 3 (Foreground)
//Storyboard Sound Samples

[TimingPoints]
182,250,4,2,0,31,1,0
8183,-100,4,1,0,75,0,0
16182,-100,4,1,0,100,0,0
24182,-100,4,3,0,100,0,0
31432,-100,4,2,0,100,0,0
48182,-100,4,2,0,100,0,0
63932,-166.666666666667,4,2,0,100,0,0
71682,-100,4,1,0,100,0,0
72182,-66.6666666666667,4,1,0,100,0,0
88182,-100,4,3,0,100,0,0
92182,-133.333333333333,4,2,0,70,0,0
116182,-133.333333333333,4,1,0,100,0,0
124182,-133.333333333333,4,2,0,100,0,0
148182,-200,4,2,0,70,0,0
156182,-100,4,2,0,80,0,0
164182,-50,4,3,0,100,0,0
192182,-100,4,1,0,100,0,0
200182,-100,4,1,0,75,0,0

[HitObjects]
256,72,182,6,0,P|191:131|183:234,1,140
176,179,682,2,0,B|221:257|190:328|176:337,1,140
190,313,1182,2,0,P|276:281|372:302,1,140
322,283,1682,2,0,P|276:194|293:111,1,140
272,160,2182,2,0,P|184:184|112:160,1,140
138,173,2682,2,0,B|232:112|304:160|288:216,1,140
256,192,3182,2,0,L|256:312,3,70
256,296,3682,2,0,P|344:352|408:328,1,140
344,272,4182,6,0,P|352:208|280:136,1,140
280,224,4682,2,0,P|184:248|112:224,1,140
176,168,5182,2,0,P|224:104|312:104,1,140
328,144,5682,2,0,P|368:224|456:240,1,140
256,192,6182,12,0,7682,0:0:0:0:
120,264,8182,6,0,P|192:208|48:144,1,280
392,264,9182,2,0,P|320:208|464:144,1,280
160,264,10182,2,0,P|224:208|176:112,3,140
352,120,11182,2,0,P|288:176|336:272,3,140
176,96,12182,6,0,B|296:88|168:160|312:152,1,140
224,144,12682,2,0,B|344:136|216:208|360:200,1,140
288,208,13182,2,0,B|408:200|280:272|424:264,1,140
360,264,13682,2,0,B|480:256|352:328|496:320,1,140
208,296,14182,2,0,P|160:216|184:120,1,140
224,224,14682,2,0,B|212:212|300:180|324:84|244:76,1,140
224,224,15182,2,0,L|152:176,3,70
200,272,15682,2,0,L|128:224,3,70
256,264,16182,6,0,L|328:224,1,70
304,160,16557,2,0,L|248:88,1,70
352,80,16932,2,0,L|424:16,1,70
240,216,17432,6,0,L|192:168,2,46.6666666666667
272,248,17682,2,0,P|344:248|376:192,1,140
160,136,18182,6,0,L|128:56,1,70
336,216,18557,2,0,L|400:144,1,70
256,120,18932,2,0,L|256:208,1,70
256,192,19432,2,0,L|264:136,2,46.6666666666667
240,256,19682,2,0,P|168:304|120:264,1,140
128,208,20182,2,0,P|184:144|288:152,1,140
280,192,20682,2,0,P|376:248|416:224,1,140
352,184,21182,2,0,P|336:112|248:80,1,140
272,152,21682,2,0,P|200:192|128:168,1,140
64,104,22182,5,0,0:0:0:0:
152,200,22432,1,0,0:0:0:0:
152,200,22557,1,0,0:0:0:0:
152,200,22682,1,0,0:0:0:0:
296,232,22932,1,0,0:0:0:0:
296,232,23057,1,0,0:0:0:0:
296,232,23182,1,0,0:0:0:0:
256,64,24182,6,0,L|256:152,1,70
256,200,24432,2,0,L|256:280,1,70
208,336,24682,2,0,L|304:336,3,70
352,336,25182,2,0,P|384:304|376:232,1,70
392,208,25432,2,0,L|368:128,1,70
344,64,25682,2,0,P|272:64|232:96,1,70
224,112,25932,2,0,P|192:144|192:192,1,70
224,224,26182,2,0,L|328:248,1,70
356,258,26432,2,0,L|358:277|270:301,1,70
292,256,26682,2,0,L|296:229|371:222,1,70
264,293,26932,2,0,L|184:317,1,70
175,253,27182,2,0,L|255:229,1,70
219,167,27432,2,0,L|139:191,1,70
126,118,27682,2,0,L|206:94,1,70
368,96,27932,6,0,L|424:144,3,46.6666666666667
136,264,28682,6,0,L|192:312,3,46.6666666666667
256,192,29182,6,0,L|312:240,3,46.6666666666667
256,80,29932,5,10,0:0:0:0:
256,80,30057,1,0,0:0:0:0:
256,80,30182,1,10,0:0:0:0:
256,136,30432,1,10,0:0:0:0:
256,136,30557,1,0,0:0:0:0:
256,192,30682,1,8,0:0:0:0:
256,192,30807,1,8,0:0:0:0:
256,192,30932,1,8,0:0:0:0:
256,192,31057,1,14,0:0:0:0:
320,80,32182,6,0,P|416:144|448:208,3,140
312,208,33182,2,0,P|248:272|152:264,3,140
144,208,34182,2,0,B|224:136|112:144|208:72,1,140
312,96,34682,2,0,B|368:152|280:176|384:232,1,140
264,224,35182,2,0,P|200:288|128:272,1,140
256,192,35682,1,0,0:0:0:0:
256,104,35932,6,0,L|176:136,3,46.6666666666667
280,208,36682,2,0,L|336:240,3,46.6666666666667
256,272,37182,2,0,L|176:288,3,46.6666666666667
256,88,37932,5,0,0:0:0:0:
336,112,38119,2,0,L|376:136,1,35
336,240,38432,1,0,0:0:0:0:
144,224,38682,1,0,0:0:0:0:
232,80,38932,1,0,0:0:0:0:
336,240,39182,1,0,0:0:0:0:
144,224,39432,1,0,0:0:0:0:
232,80,39682,1,0,0:0:0:0:
256,192,39932,1,0,0:0:0:0:
256,192,40182,12,0,47182,0:0:0:0:
256,64,48182,6,0,P|200:96|192:112,1,70
184,160,48432,2,0,P|192:224|208:240,1,70
248,256,48682,2,0,P|296:248|328:208,1,70
344,184,48932,2,0,P|320:128|336:104,1,70
336,72,49182,2,0,P|288:48|248:56,1,70
240,96,49432,2,0,P|240:160|216:176,1,70
208,192,49682,2,0,P|160:208|144:240,1,70
144,280,49932,2,0,P|200:312|224:304,1,70
256,296,50182,2,0,P|296:272|312:232,3,70
328,160,50682,2,0,P|368:192|408:192,3,70
288,72,51182,2,0,P|256:120|216:128,1,70
352,40,51432,2,0,P|384:72|432:88,1,70
464,160,51682,1,0,0:0:0:0:
280,192,51932,6,0,L|248:240,3,46.6666666666667
384,216,52682,2,0,L|424:280,3,46.6666666666667
336,272,53182,2,0,L|376:336,3,46.6666666666667
264,144,53932,1,0,0:0:0:0:
264,144,54057,1,0,0:0:0:0:
264,144,54182,1,0,0:0:0:0:
264,144,54307,1,0,0:0:0:0:
368,208,54557,1,0,0:0:0:0:
368,208,54682,1,0,0:0:0:0:
312,256,54932,1,0,0:0:0:0:
312,256,55057,1,0,0:0:0:0:
256,56,56182,6,0,P|352:128|368:192,1,140
248,192,56682,2,0,P|216:296|136:304,1,140
152,176,57182,1,0,0:0:0:0:
248,128,57432,1,0,0:0:0:0:
296,216,57682,1,0,0:0:0:0:
208,280,57932,1,0,0:0:0:0:
256,192,58182,2,0,P|352:208|416:144,1,140
320,152,58682,2,0,P|272:96|168:136,1,140
248,160,59182,2,0,P|192:232|128:248,1,140
148,246,59682,1,0,0:0:0:0:
296,144,59932,6,0,L|344:120,3,46.6666666666667
272,232,60682,2,0,L|320:208,3,46.6666666666667
272,304,61182,2,0,L|320:280,3,46.6666666666667
256,64,61932,5,0,0:0:0:0:
256,192,62182,1,0,0:0:0:0:
256,320,62432,1,0,0:0:0:0:
256,192,62682,1,0,0:0:0:0:
256,192,62932,1,0,0:0:0:0:
368,112,63432,1,0,0:0:0:0:
368,112,63682,1,0,0:0:0:0:
152,96,64182,6,0,B|104:96|104:96|64:152|64:152|168:232|96:216|200:192|288:160|288:160|200:64|216:272|256:272|256:272|296:256|296:256,1,587.999982055665
266,267,66182,1,0,0:0:0:0:
184,120,66557,1,0,0:0:0:0:
296,144,66932,1,0,0:0:0:0:
336,256,67432,2,0,P|272:320|152:240,1,251.999992309571
232,80,68432,6,0,P|312:88|352:72,1,83.9999974365235
304,152,68932,2,0,P|256:208|264:248,1,83.9999974365235
224,248,69432,2,0,P|184:224|128:240,1,83.9999974365235
136,168,69932,1,0,0:0:0:0:
256,192,70182,5,0,0:0:0:0:
256,192,70432,1,0,0:0:0:0:
256,192,70682,1,0,0:0:0:0:
256,192,70932,1,0,0:0:0:0:
256,192,71182,1,0,0:0:0:0:
256,96,71682,6,0,P|264:168|416:216,1,140
256,96,72182,6,0,P|240:272|152:304,1,210.000008010865
184,280,72682,2,0,P|96:240|56:112,1,210.000008010865
176,192,73182,2,0,P|272:136|400:152,1,210.000008010865
336,208,73682,2,0,B|224:328|56:144|80:152,3,210.000008010865
256,128,74682,5,0,0:0:0:0:
256,192,74848,1,0,0:0:0:0:
256,256,75015,1,0,0:0:0:0:
256,192,75182,2,0,P|368:128|368:40,1,210.000008010865
416,192,75682,2,0,P|304:128|304:40,1,210.000008010865
288,160,76182,2,0,P|216:240|144:240,1,105.000004005432
184,160,76432,2,0,B|96:160|24:288|72:304,2,210.000008010865
256,256,77182,2,0,L|400:224,1,105.000004005432
416,240,77432,2,0,P|432:112|368:40,2,210.000008010865
256,192,78182,6,0,L|184:200,6,70.0000026702882
320,192,78932,1,0,0:0:0:0:
400,160,79182,1,0,0:0:0:0:
408,96,79432,2,0,P|288:48|208:112,1,210.000008010865
256,192,80182,5,0,0:0:0:0:
360,224,80682,1,0,0:0:0:0:
240,232,81057,1,0,0:0:0:0:
232,248,81182,1,0,0:0:0:0:
328,152,81432,5,0,0:0:0:0:
432,96,81682,2,0,P|304:64|160:104,1,210.000008010865
200,232,82182,2,0,P|344:304|464:264,1,210.000008010865
304,168,82682,6,0,L|152:112,2,140.000005340576
392,200,83182,1,0,0:0:0:0:
240,280,83432,1,0,0:0:0:0:
256,192,83682,2,0,P|192:136|208:32,1,140.000005340576
264,112,83932,2,0,L|432:112,1,140.000005340576
336,184,84182,6,0,L|312:304,1,105.000004005432
264,224,84432,2,0,L|152:192,1,105.000004005432
240,152,84682,2,0,L|264:48,1,105.000004005432
328,120,84932,2,0,L|440:144,1,105.000004005432
368,192,85182,2,0,P|272:256|152:208,1,210.000008010865
256,176,85682,2,0,P|376:112|472:160,1,210.000008010865
176,144,86182,6,0,L|40:144,1,105.000004005432
224,264,86432,2,0,L|336:280,1,105.000004005432
256,192,86682,2,0,L|376:224,1,105.000004005432
304,128,86932,2,0,L|424:176,1,105.000004005432
448,216,87182,2,0,P|432:336|312:320,1,210.000008010865
440,272,87682,2,0,B|312:176|200:184|208:248,1,210.000008010865
72,80,88182,2,0,P|200:144|488:80,1,420
256,40,89182,2,0,B|360:48|192:128|192:128|344:208|152:312,1,420
256,192,90182,12,0,91182,0:0:0:0:
256,192,100182,5,0,0:0:0:0:
200,256,100432,1,0,0:0:0:0:
184,168,100682,1,0,0:0:0:0:
200,256,100932,1,0,0:0:0:0:
256,192,101182,5,0,0:0:0:0:
312,256,101432,1,0,0:0:0:0:
328,168,101682,1,0,0:0:0:0:
312,256,101932,1,0,0:0:0:0:
256,192,102182,5,0,0:0:0:0:
200,128,102432,1,0,0:0:0:0:
184,216,102682,1,0,0:0:0:0:
200,128,102932,1,0,0:0:0:0:
256,192,103182,5,0,0:0:0:0:
312,128,103432,1,0,0:0:0:0:
328,216,103682,1,0,0:0:0:0:
312,128,103932,1,0,0:0:0:0:
256,240,104182,6,0,L|104:264,1,105.000004005432
320,312,104682,2,0,L|480:328,1,105.000004005432
208,176,105182,6,0,L|56:200,1,105.000004005432
272,248,105682,2,0,L|432:264,1,105.000004005432
256,192,106182,12,0,107182,0:0:0:0:
392,40,116057,6,0,L|456:104,1,52.5000020027161
416,136,116307,2,0,L|360:208,1,52.5000020027161
344,128,116557,2,0,L|256:112,1,52.5000020027161
304,176,116807,2,0,L|272:240,1,52.5000020027161
344,224,117057,2,0,L|424:256,1,52.5000020027161
344,288,117307,2,0,L|304:336,1,52.5000020027161
256,192,117682,5,0,0:0:0:0:
96,248,117932,5,0,0:0:0:0:
96,248,118182,2,0,L|152:176,1,52.5000020027161
168,256,118432,2,0,L|256:272,1,52.5000020027161
208,208,118682,2,0,L|240:144,1,52.5000020027161
168,160,118932,2,0,L|88:128,1,52.5000020027161
168,96,119182,2,0,L|208:48,2,52.5000020027161
256,192,119682,5,0,0:0:0:0:
256,112,119932,2,0,L|216:88,3,35.0000013351441
208,216,120682,2,0,L|168:192,3,35.0000013351441
176,280,121182,2,0,L|136:256,6,35.0000013351441
416,64,124182,6,0,B|416:144|416:144|352:160|352:224|456:240|456:312|456:312|320:312,1,420.000016021729
96,320,126182,6,0,B|96:240|96:240|160:224|160:160|56:144|56:72|56:72|192:72,1,420.000016021729
160,192,127932,2,0,L|296:192,1,105.000004005432
384,192,128432,2,0,L|240:192,1,105.000004005432
104,192,128932,2,0,L|224:192,1,105.000004005432
448,192,129432,2,0,L|312:192,1,105.000004005432
256,192,130182,6,0,L|208:160,2,52.5000020027161
280,288,130682,2,0,L|368:256,2,52.5000020027161
256,192,131182,1,0,0:0:0:0:
256,192,131432,1,0,0:0:0:0:
256,192,131682,1,0,0:0:0:0:
216,80,148182,6,0,L|144:152,1,70
232,128,149182,2,0,L|288:192,1,70
224,176,150182,2,0,L|160:224,1,70
240,200,151182,2,0,L|312:256,1,70
232,232,152182,2,0,L|176:288,1,70
240,264,153182,2,0,L|304:320,1,70
256,152,154182,2,0,P|208:176|192:200,1,70
232,192,154682,2,0,P|272:224|320:216,1,70
272,168,155182,2,0,P|296:152|328:144,1,35
352,152,155432,2,0,P|384:144|408:136,1,35
440,128,155682,2,0,P|456:72|440:40,1,70
224,88,164182,6,0,P|136:176|216:320,1,280
208,200,164682,2,0,L|480:120,1,280
256,320,165182,2,0,L|480:120,1,280
192,48,165682,2,0,L|488:128,3,280
352,160,166682,2,0,P|200:224|168:200,2,186.666666666667
256,192,167182,12,0,168182,0:0:0:0:
248,184,168432,6,0,L|376:104,3,140
366,109,168932,2,0,P|446:133|512:72,1,140
491,107,169182,2,0,L|496:295,1,140
494,247,169432,2,0,L|336:248,1,140
354,247,169682,2,0,L|208:120,1,140
249,155,169932,2,0,L|400:56,1,140
256,192,170182,12,0,171682,0:0:0:0:
200,80,172182,5,0,0:0:0:0:
120,192,172557,1,0,0:0:0:0:
136,216,172682,1,0,0:0:0:0:
296,224,173057,1,0,0:0:0:0:
328,192,173182,1,0,0:0:0:0:
360,96,173432,1,0,0:0:0:0:
320,208,173682,2,0,B|136:320|72:208|72:208|144:88|320:152,1,560
192,208,174682,2,0,B|376:320|440:208|440:208|368:88|192:152,1,560
256,192,175432,1,0,0:0:0:0:
256,192,175682,1,0,0:0:0:0:
240,72,176182,6,0,P|360:176|448:120,7,280
296,224,178182,2,0,P|160:272|80:176,7,280
272,40,180182,6,0,P|376:200|88:240,1,560
144,64,181182,2,0,B|104:192|208:176|208:176|120:288|320:296|304:192|304:192|464:200,1,560
256,192,182182,12,0,183182,0:0:0:0:
163,80,192182,6,0,P|242:91|314:74,1,140
329,122,192682,2,0,P|272:192|293:274,1,140
250,275,193182,2,0,B|162:230|197:154|224:146,3,140
349,304,194182,6,0,P|270:293|198:310,1,140
183,262,194682,2,0,P|240:192|219:110,1,140
262,109,195182,2,0,B|350:154|315:230|288:238,3,140
130,87,196182,6,0,B|223:98|298:84|430:121,1,280
396,209,197182,2,0,P|263:227|110:158,1,280
256,192,198182,12,0,199182,0:0:0:0:
256,64,200182,6,0,L|256:152,1,70
256,200,200432,2,0,L|256:280,1,70
208,336,200682,2,0,L|304:336,3,70
352,336,201182,2,0,P|384:304|376:232,1,70
392,208,201432,2,0,L|368:128,1,70
344,64,201682,2,0,P|272:64|232:96,1,70
224,112,201932,2,0,P|192:144|192:192,1,70
224,224,202182,2,0,L|328:248,1,70
356,258,202432,2,0,L|358:277|270:301,1,70
292,256,202682,2,0,L|296:229|371:222,1,70
264,293,202932,2,0,L|184:317,1,70
175,253,203182,2,0,L|255:229,1,70
219,167,203432,2,0,L|139:191,1,70
126,118,203682,2,0,L|206:94,1,70
368,96,203932,6,0,L|424:144,3,46.6666666666667
136,264,204682,6,0,L|192:312,3,46.6666666666667
256,192,205182,6,0,L|312:240,3,46.6666666666667
256,80,205932,5,10,0:0:0:0:
256,80,206057,1,0,0:0:0:0:
256,80,206182,1,10,0:0:0:0:
256,136,206432,1,10,0:0:0:0:
256,136,206557,1,0,0:0:0:0:
256,192,206682,1,8,0:0:0:0:
256,192,206807,1,8,0:0:0:0:
256,192,206932,1,8,0:0:0:0:
256,192,207057,1,14,0:0:0:0:
320,80,208182,6,0,P|416:144|448:208,3,140
312,208,209182,2,0,P|248:272|152:264,3,140
144,208,210182,2,0,B|224:136|112:144|208:72,1,140
312,96,210682,2,0,B|368:152|280:176|384:232,1,140
264,224,211182,2,0,P|200:288|128:272,1,140
256,192,211682,1,0,0:0:0:0:
256,104,211932,6,0,L|176:136,3,46.6666666666667
280,208,212682,2,0,L|336:240,3,46.6666666666667
256,272,213182,2,0,L|176:288,3,46.6666666666667
256,88,213932,5,0,0:0:0:0:
336,112,214119,2,0,L|376:136,1,35
336,240,214432,1,0,0:0:0:0:
144,224,214682,1,0,0:0:0:0:
232,80,214932,1,0,0:0:0:0:
336,240,215182,1,0,0:0:0:0:
144,224,215432,1,0,0:0:0:0:
232,80,215682,1,0,0:0:0:0:
256,192,215932,1,0,0:0:0:0:
256,192,216182,1,14,0:0:0:0:
