osu file format v14

[General]
AudioFilename: asymmetry.mp3
AudioLeadIn: 0
PreviewTime: 52188
Countdown: 0
SampleSet: Normal
StackLeniency: 0.7
Mode: 3
LetterboxInBreaks: 0
SpecialStyle: 0
WidescreenStoryboard: 1

[Editor]
Bookmarks: 1319,22188,32623,43058,53493,63928,79580,84797,90014,100449,110884,121319,131754,142188,178710,200721,210014,225667,236101,246536,247025,247514,248004,248493,248982,249471,249960,250449,250938,251428,251917
DistanceSpacing: 0.5
BeatDivisor: 4
GridSize: 32
TimelineZoom: 1.15

[Metadata]
Title:Asymmetry
TitleUnicode:アシンメトリー
Artist:Reol
ArtistUnicode:れをる
Creator:Chronocide
Version:Normal
Source:No title-
Tags:Aliscea, utaite, shota, nico, douga, GigaP
BeatmapID:811951
BeatmapSetID:370492

[Difficulty]
HPDrainRate:7.5
CircleSize:4
OverallDifficulty:7.5
ApproachRate:5
SliderMultiplier:1.4
SliderTickRate:2

[Events]
//Background and Video events
0,0,"BG.jpg",0,0
//Break Periods
//Storyboard Layer 0 (Background)
//Storyboard Layer 1 (Fail)
//Storyboard Layer 2 (Pass)
//Storyboard Layer 3 (Foreground)
//Storyboard Sound Samples

[TimingPoints]
15,326.086956521739,4,1,0,20,1,0
53493,-100,4,1,0,20,0,1
78112,-100,4,1,0,20,0,0
131754,-100,4,1,0,20,0,1
178710,-100,4,1,0,20,0,0
200721,-100,4,1,0,20,0,1
224199,-100,4,1,0,20,0,0

[HitObjects]
448,192,1319,5,0,0:0:0:0:
64,192,2623,1,0,0:0:0:0:
320,192,3928,1,0,0:0:0:0:
192,192,5232,1,0,0:0:0:0:
320,192,5884,1,0,0:0:0:0:
448,192,6536,128,0,11264:0:0:0:0:
64,192,7841,1,0,0:0:0:0:
192,192,9145,1,0,0:0:0:0:
192,192,10449,1,0,0:0:0:0:
320,192,11264,128,0,11754:0:0:0:0:
64,192,11754,1,0,0:0:0:0:
192,192,13058,1,0,0:0:0:0:
320,192,14362,1,0,0:0:0:0:
448,192,15667,1,0,0:0:0:0:
320,192,16319,1,0,0:0:0:0:
192,192,16971,1,0,0:0:0:0:
64,192,18275,128,0,21862:0:0:0:0:
320,192,19580,1,0,0:0:0:0:
448,192,20884,1,0,0:0:0:0:
192,192,21862,1,0,0:0:0:0:
320,192,21862,1,0,0:0:0:0:
64,192,22188,1,0,0:0:0:0:
448,192,22188,1,0,0:0:0:0:
320,192,22514,1,0,0:0:0:0:
192,192,22678,1,0,0:0:0:0:
320,192,23004,1,0,0:0:0:0:
64,192,23167,1,0,0:0:0:0:
448,192,23167,1,0,0:0:0:0:
192,192,23493,1,0,0:0:0:0:
320,192,23819,1,0,0:0:0:0:
64,192,23819,1,0,0:0:0:0:
448,192,23982,1,0,0:0:0:0:
64,192,24308,1,0,0:0:0:0:
192,192,24471,1,0,0:0:0:0:
448,192,24471,1,0,0:0:0:0:
320,192,24797,1,0,0:0:0:0:
64,192,25123,1,0,0:0:0:0:
448,192,25123,1,0,0:0:0:0:
192,192,25286,1,0,0:0:0:0:
320,192,25612,1,0,0:0:0:0:
64,192,25775,1,0,0:0:0:0:
448,192,25775,1,0,0:0:0:0:
192,192,26101,1,0,0:0:0:0:
320,192,26428,1,0,0:0:0:0:
448,192,26428,1,0,0:0:0:0:
64,192,26754,1,0,0:0:0:0:
192,192,26917,1,0,0:0:0:0:
320,192,27080,1,0,0:0:0:0:
448,192,27080,1,0,0:0:0:0:
64,192,27406,1,0,0:0:0:0:
192,192,27732,1,0,0:0:0:0:
448,192,27732,1,0,0:0:0:0:
320,192,27895,1,0,0:0:0:0:
192,192,28221,1,0,0:0:0:0:
64,192,28384,1,0,0:0:0:0:
448,192,28384,1,0,0:0:0:0:
320,192,28710,1,0,0:0:0:0:
192,192,29036,1,0,0:0:0:0:
448,192,29036,1,0,0:0:0:0:
64,192,29199,1,0,0:0:0:0:
448,192,29525,1,0,0:0:0:0:
320,192,29688,1,0,0:0:0:0:
64,192,29688,1,0,0:0:0:0:
192,192,30014,1,0,0:0:0:0:
64,192,30341,1,0,0:0:0:0:
448,192,30341,1,0,0:0:0:0:
320,192,30504,1,0,0:0:0:0:
192,192,30830,1,0,0:0:0:0:
64,192,30993,1,0,0:0:0:0:
448,192,30993,1,0,0:0:0:0:
320,192,31319,1,0,0:0:0:0:
192,192,31645,1,0,0:0:0:0:
64,192,31645,1,0,0:0:0:0:
448,192,31971,1,0,0:0:0:0:
320,192,32134,1,0,0:0:0:0:
192,192,32297,1,0,0:0:0:0:
64,192,32297,1,0,0:0:0:0:
448,192,32623,1,0,0:0:0:0:
64,192,33928,1,0,0:0:0:0:
320,192,35232,1,0,0:0:0:0:
448,192,36536,1,0,0:0:0:0:
64,192,37188,1,0,0:0:0:0:
192,192,37841,1,0,0:0:0:0:
64,192,39145,1,0,0:0:0:0:
320,192,40449,1,0,0:0:0:0:
448,192,41754,1,0,0:0:0:0:
192,192,42732,1,0,0:0:0:0:
320,192,42732,1,0,0:0:0:0:
64,192,43058,1,0,0:0:0:0:
448,192,43058,1,0,0:0:0:0:
320,192,43384,1,0,0:0:0:0:
448,192,43547,1,0,0:0:0:0:
192,192,43710,1,0,0:0:0:0:
320,192,43873,1,0,0:0:0:0:
64,192,44036,1,0,0:0:0:0:
448,192,44362,1,0,0:0:0:0:
192,192,44688,1,0,0:0:0:0:
64,192,44851,1,0,0:0:0:0:
320,192,45014,1,0,0:0:0:0:
192,192,45178,1,0,0:0:0:0:
448,192,45341,1,0,0:0:0:0:
64,192,45667,1,0,0:0:0:0:
320,192,45993,1,0,0:0:0:0:
192,192,46156,1,0,0:0:0:0:
448,192,46319,1,0,0:0:0:0:
320,192,46482,1,0,0:0:0:0:
64,192,46645,1,0,0:0:0:0:
448,192,46971,1,0,0:0:0:0:
192,192,47297,1,0,0:0:0:0:
320,192,47460,1,0,0:0:0:0:
64,192,47623,1,0,0:0:0:0:
192,192,47786,1,0,0:0:0:0:
448,192,47949,1,0,0:0:0:0:
192,192,48275,1,0,0:0:0:0:
64,192,48438,1,0,0:0:0:0:
320,192,48601,1,0,0:0:0:0:
448,192,48764,1,0,0:0:0:0:
64,192,48928,1,0,0:0:0:0:
192,192,49091,1,0,0:0:0:0:
448,192,49254,1,0,0:0:0:0:
320,192,49417,1,0,0:0:0:0:
192,192,49580,1,0,0:0:0:0:
64,192,49743,1,0,0:0:0:0:
320,192,49906,1,0,0:0:0:0:
448,192,50069,1,0,0:0:0:0:
64,192,50232,1,0,0:0:0:0:
192,192,50395,1,0,0:0:0:0:
320,192,50558,1,0,0:0:0:0:
448,192,50721,1,0,0:0:0:0:
192,192,50884,1,0,0:0:0:0:
320,192,51373,1,0,0:0:0:0:
192,192,51862,1,0,0:0:0:0:
320,192,52188,128,0,53493:0:0:0:0:
64,192,53493,1,0,0:0:0:0:
448,192,53493,1,0,0:0:0:0:
192,192,53819,1,0,0:0:0:0:
320,192,53819,1,0,0:0:0:0:
448,192,54308,1,0,0:0:0:0:
320,192,54471,1,0,0:0:0:0:
64,192,54471,1,0,0:0:0:0:
192,192,54797,1,0,0:0:0:0:
320,192,55123,1,0,0:0:0:0:
448,192,55123,1,0,0:0:0:0:
64,192,55286,1,0,0:0:0:0:
448,192,55612,1,0,0:0:0:0:
192,192,55775,1,0,0:0:0:0:
64,192,55775,1,0,0:0:0:0:
320,192,56101,1,0,0:0:0:0:
448,192,56428,1,0,0:0:0:0:
64,192,56428,1,0,0:0:0:0:
192,192,56917,1,0,0:0:0:0:
64,192,57080,1,0,0:0:0:0:
320,192,57080,1,0,0:0:0:0:
192,192,57406,1,0,0:0:0:0:
448,192,57732,1,0,0:0:0:0:
320,192,57732,1,0,0:0:0:0:
64,192,58058,1,0,0:0:0:0:
192,192,58221,1,0,0:0:0:0:
448,192,58384,1,0,0:0:0:0:
320,192,58384,1,0,0:0:0:0:
64,192,58710,1,0,0:0:0:0:
192,192,59036,1,0,0:0:0:0:
448,192,59036,1,0,0:0:0:0:
320,192,59525,1,0,0:0:0:0:
64,192,59688,1,0,0:0:0:0:
448,192,59688,1,0,0:0:0:0:
192,192,60014,1,0,0:0:0:0:
64,192,60341,1,0,0:0:0:0:
320,192,60341,1,0,0:0:0:0:
448,192,60504,1,0,0:0:0:0:
64,192,60830,1,0,0:0:0:0:
192,192,60993,1,0,0:0:0:0:
448,192,60993,1,0,0:0:0:0:
320,192,61319,1,0,0:0:0:0:
64,192,61645,1,0,0:0:0:0:
448,192,61645,1,0,0:0:0:0:
192,192,62134,1,0,0:0:0:0:
64,192,62297,1,0,0:0:0:0:
320,192,62297,1,0,0:0:0:0:
448,192,62623,1,0,0:0:0:0:
192,192,62949,1,0,0:0:0:0:
64,192,62949,1,0,0:0:0:0:
448,192,63275,1,0,0:0:0:0:
320,192,63438,1,0,0:0:0:0:
192,192,63601,1,0,0:0:0:0:
64,192,63601,1,0,0:0:0:0:
64,192,63928,1,0,0:0:0:0:
448,192,63928,1,0,0:0:0:0:
320,192,64254,1,0,0:0:0:0:
192,192,64254,1,0,0:0:0:0:
64,192,64743,1,0,0:0:0:0:
192,192,64906,1,0,0:0:0:0:
448,192,64906,1,0,0:0:0:0:
320,192,65232,1,0,0:0:0:0:
192,192,65558,1,0,0:0:0:0:
64,192,65558,1,0,0:0:0:0:
448,192,65721,1,0,0:0:0:0:
64,192,66047,1,0,0:0:0:0:
320,192,66210,1,0,0:0:0:0:
448,192,66210,1,0,0:0:0:0:
192,192,66536,1,0,0:0:0:0:
64,192,66862,1,0,0:0:0:0:
448,192,66862,1,0,0:0:0:0:
320,192,67351,1,0,0:0:0:0:
448,192,67514,1,0,0:0:0:0:
192,192,67514,1,0,0:0:0:0:
64,192,67841,1,0,0:0:0:0:
320,192,68167,1,0,0:0:0:0:
448,192,68167,1,0,0:0:0:0:
192,192,68493,1,0,0:0:0:0:
64,192,68656,1,0,0:0:0:0:
320,192,68819,1,0,0:0:0:0:
448,192,68819,1,0,0:0:0:0:
192,192,69145,1,0,0:0:0:0:
64,192,69471,1,0,0:0:0:0:
448,192,69471,1,0,0:0:0:0:
320,192,69960,1,0,0:0:0:0:
192,192,70123,1,0,0:0:0:0:
448,192,70123,1,0,0:0:0:0:
64,192,70449,1,0,0:0:0:0:
448,192,70775,1,0,0:0:0:0:
320,192,70775,1,0,0:0:0:0:
192,192,70938,1,0,0:0:0:0:
320,192,71264,1,0,0:0:0:0:
64,192,71428,1,0,0:0:0:0:
192,192,71428,1,0,0:0:0:0:
448,192,71754,1,0,0:0:0:0:
320,192,72080,1,0,0:0:0:0:
64,192,72080,1,0,0:0:0:0:
192,192,72569,1,0,0:0:0:0:
448,192,72732,1,0,0:0:0:0:
64,192,72732,1,0,0:0:0:0:
320,192,73058,1,0,0:0:0:0:
192,192,73384,1,0,0:0:0:0:
64,192,73384,1,0,0:0:0:0:
448,192,73710,1,0,0:0:0:0:
320,192,73873,1,0,0:0:0:0:
192,192,74036,1,0,0:0:0:0:
64,192,74036,1,0,0:0:0:0:
448,192,74362,1,0,0:0:0:0:
320,192,74688,1,0,0:0:0:0:
64,192,74688,1,0,0:0:0:0:
192,192,75178,1,0,0:0:0:0:
64,192,75341,1,0,0:0:0:0:
448,192,75341,1,0,0:0:0:0:
320,192,75667,1,0,0:0:0:0:
64,192,75993,1,0,0:0:0:0:
192,192,75993,1,0,0:0:0:0:
448,192,76156,1,0,0:0:0:0:
64,192,76482,1,0,0:0:0:0:
448,192,76645,1,0,0:0:0:0:
320,192,76645,1,0,0:0:0:0:
192,192,76971,1,0,0:0:0:0:
64,192,77297,1,0,0:0:0:0:
448,192,77297,1,0,0:0:0:0:
320,192,77623,1,0,0:0:0:0:
192,192,77786,1,0,0:0:0:0:
320,192,77949,1,0,0:0:0:0:
448,192,77949,1,0,0:0:0:0:
64,192,78112,1,0,0:0:0:0:
192,192,78112,1,0,0:0:0:0:
64,192,79254,1,0,0:0:0:0:
448,192,79254,1,0,0:0:0:0:
192,192,79580,1,0,0:0:0:0:
64,192,80884,1,0,0:0:0:0:
320,192,82188,1,0,0:0:0:0:
448,192,83493,1,0,0:0:0:0:
320,192,84145,1,0,0:0:0:0:
192,192,84797,1,0,0:0:0:0:
64,192,84797,1,0,0:0:0:0:
320,192,84960,1,0,0:0:0:0:
448,192,85123,1,0,0:0:0:0:
192,192,85286,1,0,0:0:0:0:
64,192,85449,128,0,85775:0:0:0:0:
320,192,85449,128,0,85612:0:0:0:0:
448,192,85612,1,0,0:0:0:0:
192,192,85775,1,0,0:0:0:0:
320,192,85938,1,0,0:0:0:0:
448,192,86101,1,0,0:0:0:0:
64,192,86264,1,0,0:0:0:0:
192,192,86428,1,0,0:0:0:0:
448,192,86591,1,0,0:0:0:0:
64,192,86754,1,0,0:0:0:0:
320,192,86917,128,0,87080:0:0:0:0:
192,192,87080,128,0,87406:0:0:0:0:
448,192,87406,128,0,88058:0:0:0:0:
192,192,88058,128,0,88384:0:0:0:0:
64,192,88384,128,0,88710:0:0:0:0:
448,192,88710,1,0,0:0:0:0:
320,192,88710,128,0,89362:0:0:0:0:
192,192,89362,128,0,89688:0:0:0:0:
320,192,89688,1,0,0:0:0:0:
448,192,89851,1,0,0:0:0:0:
64,192,90014,1,0,0:0:0:0:
320,192,90014,1,0,0:0:0:0:
192,192,90178,1,0,0:0:0:0:
320,192,90341,1,0,0:0:0:0:
448,192,90504,1,0,0:0:0:0:
64,192,90667,1,0,0:0:0:0:
320,192,90830,1,0,0:0:0:0:
64,192,90993,1,0,0:0:0:0:
192,192,90993,1,0,0:0:0:0:
320,192,91156,1,0,0:0:0:0:
448,192,91319,1,0,0:0:0:0:
192,192,91482,1,0,0:0:0:0:
320,192,91645,1,0,0:0:0:0:
64,192,91645,1,0,0:0:0:0:
192,192,91808,1,0,0:0:0:0:
448,192,91971,1,0,0:0:0:0:
320,192,92134,1,0,0:0:0:0:
192,192,92297,1,0,0:0:0:0:
448,192,92297,1,0,0:0:0:0:
320,192,92460,1,0,0:0:0:0:
64,192,92623,1,0,0:0:0:0:
192,192,92786,1,0,0:0:0:0:
320,192,92949,1,0,0:0:0:0:
448,192,92949,1,0,0:0:0:0:
64,192,93112,1,0,0:0:0:0:
448,192,93275,1,0,0:0:0:0:
192,192,93438,1,0,0:0:0:0:
320,192,93601,1,0,0:0:0:0:
448,192,93601,1,0,0:0:0:0:
192,192,93764,1,0,0:0:0:0:
64,192,93928,1,0,0:0:0:0:
320,192,94091,1,0,0:0:0:0:
192,192,94254,1,0,0:0:0:0:
448,192,94254,1,0,0:0:0:0:
64,192,94417,1,0,0:0:0:0:
320,192,94580,1,0,0:0:0:0:
192,192,94743,1,0,0:0:0:0:
64,192,94906,1,0,0:0:0:0:
448,192,94906,1,0,0:0:0:0:
320,192,95232,1,0,0:0:0:0:
192,192,95558,1,0,0:0:0:0:
448,192,95558,1,0,0:0:0:0:
320,192,95721,1,0,0:0:0:0:
192,192,96047,1,0,0:0:0:0:
64,192,96210,1,0,0:0:0:0:
320,192,96210,1,0,0:0:0:0:
448,192,96536,1,0,0:0:0:0:
192,192,96862,1,0,0:0:0:0:
64,192,96862,1,0,0:0:0:0:
320,192,97025,1,0,0:0:0:0:
192,192,97351,1,0,0:0:0:0:
320,192,97514,1,0,0:0:0:0:
448,192,97514,1,0,0:0:0:0:
64,192,97841,1,0,0:0:0:0:
192,192,98167,1,0,0:0:0:0:
448,192,98167,1,0,0:0:0:0:
320,192,98330,1,0,0:0:0:0:
192,192,98656,1,0,0:0:0:0:
64,192,98819,1,0,0:0:0:0:
448,192,98819,1,0,0:0:0:0:
320,192,98982,1,0,0:0:0:0:
192,192,99145,128,0,100449:0:0:0:0:
320,192,100123,1,0,0:0:0:0:
64,192,100449,1,0,0:0:0:0:
448,192,100449,1,0,0:0:0:0:
192,192,100775,1,0,0:0:0:0:
320,192,100775,1,0,0:0:0:0:
64,192,100938,1,0,0:0:0:0:
448,192,101264,1,0,0:0:0:0:
320,192,101428,1,0,0:0:0:0:
192,192,101428,1,0,0:0:0:0:
64,192,101754,1,0,0:0:0:0:
192,192,102080,1,0,0:0:0:0:
448,192,102080,1,0,0:0:0:0:
320,192,102243,1,0,0:0:0:0:
64,192,102569,1,0,0:0:0:0:
192,192,102732,1,0,0:0:0:0:
448,192,102732,1,0,0:0:0:0:
320,192,103058,1,0,0:0:0:0:
192,192,103384,1,0,0:0:0:0:
64,192,103384,1,0,0:0:0:0:
320,192,103547,1,0,0:0:0:0:
448,192,103873,1,0,0:0:0:0:
320,192,104036,1,0,0:0:0:0:
64,192,104036,1,0,0:0:0:0:
192,192,104362,1,0,0:0:0:0:
64,192,104688,1,0,0:0:0:0:
448,192,104688,1,0,0:0:0:0:
192,192,104851,1,0,0:0:0:0:
320,192,105014,1,0,0:0:0:0:
192,192,105178,1,0,0:0:0:0:
64,192,105341,1,0,0:0:0:0:
448,192,105341,1,0,0:0:0:0:
320,192,105504,1,0,0:0:0:0:
192,192,105667,1,0,0:0:0:0:
320,192,105830,1,0,0:0:0:0:
64,192,105993,1,0,0:0:0:0:
448,192,105993,1,0,0:0:0:0:
192,192,106156,1,0,0:0:0:0:
320,192,106482,1,0,0:0:0:0:
64,192,106645,1,0,0:0:0:0:
448,192,106645,1,0,0:0:0:0:
192,192,106971,1,0,0:0:0:0:
448,192,107297,1,0,0:0:0:0:
320,192,107297,1,0,0:0:0:0:
192,192,107460,1,0,0:0:0:0:
320,192,107786,1,0,0:0:0:0:
192,192,107949,1,0,0:0:0:0:
64,192,107949,1,0,0:0:0:0:
448,192,108275,1,0,0:0:0:0:
320,192,108438,1,0,0:0:0:0:
64,192,108601,1,0,0:0:0:0:
192,192,108601,1,0,0:0:0:0:
448,192,108764,1,0,0:0:0:0:
320,192,109091,1,0,0:0:0:0:
64,192,109254,1,0,0:0:0:0:
448,192,109254,1,0,0:0:0:0:
192,192,109580,1,0,0:0:0:0:
64,192,109906,1,0,0:0:0:0:
320,192,109906,1,0,0:0:0:0:
192,192,110232,1,0,0:0:0:0:
320,192,110395,1,0,0:0:0:0:
448,192,110558,1,0,0:0:0:0:
64,192,110558,1,0,0:0:0:0:
192,192,110884,1,0,0:0:0:0:
448,192,111536,1,0,0:0:0:0:
320,192,111536,1,0,0:0:0:0:
64,192,112188,1,0,0:0:0:0:
448,192,112841,1,0,0:0:0:0:
192,192,112841,1,0,0:0:0:0:
320,192,113493,1,0,0:0:0:0:
64,192,114145,1,0,0:0:0:0:
192,192,114145,1,0,0:0:0:0:
448,192,114797,1,0,0:0:0:0:
64,192,115449,1,0,0:0:0:0:
320,192,115449,1,0,0:0:0:0:
192,192,116101,1,0,0:0:0:0:
448,192,116754,1,0,0:0:0:0:
320,192,116754,1,0,0:0:0:0:
64,192,117406,1,0,0:0:0:0:
448,192,118058,1,0,0:0:0:0:
192,192,118058,1,0,0:0:0:0:
320,192,118710,1,0,0:0:0:0:
64,192,119362,1,0,0:0:0:0:
192,192,119362,1,0,0:0:0:0:
448,192,120014,1,0,0:0:0:0:
64,192,120667,1,0,0:0:0:0:
320,192,120667,1,0,0:0:0:0:
448,192,121319,1,0,0:0:0:0:
64,192,121319,1,0,0:0:0:0:
320,192,121645,1,0,0:0:0:0:
64,192,121645,1,0,0:0:0:0:
448,192,122134,1,0,0:0:0:0:
320,192,122297,1,0,0:0:0:0:
64,192,122297,1,0,0:0:0:0:
192,192,122623,1,0,0:0:0:0:
448,192,122949,1,0,0:0:0:0:
64,192,122949,1,0,0:0:0:0:
320,192,123112,1,0,0:0:0:0:
192,192,123438,1,0,0:0:0:0:
64,192,123601,1,0,0:0:0:0:
448,192,123601,1,0,0:0:0:0:
320,192,123928,1,0,0:0:0:0:
192,192,124254,1,0,0:0:0:0:
64,192,124254,1,0,0:0:0:0:
448,192,124743,1,0,0:0:0:0:
320,192,124906,1,0,0:0:0:0:
64,192,124906,1,0,0:0:0:0:
192,192,125232,1,0,0:0:0:0:
64,192,125558,1,0,0:0:0:0:
448,192,125558,1,0,0:0:0:0:
192,192,125884,1,0,0:0:0:0:
320,192,126047,1,0,0:0:0:0:
448,192,126210,1,0,0:0:0:0:
64,192,126210,1,0,0:0:0:0:
192,192,126536,1,0,0:0:0:0:
448,192,126862,1,0,0:0:0:0:
192,192,126862,1,0,0:0:0:0:
320,192,127351,1,0,0:0:0:0:
192,192,127514,1,0,0:0:0:0:
448,192,127514,1,0,0:0:0:0:
64,192,127841,1,0,0:0:0:0:
64,192,128167,1,0,0:0:0:0:
448,192,128167,1,0,0:0:0:0:
320,192,128330,1,0,0:0:0:0:
64,192,128656,1,0,0:0:0:0:
192,192,128819,1,0,0:0:0:0:
448,192,128819,1,0,0:0:0:0:
320,192,129145,1,0,0:0:0:0:
448,192,129145,1,0,0:0:0:0:
64,192,129471,1,0,0:0:0:0:
448,192,129471,1,0,0:0:0:0:
192,192,129960,1,0,0:0:0:0:
64,192,130123,1,0,0:0:0:0:
448,192,130123,128,0,130449:0:0:0:0:
320,192,130449,128,0,131101:0:0:0:0:
192,192,130449,128,0,130775:0:0:0:0:
192,192,131101,128,0,131428:0:0:0:0:
320,192,131428,128,0,131754:0:0:0:0:
64,192,131754,1,0,0:0:0:0:
448,192,131754,1,0,0:0:0:0:
192,192,132080,1,0,0:0:0:0:
448,192,132080,1,0,0:0:0:0:
320,192,132569,1,0,0:0:0:0:
64,192,132732,1,0,0:0:0:0:
192,192,132732,1,0,0:0:0:0:
448,192,133058,1,0,0:0:0:0:
320,192,133384,1,0,0:0:0:0:
64,192,133384,1,0,0:0:0:0:
448,192,133547,1,0,0:0:0:0:
64,192,133873,1,0,0:0:0:0:
448,192,134036,1,0,0:0:0:0:
192,192,134036,1,0,0:0:0:0:
320,192,134362,1,0,0:0:0:0:
64,192,134688,1,0,0:0:0:0:
448,192,134688,1,0,0:0:0:0:
320,192,135178,1,0,0:0:0:0:
192,192,135341,1,0,0:0:0:0:
448,192,135341,1,0,0:0:0:0:
64,192,135667,1,0,0:0:0:0:
192,192,135993,1,0,0:0:0:0:
448,192,135993,1,0,0:0:0:0:
320,192,136319,1,0,0:0:0:0:
192,192,136482,1,0,0:0:0:0:
64,192,136645,1,0,0:0:0:0:
448,192,136645,1,0,0:0:0:0:
320,192,136971,1,0,0:0:0:0:
192,192,137297,1,0,0:0:0:0:
448,192,137297,1,0,0:0:0:0:
64,192,137786,1,0,0:0:0:0:
320,192,137949,1,0,0:0:0:0:
448,192,137949,1,0,0:0:0:0:
192,192,138275,1,0,0:0:0:0:
320,192,138601,1,0,0:0:0:0:
448,192,138601,1,0,0:0:0:0:
64,192,138764,1,0,0:0:0:0:
448,192,139091,1,0,0:0:0:0:
192,192,139254,1,0,0:0:0:0:
64,192,139254,1,0,0:0:0:0:
320,192,139580,1,0,0:0:0:0:
64,192,139906,1,0,0:0:0:0:
448,192,139906,1,0,0:0:0:0:
192,192,140395,1,0,0:0:0:0:
320,192,140558,1,0,0:0:0:0:
448,192,140558,1,0,0:0:0:0:
192,192,140884,1,0,0:0:0:0:
64,192,141210,1,0,0:0:0:0:
320,192,141210,1,0,0:0:0:0:
192,192,141536,1,0,0:0:0:0:
320,192,141699,1,0,0:0:0:0:
448,192,141862,1,0,0:0:0:0:
192,192,141862,1,0,0:0:0:0:
448,192,142188,1,0,0:0:0:0:
64,192,142188,1,0,0:0:0:0:
320,192,142514,1,0,0:0:0:0:
64,192,142514,1,0,0:0:0:0:
192,192,143004,1,0,0:0:0:0:
320,192,143167,1,0,0:0:0:0:
448,192,143167,1,0,0:0:0:0:
64,192,143493,1,0,0:0:0:0:
192,192,143819,1,0,0:0:0:0:
448,192,143819,1,0,0:0:0:0:
320,192,143982,1,0,0:0:0:0:
192,192,144308,1,0,0:0:0:0:
64,192,144471,1,0,0:0:0:0:
320,192,144471,1,0,0:0:0:0:
448,192,144797,1,0,0:0:0:0:
192,192,145123,1,0,0:0:0:0:
64,192,145123,1,0,0:0:0:0:
320,192,145612,1,0,0:0:0:0:
192,192,145775,1,0,0:0:0:0:
448,192,145775,1,0,0:0:0:0:
320,192,146101,1,0,0:0:0:0:
64,192,146428,1,0,0:0:0:0:
448,192,146428,1,0,0:0:0:0:
192,192,146754,1,0,0:0:0:0:
320,192,146917,1,0,0:0:0:0:
192,192,147080,1,0,0:0:0:0:
64,192,147080,1,0,0:0:0:0:
448,192,147406,1,0,0:0:0:0:
320,192,147732,1,0,0:0:0:0:
64,192,147732,1,0,0:0:0:0:
192,192,148221,1,0,0:0:0:0:
320,192,148384,1,0,0:0:0:0:
448,192,148384,1,0,0:0:0:0:
64,192,148710,1,0,0:0:0:0:
448,192,149036,1,0,0:0:0:0:
192,192,149036,1,0,0:0:0:0:
64,192,149199,1,0,0:0:0:0:
448,192,149525,1,0,0:0:0:0:
64,192,149688,1,0,0:0:0:0:
320,192,149688,1,0,0:0:0:0:
192,192,150014,1,0,0:0:0:0:
64,192,150341,1,0,0:0:0:0:
448,192,150341,1,0,0:0:0:0:
320,192,150830,1,0,0:0:0:0:
192,192,150993,1,0,0:0:0:0:
448,192,150993,1,0,0:0:0:0:
320,192,151319,1,0,0:0:0:0:
192,192,151645,1,0,0:0:0:0:
64,192,151645,1,0,0:0:0:0:
320,192,151971,1,0,0:0:0:0:
192,192,152134,1,0,0:0:0:0:
320,192,152297,1,0,0:0:0:0:
448,192,152297,1,0,0:0:0:0:
64,192,152623,1,0,0:0:0:0:
192,192,152949,1,0,0:0:0:0:
448,192,152949,1,0,0:0:0:0:
320,192,153112,1,0,0:0:0:0:
64,192,153438,1,0,0:0:0:0:
192,192,153601,1,0,0:0:0:0:
448,192,153601,1,0,0:0:0:0:
320,192,153928,1,0,0:0:0:0:
192,192,154254,1,0,0:0:0:0:
64,192,154254,1,0,0:0:0:0:
448,192,154417,1,0,0:0:0:0:
64,192,154743,1,0,0:0:0:0:
320,192,154906,1,0,0:0:0:0:
448,192,154906,1,0,0:0:0:0:
192,192,155232,1,0,0:0:0:0:
64,192,155558,1,0,0:0:0:0:
320,192,155558,1,0,0:0:0:0:
448,192,156047,1,0,0:0:0:0:
192,192,156210,1,0,0:0:0:0:
64,192,156210,1,0,0:0:0:0:
320,192,156536,1,0,0:0:0:0:
192,192,156862,1,0,0:0:0:0:
448,192,156862,1,0,0:0:0:0:
320,192,157188,1,0,0:0:0:0:
192,192,157351,1,0,0:0:0:0:
64,192,157514,1,0,0:0:0:0:
448,192,157514,1,0,0:0:0:0:
320,192,157841,1,0,0:0:0:0:
192,192,158167,1,0,0:0:0:0:
64,192,158167,1,0,0:0:0:0:
448,192,158656,1,0,0:0:0:0:
320,192,158819,1,0,0:0:0:0:
64,192,158819,1,0,0:0:0:0:
192,192,159145,1,0,0:0:0:0:
320,192,159471,1,0,0:0:0:0:
448,192,159471,1,0,0:0:0:0:
64,192,159634,1,0,0:0:0:0:
448,192,159960,1,0,0:0:0:0:
192,192,160123,1,0,0:0:0:0:
64,192,160123,1,0,0:0:0:0:
320,192,160449,1,0,0:0:0:0:
64,192,160775,1,0,0:0:0:0:
448,192,160775,1,0,0:0:0:0:
192,192,161264,1,0,0:0:0:0:
320,192,161428,1,0,0:0:0:0:
64,192,161428,1,0,0:0:0:0:
448,192,161754,1,0,0:0:0:0:
320,192,162080,1,0,0:0:0:0:
64,192,162080,1,0,0:0:0:0:
192,192,162406,1,0,0:0:0:0:
320,192,162569,1,0,0:0:0:0:
448,192,162732,1,0,0:0:0:0:
64,192,162732,1,0,0:0:0:0:
192,192,163058,1,0,0:0:0:0:
320,192,163384,1,0,0:0:0:0:
448,192,163384,1,0,0:0:0:0:
64,192,163873,1,0,0:0:0:0:
192,192,164036,1,0,0:0:0:0:
448,192,164036,1,0,0:0:0:0:
320,192,164362,1,0,0:0:0:0:
64,192,164688,1,0,0:0:0:0:
448,192,164688,1,0,0:0:0:0:
192,192,164851,1,0,0:0:0:0:
320,192,165178,1,0,0:0:0:0:
64,192,165341,1,0,0:0:0:0:
448,192,165341,1,0,0:0:0:0:
192,192,165667,1,0,0:0:0:0:
320,192,165993,1,0,0:0:0:0:
64,192,165993,1,0,0:0:0:0:
448,192,166482,1,0,0:0:0:0:
192,192,166645,1,0,0:0:0:0:
64,192,166645,1,0,0:0:0:0:
320,192,166971,1,0,0:0:0:0:
192,192,167297,1,0,0:0:0:0:
448,192,167297,1,0,0:0:0:0:
64,192,167460,1,0,0:0:0:0:
320,192,167623,1,0,0:0:0:0:
192,192,167786,1,0,0:0:0:0:
64,192,167949,1,0,0:0:0:0:
320,192,167949,1,0,0:0:0:0:
448,192,168112,1,0,0:0:0:0:
192,192,168275,1,0,0:0:0:0:
64,192,168601,1,0,0:0:0:0:
320,192,168601,1,0,0:0:0:0:
448,192,169091,1,0,0:0:0:0:
192,192,169254,1,0,0:0:0:0:
64,192,169254,1,0,0:0:0:0:
320,192,169580,1,0,0:0:0:0:
448,192,169906,1,0,0:0:0:0:
192,192,169906,1,0,0:0:0:0:
64,192,170069,1,0,0:0:0:0:
448,192,170395,1,0,0:0:0:0:
320,192,170558,1,0,0:0:0:0:
64,192,170558,1,0,0:0:0:0:
192,192,170884,1,0,0:0:0:0:
320,192,171210,1,0,0:0:0:0:
448,192,171210,1,0,0:0:0:0:
64,192,171699,1,0,0:0:0:0:
192,192,171862,1,0,0:0:0:0:
448,192,171862,1,0,0:0:0:0:
320,192,172188,1,0,0:0:0:0:
192,192,172514,1,0,0:0:0:0:
64,192,172514,1,0,0:0:0:0:
448,192,172841,1,0,0:0:0:0:
320,192,173004,1,0,0:0:0:0:
192,192,173167,1,0,0:0:0:0:
64,192,173167,1,0,0:0:0:0:
448,192,173493,1,0,0:0:0:0:
64,192,173819,1,0,0:0:0:0:
192,192,173819,1,0,0:0:0:0:
320,192,173982,1,0,0:0:0:0:
320,192,174308,1,0,0:0:0:0:
448,192,174471,1,0,0:0:0:0:
64,192,174471,1,0,0:0:0:0:
192,192,174797,1,0,0:0:0:0:
320,192,175123,1,0,0:0:0:0:
64,192,175123,1,0,0:0:0:0:
448,192,175286,1,0,0:0:0:0:
64,192,175612,1,0,0:0:0:0:
448,192,175775,1,0,0:0:0:0:
192,192,175775,1,0,0:0:0:0:
320,192,176101,1,0,0:0:0:0:
64,192,176428,1,0,0:0:0:0:
448,192,176428,1,0,0:0:0:0:
192,192,176591,1,0,0:0:0:0:
320,192,176917,1,0,0:0:0:0:
448,192,177080,1,0,0:0:0:0:
64,192,177080,1,0,0:0:0:0:
192,192,177406,1,0,0:0:0:0:
320,192,177732,1,0,0:0:0:0:
448,192,177732,1,0,0:0:0:0:
64,192,178058,1,0,0:0:0:0:
192,192,178221,1,0,0:0:0:0:
320,192,178384,1,0,0:0:0:0:
448,192,178384,1,0,0:0:0:0:
192,192,178710,1,0,0:0:0:0:
64,192,179036,1,0,0:0:0:0:
448,192,179199,1,0,0:0:0:0:
320,192,179525,1,0,0:0:0:0:
64,192,179851,1,0,0:0:0:0:
192,192,180178,1,0,0:0:0:0:
320,192,180341,1,0,0:0:0:0:
192,192,180667,1,0,0:0:0:0:
64,192,180993,1,0,0:0:0:0:
320,192,181319,1,0,0:0:0:0:
448,192,181645,1,0,0:0:0:0:
64,192,181808,1,0,0:0:0:0:
192,192,182134,1,0,0:0:0:0:
448,192,182460,1,0,0:0:0:0:
64,192,182786,1,0,0:0:0:0:
320,192,182949,1,0,0:0:0:0:
192,192,183275,1,0,0:0:0:0:
448,192,183601,1,0,0:0:0:0:
320,192,183764,1,0,0:0:0:0:
192,192,183928,1,0,0:0:0:0:
320,192,184580,1,0,0:0:0:0:
192,192,184743,1,0,0:0:0:0:
64,192,185069,1,0,0:0:0:0:
448,192,185884,1,0,0:0:0:0:
192,192,186210,1,0,0:0:0:0:
320,192,186536,1,0,0:0:0:0:
192,192,187188,1,0,0:0:0:0:
320,192,187351,1,0,0:0:0:0:
448,192,187678,1,0,0:0:0:0:
192,192,189145,1,0,0:0:0:0:
64,192,189145,1,0,0:0:0:0:
320,192,189471,1,0,0:0:0:0:
448,192,189471,1,0,0:0:0:0:
192,192,189797,1,0,0:0:0:0:
64,192,189797,1,0,0:0:0:0:
320,192,190123,1,0,0:0:0:0:
448,192,190123,1,0,0:0:0:0:
192,192,190449,1,0,0:0:0:0:
64,192,190449,1,0,0:0:0:0:
320,192,190775,1,0,0:0:0:0:
448,192,190775,1,0,0:0:0:0:
192,192,191101,1,0,0:0:0:0:
64,192,191101,1,0,0:0:0:0:
320,192,191428,1,0,0:0:0:0:
448,192,191428,1,0,0:0:0:0:
64,192,191754,1,0,0:0:0:0:
448,192,191754,1,0,0:0:0:0:
320,192,192080,1,0,0:0:0:0:
64,192,192080,1,0,0:0:0:0:
192,192,192406,1,0,0:0:0:0:
448,192,192406,1,0,0:0:0:0:
320,192,192732,1,0,0:0:0:0:
64,192,192732,1,0,0:0:0:0:
448,192,193058,1,0,0:0:0:0:
320,192,193058,1,0,0:0:0:0:
320,192,193384,1,0,0:0:0:0:
192,192,193384,1,0,0:0:0:0:
192,192,193710,1,0,0:0:0:0:
64,192,193710,1,0,0:0:0:0:
448,192,194036,1,0,0:0:0:0:
320,192,194036,1,0,0:0:0:0:
192,192,194362,1,0,0:0:0:0:
448,192,194362,1,0,0:0:0:0:
64,192,194525,1,0,0:0:0:0:
320,192,194688,1,0,0:0:0:0:
448,192,194688,1,0,0:0:0:0:
192,192,194851,1,0,0:0:0:0:
448,192,195014,1,0,0:0:0:0:
64,192,195014,1,0,0:0:0:0:
320,192,195178,1,0,0:0:0:0:
192,192,195341,1,0,0:0:0:0:
448,192,195341,1,0,0:0:0:0:
64,192,195504,1,0,0:0:0:0:
192,192,195667,1,0,0:0:0:0:
448,192,195667,1,0,0:0:0:0:
320,192,195830,1,0,0:0:0:0:
448,192,195993,1,0,0:0:0:0:
64,192,195993,1,0,0:0:0:0:
192,192,196156,1,0,0:0:0:0:
320,192,196319,1,0,0:0:0:0:
448,192,196319,1,0,0:0:0:0:
64,192,196482,1,0,0:0:0:0:
192,192,196645,1,0,0:0:0:0:
448,192,196645,1,0,0:0:0:0:
320,192,196808,1,0,0:0:0:0:
448,192,196971,1,0,0:0:0:0:
64,192,196971,1,0,0:0:0:0:
192,192,197297,1,0,0:0:0:0:
320,192,197460,1,0,0:0:0:0:
448,192,197460,1,0,0:0:0:0:
192,192,197786,1,0,0:0:0:0:
448,192,197949,1,0,0:0:0:0:
320,192,197949,128,0,198275:0:0:0:0:
192,192,198275,128,0,198601:0:0:0:0:
448,192,198601,128,0,198928:0:0:0:0:
64,192,198928,128,0,199254:0:0:0:0:
320,192,199254,128,0,199580:0:0:0:0:
64,192,199580,1,0,0:0:0:0:
192,192,199580,128,0,200721:0:0:0:0:
64,192,200721,1,0,0:0:0:0:
448,192,200721,1,0,0:0:0:0:
64,192,201210,1,0,0:0:0:0:
320,192,201210,1,0,0:0:0:0:
192,192,201373,1,0,0:0:0:0:
320,192,201699,1,0,0:0:0:0:
192,192,201862,1,0,0:0:0:0:
448,192,201862,1,0,0:0:0:0:
64,192,202188,1,0,0:0:0:0:
320,192,202514,1,0,0:0:0:0:
448,192,202514,1,0,0:0:0:0:
192,192,203004,1,0,0:0:0:0:
64,192,203167,1,0,0:0:0:0:
320,192,203167,1,0,0:0:0:0:
448,192,203493,1,0,0:0:0:0:
192,192,203819,1,0,0:0:0:0:
64,192,203819,1,0,0:0:0:0:
320,192,204145,1,0,0:0:0:0:
448,192,204308,1,0,0:0:0:0:
64,192,204471,1,0,0:0:0:0:
192,192,204471,1,0,0:0:0:0:
320,192,204797,1,0,0:0:0:0:
192,192,205123,1,0,0:0:0:0:
448,192,205123,1,0,0:0:0:0:
64,192,205612,1,0,0:0:0:0:
320,192,205775,1,0,0:0:0:0:
448,192,205775,1,0,0:0:0:0:
192,192,206101,1,0,0:0:0:0:
320,192,206428,1,0,0:0:0:0:
448,192,206428,1,0,0:0:0:0:
64,192,206591,1,0,0:0:0:0:
448,192,206917,1,0,0:0:0:0:
192,192,207080,1,0,0:0:0:0:
64,192,207080,1,0,0:0:0:0:
320,192,207406,1,0,0:0:0:0:
448,192,207732,1,0,0:0:0:0:
192,192,207732,1,0,0:0:0:0:
320,192,208221,1,0,0:0:0:0:
64,192,208384,1,0,0:0:0:0:
448,192,208384,1,0,0:0:0:0:
192,192,208710,1,0,0:0:0:0:
320,192,209036,1,0,0:0:0:0:
448,192,209036,1,0,0:0:0:0:
192,192,209362,1,0,0:0:0:0:
64,192,209525,1,0,0:0:0:0:
320,192,209688,1,0,0:0:0:0:
448,192,209688,1,0,0:0:0:0:
64,192,210014,1,0,0:0:0:0:
448,192,210014,1,0,0:0:0:0:
192,192,210341,1,0,0:0:0:0:
64,192,210341,1,0,0:0:0:0:
320,192,210830,1,0,0:0:0:0:
192,192,210993,1,0,0:0:0:0:
448,192,210993,1,0,0:0:0:0:
64,192,211319,1,0,0:0:0:0:
320,192,211645,1,0,0:0:0:0:
448,192,211645,1,0,0:0:0:0:
192,192,211808,1,0,0:0:0:0:
320,192,212134,1,0,0:0:0:0:
192,192,212297,1,0,0:0:0:0:
64,192,212297,1,0,0:0:0:0:
448,192,212623,1,0,0:0:0:0:
320,192,212949,1,0,0:0:0:0:
64,192,212949,1,0,0:0:0:0:
192,192,213438,1,0,0:0:0:0:
64,192,213601,1,0,0:0:0:0:
448,192,213601,1,0,0:0:0:0:
320,192,213928,1,0,0:0:0:0:
64,192,214254,1,0,0:0:0:0:
192,192,214254,1,0,0:0:0:0:
448,192,214580,1,0,0:0:0:0:
320,192,214743,1,0,0:0:0:0:
192,192,214906,1,0,0:0:0:0:
64,192,214906,1,0,0:0:0:0:
448,192,215232,1,0,0:0:0:0:
320,192,215558,1,0,0:0:0:0:
64,192,215558,1,0,0:0:0:0:
192,192,216047,1,0,0:0:0:0:
320,192,216210,1,0,0:0:0:0:
448,192,216210,1,0,0:0:0:0:
64,192,216536,1,0,0:0:0:0:
192,192,216862,1,0,0:0:0:0:
448,192,216862,1,0,0:0:0:0:
64,192,217025,1,0,0:0:0:0:
448,192,217351,1,0,0:0:0:0:
64,192,217514,1,0,0:0:0:0:
320,192,217514,1,0,0:0:0:0:
192,192,217841,1,0,0:0:0:0:
64,192,218167,1,0,0:0:0:0:
448,192,218167,1,0,0:0:0:0:
320,192,218656,1,0,0:0:0:0:
192,192,218819,1,0,0:0:0:0:
448,192,218819,1,0,0:0:0:0:
64,192,219145,1,0,0:0:0:0:
320,192,219471,1,0,0:0:0:0:
448,192,219471,1,0,0:0:0:0:
64,192,219797,1,0,0:0:0:0:
192,192,219960,1,0,0:0:0:0:
320,192,220123,1,0,0:0:0:0:
448,192,220123,1,0,0:0:0:0:
64,192,220449,1,0,0:0:0:0:
192,192,220775,1,0,0:0:0:0:
448,192,220775,1,0,0:0:0:0:
320,192,221264,1,0,0:0:0:0:
192,192,221428,1,0,0:0:0:0:
64,192,221428,1,0,0:0:0:0:
448,192,221754,1,0,0:0:0:0:
192,192,222080,1,0,0:0:0:0:
320,192,222080,1,0,0:0:0:0:
64,192,222243,1,0,0:0:0:0:
448,192,222569,1,0,0:0:0:0:
320,192,222732,1,0,0:0:0:0:
192,192,222732,1,0,0:0:0:0:
64,192,223058,1,0,0:0:0:0:
192,192,223384,1,0,0:0:0:0:
448,192,223384,1,0,0:0:0:0:
320,192,223873,1,0,0:0:0:0:
64,192,224036,1,0,0:0:0:0:
448,192,224036,1,0,0:0:0:0:
192,192,224199,128,0,225667:0:0:0:0:
320,192,224199,1,0,0:0:0:0:
64,192,225667,1,0,0:0:0:0:
448,192,225667,1,0,0:0:0:0:
320,192,225993,1,0,0:0:0:0:
64,192,225993,1,0,0:0:0:0:
448,192,226156,1,0,0:0:0:0:
64,192,226482,1,0,0:0:0:0:
192,192,226645,1,0,0:0:0:0:
448,192,226645,1,0,0:0:0:0:
320,192,226971,1,0,0:0:0:0:
192,192,227297,1,0,0:0:0:0:
64,192,227297,1,0,0:0:0:0:
448,192,227460,1,0,0:0:0:0:
64,192,227786,1,0,0:0:0:0:
320,192,227949,1,0,0:0:0:0:
448,192,227949,1,0,0:0:0:0:
192,192,228275,1,0,0:0:0:0:
64,192,228601,1,0,0:0:0:0:
448,192,228601,1,0,0:0:0:0:
320,192,229091,1,0,0:0:0:0:
192,192,229254,1,0,0:0:0:0:
448,192,229254,1,0,0:0:0:0:
64,192,229580,1,0,0:0:0:0:
320,192,229906,1,0,0:0:0:0:
448,192,229906,1,0,0:0:0:0:
192,192,230232,1,0,0:0:0:0:
64,192,230395,1,0,0:0:0:0:
320,192,230558,1,0,0:0:0:0:
448,192,230558,1,0,0:0:0:0:
192,192,230884,1,0,0:0:0:0:
320,192,231210,1,0,0:0:0:0:
64,192,231210,1,0,0:0:0:0:
192,192,231699,1,0,0:0:0:0:
64,192,231862,1,0,0:0:0:0:
448,192,231862,1,0,0:0:0:0:
320,192,232188,1,0,0:0:0:0:
192,192,232514,1,0,0:0:0:0:
64,192,232514,1,0,0:0:0:0:
448,192,232678,1,0,0:0:0:0:
64,192,233004,1,0,0:0:0:0:
320,192,233167,1,0,0:0:0:0:
448,192,233167,1,0,0:0:0:0:
192,192,233493,1,0,0:0:0:0:
64,192,233819,1,0,0:0:0:0:
448,192,233819,1,0,0:0:0:0:
320,192,234308,1,0,0:0:0:0:
192,192,234471,1,0,0:0:0:0:
448,192,234471,1,0,0:0:0:0:
320,192,234797,1,0,0:0:0:0:
192,192,235123,1,0,0:0:0:0:
64,192,235123,1,0,0:0:0:0:
320,192,235449,1,0,0:0:0:0:
448,192,235612,1,0,0:0:0:0:
192,192,235775,1,0,0:0:0:0:
64,192,235775,1,0,0:0:0:0:
448,192,236101,1,0,0:0:0:0:
64,192,236101,1,0,0:0:0:0:
320,192,236428,1,0,0:0:0:0:
448,192,236428,1,0,0:0:0:0:
192,192,236917,1,0,0:0:0:0:
64,192,237080,1,0,0:0:0:0:
320,192,237080,1,0,0:0:0:0:
448,192,237406,1,0,0:0:0:0:
192,192,237732,1,0,0:0:0:0:
64,192,237732,1,0,0:0:0:0:
320,192,237895,1,0,0:0:0:0:
192,192,238221,1,0,0:0:0:0:
320,192,238384,1,0,0:0:0:0:
448,192,238384,1,0,0:0:0:0:
64,192,238710,1,0,0:0:0:0:
192,192,239036,1,0,0:0:0:0:
448,192,239036,1,0,0:0:0:0:
320,192,239525,1,0,0:0:0:0:
192,192,239688,1,0,0:0:0:0:
64,192,239688,1,0,0:0:0:0:
448,192,240014,1,0,0:0:0:0:
320,192,240341,1,0,0:0:0:0:
64,192,240341,1,0,0:0:0:0:
448,192,240667,1,0,0:0:0:0:
320,192,240830,1,0,0:0:0:0:
192,192,240993,1,0,0:0:0:0:
448,192,240993,1,0,0:0:0:0:
64,192,241319,1,0,0:0:0:0:
320,192,241645,1,0,0:0:0:0:
448,192,241645,1,0,0:0:0:0:
64,192,242134,1,0,0:0:0:0:
192,192,242297,1,0,0:0:0:0:
448,192,242297,1,0,0:0:0:0:
320,192,242623,1,0,0:0:0:0:
192,192,242949,1,0,0:0:0:0:
64,192,242949,1,0,0:0:0:0:
448,192,243112,1,0,0:0:0:0:
64,192,243438,1,0,0:0:0:0:
320,192,243601,1,0,0:0:0:0:
448,192,243601,1,0,0:0:0:0:
192,192,243928,1,0,0:0:0:0:
64,192,244254,1,0,0:0:0:0:
320,192,244254,1,0,0:0:0:0:
448,192,244743,1,0,0:0:0:0:
192,192,244906,1,0,0:0:0:0:
64,192,244906,1,0,0:0:0:0:
320,192,245232,1,0,0:0:0:0:
192,192,245558,1,0,0:0:0:0:
448,192,245558,1,0,0:0:0:0:
64,192,245884,1,0,0:0:0:0:
192,192,246047,1,0,0:0:0:0:
320,192,246210,1,0,0:0:0:0:
64,192,246210,1,0,0:0:0:0:
192,192,246536,1,0,0:0:0:0:
448,192,246536,1,0,0:0:0:0:
320,192,246699,1,0,0:0:0:0:
64,192,246862,1,0,0:0:0:0:
192,192,247025,1,0,0:0:0:0:
448,192,247025,1,0,0:0:0:0:
320,192,247188,1,0,0:0:0:0:
192,192,247351,1,0,0:0:0:0:
64,192,247514,1,0,0:0:0:0:
320,192,247514,1,0,0:0:0:0:
192,192,247678,1,0,0:0:0:0:
448,192,247841,1,0,0:0:0:0:
320,192,248004,1,0,0:0:0:0:
64,192,248004,1,0,0:0:0:0:
192,192,248167,1,0,0:0:0:0:
320,192,248330,1,0,0:0:0:0:
192,192,248493,1,0,0:0:0:0:
64,192,248493,1,0,0:0:0:0:
448,192,248656,1,0,0:0:0:0:
320,192,248819,1,0,0:0:0:0:
192,192,248982,1,0,0:0:0:0:
64,192,248982,1,0,0:0:0:0:
448,192,249145,1,0,0:0:0:0:
192,192,249308,1,0,0:0:0:0:
320,192,249471,1,0,0:0:0:0:
448,192,249471,1,0,0:0:0:0:
64,192,249634,1,0,0:0:0:0:
192,192,249797,1,0,0:0:0:0:
320,192,249960,1,0,0:0:0:0:
448,192,249960,1,0,0:0:0:0:
64,192,250123,1,0,0:0:0:0:
192,192,250286,1,0,0:0:0:0:
320,192,250449,1,0,0:0:0:0:
64,192,250449,1,0,0:0:0:0:
192,192,250612,1,0,0:0:0:0:
320,192,250775,1,0,0:0:0:0:
192,192,250938,1,0,0:0:0:0:
448,192,250938,1,0,0:0:0:0:
64,192,251101,1,0,0:0:0:0:
320,192,251264,1,0,0:0:0:0:
192,192,251428,1,0,0:0:0:0:
64,192,251428,1,0,0:0:0:0:
448,192,251591,1,0,0:0:0:0:
320,192,251591,1,0,0:0:0:0:
