osu file format v14

[General]
AudioFilename: asymmetry.mp3
AudioLeadIn: 0
PreviewTime: 52188
Countdown: 0
SampleSet: None
StackLeniency: 0.7
Mode: 3
LetterboxInBreaks: 0
SpecialStyle: 0
WidescreenStoryboard: 1

[Editor]
Bookmarks: 1319,22188,32623,43058,53493,63928,79580,84797,90014,100449,110884,121319,131754,142188,178710,200721,210014,225667,236101,246536,247025,247514,248004,248493,248982,249471,249960,250449,250938,251428,251917
DistanceSpacing: 0.5
BeatDivisor: 4
GridSize: 32
TimelineZoom: 1.15

[Metadata]
Title:Asymmetry
TitleUnicode:アシンメトリー
Artist:Reol
ArtistUnicode:れをる
Creator:Chronocide
Version:Normal [WIP]
Source:No title-
Tags:Aliscea, utaite, shota, nico, douga, GigaP
BeatmapID:1491677
BeatmapSetID:370492

[Difficulty]
HPDrainRate:7.5
CircleSize:4
OverallDifficulty:7.5
ApproachRate:5
SliderMultiplier:1.4
SliderTickRate:2

[Events]
//Background and Video events
0,0,"BG.jpg",0,0
//Break Periods
//Storyboard Layer 0 (Background)
//Storyboard Layer 1 (Fail)
//Storyboard Layer 2 (Pass)
//Storyboard Layer 3 (Foreground)
//Storyboard Sound Samples

[TimingPoints]
15,326.086956521739,4,1,0,20,1,0
53493,-100,4,1,0,20,0,1
78112,-100,4,1,0,20,0,0
131754,-100,4,1,0,20,0,1
178710,-100,4,1,0,20,0,0
200721,-100,4,1,0,20,0,1
224199,-100,4,1,0,20,0,0

[HitObjects]
448,192,1319,5,0,0:0:0:0:
64,192,2623,1,0,0:0:0:0:
320,192,3928,1,0,0:0:0:0:
192,192,5232,1,0,0:0:0:0:
320,192,5884,128,0,6536:0:0:0:0:
448,192,6536,128,0,11264:0:0:0:0:
64,192,7841,1,0,0:0:0:0:
192,192,9145,1,0,0:0:0:0:
192,192,10449,1,0,0:0:0:0:
320,192,11264,128,0,11754:0:0:0:0:
64,192,11754,1,0,0:0:0:0:
192,192,13058,1,0,0:0:0:0:
320,192,14362,1,0,0:0:0:0:
448,192,15667,1,0,0:0:0:0:
320,192,16319,1,0,0:0:0:0:
192,192,16971,1,0,0:0:0:0:
64,192,18275,1,0,0:0:0:0:
320,192,19580,1,0,0:0:0:0:
448,192,20884,1,0,0:0:0:0:
320,192,21862,1,0,0:0:0:0:
192,192,21862,1,0,0:0:0:0:
448,192,22188,1,0,0:0:0:0:
64,192,22188,1,0,0:0:0:0:
320,192,22514,1,0,0:0:0:0:
192,192,22678,1,0,0:0:0:0:
64,192,23004,1,0,0:0:0:0:
192,192,23167,1,0,0:0:0:0:
448,192,23167,1,0,0:0:0:0:
320,192,23493,1,0,0:0:0:0:
448,192,23493,1,0,0:0:0:0:
64,192,23819,1,0,0:0:0:0:
448,192,23982,1,0,0:0:0:0:
192,192,23982,1,0,0:0:0:0:
448,192,24308,1,0,0:0:0:0:
64,192,24471,1,0,0:0:0:0:
320,192,24471,1,0,0:0:0:0:
192,192,24797,1,0,0:0:0:0:
64,192,24797,1,0,0:0:0:0:
448,192,25123,1,0,0:0:0:0:
320,192,25286,1,0,0:0:0:0:
64,192,25286,1,0,0:0:0:0:
192,192,25612,1,0,0:0:0:0:
64,192,25775,1,0,0:0:0:0:
320,192,25775,1,0,0:0:0:0:
448,192,26101,1,0,0:0:0:0:
64,192,26428,1,0,0:0:0:0:
192,192,26428,1,0,0:0:0:0:
320,192,26754,1,0,0:0:0:0:
448,192,26917,1,0,0:0:0:0:
192,192,27080,1,0,0:0:0:0:
64,192,27080,1,0,0:0:0:0:
448,192,27406,1,0,0:0:0:0:
320,192,27406,1,0,0:0:0:0:
64,192,27732,1,0,0:0:0:0:
192,192,27895,1,0,0:0:0:0:
448,192,27895,1,0,0:0:0:0:
320,192,28221,1,0,0:0:0:0:
448,192,28384,1,0,0:0:0:0:
64,192,28384,1,0,0:0:0:0:
320,192,28710,1,0,0:0:0:0:
448,192,28710,1,0,0:0:0:0:
64,192,29036,1,0,0:0:0:0:
448,192,29199,1,0,0:0:0:0:
192,192,29199,1,0,0:0:0:0:
320,192,29525,1,0,0:0:0:0:
192,192,29688,1,0,0:0:0:0:
64,192,29688,1,0,0:0:0:0:
320,192,30014,1,0,0:0:0:0:
448,192,30014,1,0,0:0:0:0:
64,192,30341,1,0,0:0:0:0:
448,192,30341,1,0,0:0:0:0:
192,192,30504,1,0,0:0:0:0:
448,192,30830,1,0,0:0:0:0:
64,192,30993,1,0,0:0:0:0:
320,192,30993,1,0,0:0:0:0:
448,192,31319,1,0,0:0:0:0:
192,192,31645,1,0,0:0:0:0:
64,192,31645,1,0,0:0:0:0:
320,192,31971,1,0,0:0:0:0:
64,192,32134,1,0,0:0:0:0:
448,192,32297,1,0,0:0:0:0:
192,192,32297,128,0,32623:0:0:0:0:
448,192,32623,1,0,0:0:0:0:
64,192,33928,1,0,0:0:0:0:
320,192,35232,1,0,0:0:0:0:
448,192,36536,1,0,0:0:0:0:
192,192,37841,1,0,0:0:0:0:
64,192,39145,1,0,0:0:0:0:
320,192,40449,1,0,0:0:0:0:
448,192,41754,1,0,0:0:0:0:
320,192,42732,1,0,0:0:0:0:
192,192,42732,1,0,0:0:0:0:
64,192,43058,1,0,0:0:0:0:
448,192,43058,1,0,0:0:0:0:
320,192,43384,1,0,0:0:0:0:
448,192,43547,1,0,0:0:0:0:
320,192,43710,1,0,0:0:0:0:
192,192,43873,1,0,0:0:0:0:
320,192,44036,1,0,0:0:0:0:
192,192,44199,1,0,0:0:0:0:
64,192,44362,1,0,0:0:0:0:
192,192,44525,1,0,0:0:0:0:
320,192,44688,1,0,0:0:0:0:
192,192,44851,1,0,0:0:0:0:
320,192,45014,1,0,0:0:0:0:
448,192,45178,1,0,0:0:0:0:
320,192,45341,1,0,0:0:0:0:
192,192,45504,1,0,0:0:0:0:
320,192,45667,1,0,0:0:0:0:
192,192,45830,1,0,0:0:0:0:
64,192,45993,1,0,0:0:0:0:
192,192,46156,1,0,0:0:0:0:
320,192,46319,1,0,0:0:0:0:
192,192,46482,1,0,0:0:0:0:
320,192,46645,1,0,0:0:0:0:
448,192,46808,1,0,0:0:0:0:
320,192,46971,1,0,0:0:0:0:
192,192,47134,1,0,0:0:0:0:
320,192,47297,1,0,0:0:0:0:
192,192,47460,1,0,0:0:0:0:
64,192,47623,1,0,0:0:0:0:
192,192,47786,1,0,0:0:0:0:
320,192,47949,1,0,0:0:0:0:
192,192,48112,1,0,0:0:0:0:
320,192,48275,1,0,0:0:0:0:
320,192,48438,1,0,0:0:0:0:
64,192,48601,1,0,0:0:0:0:
192,192,48764,1,0,0:0:0:0:
192,192,48928,1,0,0:0:0:0:
192,192,49091,1,0,0:0:0:0:
448,192,49254,1,0,0:0:0:0:
320,192,49417,1,0,0:0:0:0:
320,192,49580,1,0,0:0:0:0:
320,192,49743,1,0,0:0:0:0:
64,192,49906,1,0,0:0:0:0:
192,192,50069,1,0,0:0:0:0:
192,192,50232,1,0,0:0:0:0:
192,192,50395,128,0,50558:0:0:0:0:
448,192,50558,1,0,0:0:0:0:
192,192,50884,1,0,0:0:0:0:
192,192,51373,1,0,0:0:0:0:
192,192,51862,1,0,0:0:0:0:
320,192,52188,128,0,53493:0:0:0:0:
192,192,53493,1,0,0:0:0:0:
448,192,53493,1,0,0:0:0:0:
64,192,53819,1,0,0:0:0:0:
320,192,53819,1,0,0:0:0:0:
192,192,54308,1,0,0:0:0:0:
64,192,54471,1,0,0:0:0:0:
448,192,54471,1,0,0:0:0:0:
192,192,54797,1,0,0:0:0:0:
320,192,55123,1,0,0:0:0:0:
448,192,55123,1,0,0:0:0:0:
64,192,55286,1,0,0:0:0:0:
64,192,55612,1,0,0:0:0:0:
320,192,55775,1,0,0:0:0:0:
448,192,55775,1,0,0:0:0:0:
192,192,56101,1,0,0:0:0:0:
64,192,56428,1,0,0:0:0:0:
448,192,56428,1,0,0:0:0:0:
320,192,56917,1,0,0:0:0:0:
192,192,57080,1,0,0:0:0:0:
64,192,57080,1,0,0:0:0:0:
448,192,57406,1,0,0:0:0:0:
320,192,57732,1,0,0:0:0:0:
64,192,57732,1,0,0:0:0:0:
192,192,58058,1,0,0:0:0:0:
320,192,58221,1,0,0:0:0:0:
64,192,58384,1,0,0:0:0:0:
448,192,58384,1,0,0:0:0:0:
320,192,58710,1,0,0:0:0:0:
192,192,59036,1,0,0:0:0:0:
64,192,59036,1,0,0:0:0:0:
448,192,59525,1,0,0:0:0:0:
320,192,59688,1,0,0:0:0:0:
64,192,59688,1,0,0:0:0:0:
192,192,60014,1,0,0:0:0:0:
320,192,60341,1,0,0:0:0:0:
448,192,60341,1,0,0:0:0:0:
64,192,60504,1,0,0:0:0:0:
64,192,60830,1,0,0:0:0:0:
320,192,60993,1,0,0:0:0:0:
448,192,60993,1,0,0:0:0:0:
192,192,61319,1,0,0:0:0:0:
64,192,61645,1,0,0:0:0:0:
448,192,61645,1,0,0:0:0:0:
192,192,62134,1,0,0:0:0:0:
320,192,62297,1,0,0:0:0:0:
448,192,62297,1,0,0:0:0:0:
64,192,62623,1,0,0:0:0:0:
192,192,62949,1,0,0:0:0:0:
448,192,62949,1,0,0:0:0:0:
320,192,63275,1,0,0:0:0:0:
192,192,63438,1,0,0:0:0:0:
448,192,63601,1,0,0:0:0:0:
64,192,63601,1,0,0:0:0:0:
448,192,63928,1,0,0:0:0:0:
192,192,63928,1,0,0:0:0:0:
64,192,64254,1,0,0:0:0:0:
448,192,64743,1,0,0:0:0:0:
320,192,64906,1,0,0:0:0:0:
64,192,64906,1,0,0:0:0:0:
192,192,65232,1,0,0:0:0:0:
448,192,65558,1,0,0:0:0:0:
64,192,65558,1,0,0:0:0:0:
320,192,65721,1,0,0:0:0:0:
192,192,66047,1,0,0:0:0:0:
448,192,66210,1,0,0:0:0:0:
64,192,66210,1,0,0:0:0:0:
320,192,66536,1,0,0:0:0:0:
192,192,66862,1,0,0:0:0:0:
64,192,66862,1,0,0:0:0:0:
448,192,67351,1,0,0:0:0:0:
320,192,67514,1,0,0:0:0:0:
64,192,67514,1,0,0:0:0:0:
192,192,67841,1,0,0:0:0:0:
320,192,68167,1,0,0:0:0:0:
448,192,68167,1,0,0:0:0:0:
64,192,68493,1,0,0:0:0:0:
448,192,68656,1,0,0:0:0:0:
320,192,68819,1,0,0:0:0:0:
64,192,68819,1,0,0:0:0:0:
192,192,69145,1,0,0:0:0:0:
448,192,69471,1,0,0:0:0:0:
64,192,69471,1,0,0:0:0:0:
320,192,69960,1,0,0:0:0:0:
192,192,70123,1,0,0:0:0:0:
64,192,70123,1,0,0:0:0:0:
448,192,70449,1,0,0:0:0:0:
320,192,70775,1,0,0:0:0:0:
64,192,70775,1,0,0:0:0:0:
192,192,70938,1,0,0:0:0:0:
192,192,71264,1,0,0:0:0:0:
448,192,71428,1,0,0:0:0:0:
64,192,71428,1,0,0:0:0:0:
320,192,71754,1,0,0:0:0:0:
192,192,72080,1,0,0:0:0:0:
64,192,72080,1,0,0:0:0:0:
448,192,72569,1,0,0:0:0:0:
320,192,72732,1,0,0:0:0:0:
64,192,72732,1,0,0:0:0:0:
192,192,73058,1,0,0:0:0:0:
