osu file format v14

[General]
AudioFilename: Asymmetry.mp3
AudioLeadIn: 0
PreviewTime: 197949
Countdown: 1
SampleSet: Normal
StackLeniency: 0.7
Mode: 0
LetterboxInBreaks: 0
WidescreenStoryboard: 1

[Editor]
Bookmarks: 15911
DistanceSpacing: 1.4
BeatDivisor: 4
GridSize: 8
TimelineZoom: 2.899999

[Metadata]
Title:Asymmetry
TitleUnicode:Asymmetry
Artist:Reol
ArtistUnicode:Reol
Creator:-Smine-
Version:Imperfection
Source:
Tags:Skystar Akaeboshi eletronic sidetracked day
BeatmapID:2452658
BeatmapSetID:972072

[Difficulty]
HPDrainRate:6
CircleSize:4
OverallDifficulty:8
ApproachRate:9.3
SliderMultiplier:1.8
SliderTickRate:1

[Events]
//Background and Video events
0,0,"Asymmetry face.jpg",0,0
//Break Periods
2,32823,37287
//Storyboard Layer 0 (Background)
//Storyboard Layer 1 (Fail)
//Storyboard Layer 2 (Pass)
//Storyboard Layer 3 (Foreground)
//Storyboard Layer 4 (Overlay)
//Storyboard Sound Samples

[TimingPoints]
15,326.086956521739,4,1,0,60,1,0
32297,-153.846153846154,4,1,0,60,0,0
43058,-100,4,1,0,60,0,0
50884,-66.6666666666667,4,1,0,60,0,0
51862,-100,4,1,0,60,0,0
53493,-100,4,1,0,60,0,1
63601,-153.846153846154,4,1,0,60,0,0
63928,-100,4,1,0,60,0,1
78112,-100,4,1,0,60,0,0
84797,-153.846153846154,4,1,0,60,0,0
85449,-50,4,1,0,60,0,0
85775,-100,4,1,0,60,0,0
87406,-153.846153846154,4,1,0,60,0,0
88058,-83.3333333333333,4,1,0,60,0,0
88710,-100,4,1,0,60,0,0
89688,-66.6666666666667,4,1,0,60,0,0
98982,-153.846153846154,4,1,0,60,0,0
99308,-100,4,1,0,60,0,0
110558,-200,4,1,0,60,0,0
121319,-100,4,1,0,60,0,0
131754,-100,4,1,0,100,0,1
141862,-153.846153846154,4,1,0,100,0,1
142188,-100,4,1,0,100,0,1
178710,-100,4,1,0,100,0,0
194362,-50,4,1,0,100,0,0
197949,-200,4,1,0,100,0,0
200884,-100,4,1,0,100,0,1
224199,-100,4,1,0,100,0,0

[Colours]
Combo1 : 230,0,0
Combo2 : 184,113,255
Combo3 : 41,185,239
Combo4 : 255,155,205
Combo5 : 168,168,168
Combo6 : 255,0,0

[HitObjects]
49,37,1319,5,0,0:0:0:0:
30,139,1563,1,0,0:0:0:0:
101,216,1808,1,0,0:0:0:0:
203,192,2053,1,0,0:0:0:0:
219,90,2297,1,0,0:0:0:0:
463,347,2623,5,0,0:0:0:0:
481,244,2867,1,0,0:0:0:0:
410,167,3112,1,0,0:0:0:0:
309,192,3357,1,0,0:0:0:0:
293,294,3601,1,0,0:0:0:0:
140,338,3928,5,0,0:0:0:0:
191,254,4172,1,0,0:0:0:0:
121,185,4417,1,0,0:0:0:0:
202,108,4661,1,0,0:0:0:0:
133,36,4906,1,0,0:0:0:0:
414,36,5232,5,0,0:0:0:0:
370,134,5476,1,0,0:0:0:0:
456,197,5721,1,0,0:0:0:0:
433,319,5883,37,0,0:0:0:0:
309,227,6128,1,0,0:0:0:0:
234,355,6373,1,0,0:0:0:0:
250,127,6536,6,0,L|148:127,1,90,0|0,0:0|0:0,0:0:0:0:
88,47,6862,1,0,0:0:0:0:
30,137,7025,2,0,L|30:191,2,45,0|0|0,0:0|0:0|0:0,0:0:0:0:
88,61,7351,1,0,0:0:0:0:
162,140,7514,2,0,L|264:140,1,90
363,149,7841,6,0,L|363:40,1,90
432,235,8167,2,0,L|432:325,1,90
198,231,8493,1,0,0:0:0:0:
314,231,8656,1,0,0:0:0:0:
257,356,8819,2,0,L|194:356,3,45,0|0|0|0,0:0|0:0|0:0|0:0,0:0:0:0:
166,353,9145,6,0,B|144:326|144:326|65:326,1,90
0,243,9471,1,0,0:0:0:0:
175,244,9634,2,0,L|73:244,1,90,0|0,0:0|0:0,0:0:0:0:
174,139,9960,1,0,0:0:0:0:
338,245,10123,1,0,0:0:0:0:
338,139,10286,1,0,0:0:0:0:
430,254,10449,38,0,B|413:312|413:312|323:364,1,135
329,351,10775,1,0,0:0:0:0:
429,167,10938,1,0,0:0:0:0:
429,167,11020,1,0,0:0:0:0:
429,167,11101,1,0,0:0:0:0:
335,51,11264,2,0,L|390:51,1,45,0|0,0:0|0:0,0:0:0:0:
325,65,11428,2,0,L|371:65,1,45,0|0,0:0|0:0,0:0:0:0:
256,192,11754,5,0,0:0:0:0:
160,192,12732,1,0,0:0:0:0:
64,192,12895,1,0,0:0:0:0:
257,193,13058,5,0,0:0:0:0:
360,294,13547,2,0,B|407:310|407:310|454:294,2,90,0|0|0,0:0|0:0|0:0,0:0:0:0:
352,192,14036,1,0,0:0:0:0:
448,192,14199,1,0,0:0:0:0:
257,193,14362,5,0,0:0:0:0:
256,64,15341,1,0,0:0:0:0:
256,192,15504,1,0,0:0:0:0:
140,238,15667,37,0,0:0:0:0:
255,306,15911,1,0,0:0:0:0:
373,241,16156,1,0,0:0:0:0:
372,146,16319,5,0,0:0:0:0:
257,78,16563,1,0,0:0:0:0:
139,143,16808,1,0,0:0:0:0:
256,192,16971,5,0,0:0:0:0:
256,280,17949,1,0,0:0:0:0:
256,360,18112,1,0,0:0:0:0:
256,192,18275,5,0,0:0:0:0:
360,104,18764,2,0,B|376:57|376:57|360:10,2,90,0|0|0,0:0|0:0|0:0,0:0:0:0:
256,104,19253,1,0,0:0:0:0:
256,24,19416,1,0,0:0:0:0:
256,192,19580,37,0,0:0:0:0:
352,192,20558,1,0,0:0:0:0:
448,192,20721,1,0,0:0:0:0:
256,192,20884,54,0,L|206:192,1,45
164,65,21129,2,0,L|214:65,1,45
244,204,21373,2,0,L|194:204,1,45
485,191,21699,2,0,L|435:191,1,45,0|0,0:0|0:0,0:0:0:0:
394,192,21862,1,0,0:0:0:0:
344,36,22188,22,0,B|191:36,1,135
167,38,22514,1,0,0:0:0:0:
112,192,22678,2,0,L|202:192,1,90
400,192,23004,2,0,L|310:192,1,90
256,128,23330,1,0,0:0:0:0:
336,288,23493,6,0,B|367:336|371:337|349:366,1,90
162,366,23819,2,0,B|140:337|144:336|176:288,1,90
256,192,24145,1,0,0:0:0:0:
256,192,24226,1,0,0:0:0:0:
256,192,24308,1,0,0:0:0:0:
346,54,24471,2,0,L|436:54,1,90
166,54,24797,6,0,L|76:54,1,90
32,192,25123,1,0,0:0:0:0:
168,273,25286,2,0,L|168:183,1,90
256,80,25612,1,0,0:0:0:0:
344,273,25775,2,0,L|344:183,1,90
368,72,26101,6,0,L|425:72,1,45
144,312,26346,2,0,L|87:312,1,45
256,192,26591,1,0,0:0:0:0:
256,192,26672,1,0,0:0:0:0:
256,192,26754,1,0,0:0:0:0:
336,288,26917,1,0,0:0:0:0:
131,212,27080,2,0,P|135:168|157:129,1,90
299,74,27406,38,0,B|360:88|360:88|360:168,1,135
360,208,27732,1,0,0:0:0:0:
200,336,27895,2,0,B|110:336,1,90
312,336,28221,2,0,B|402:336,1,90
152,208,28547,1,0,0:0:0:0:
213,74,28710,6,0,B|152:88|152:88|152:168,1,135
152,208,29036,2,0,B|109:221|109:221|43:198,1,90
256,288,29362,2,0,B|269:331|269:331|254:373,1,90
352,192,29688,2,0,B|395:179|395:179|437:193,1,90
256,16,30014,6,0,B|256:106,1,90
256,192,30341,1,0,0:0:0:0:
120,128,30504,2,0,P|127:85|168:72,1,90
256,192,30830,1,0,0:0:0:0:
343,72,30993,2,0,P|384:85|392:128,1,90
256,304,31319,5,0,0:0:0:0:
126,265,31482,1,0,0:0:0:0:
126,119,31645,1,0,0:0:0:0:
256,80,31808,1,0,0:0:0:0:
344,200,31971,1,0,0:0:0:0:
344,200,32053,1,0,0:0:0:0:
344,200,32134,1,0,0:0:0:0:
168,24,32297,38,0,L|80:24,1,87.749995983124
32,24,32623,5,0,0:0:0:0:
376,16,37841,6,0,B|399:64|399:64|408:67|408:67|404:110|450:131|453:154|453:154|371:162|344:212|358:280|384:313|464:325|464:325|419:389|419:389|371:375|324:353|284:289|277:223|316:156,1,818.999962509157
136,16,40449,6,0,B|112:64|112:64|103:67|103:67|107:110|61:131|58:154|58:154|140:162|167:212|154:280|128:313|47:325|47:325|92:389|92:389|140:375|187:353|227:289|235:223|196:156,1,818.999962509157
322,148,43058,38,0,L|422:148,1,90
457,58,43384,1,0,0:0:0:0:
320,136,43547,2,0,L|410:136,1,90
465,50,43873,1,0,0:0:0:0:
256,16,44036,2,0,L|256:113,1,90
190,148,44362,6,0,L|90:148,1,90,0|0,0:0|0:0,0:0:0:0:
55,58,44688,1,0,0:0:0:0:
192,136,44851,2,0,L|102:136,1,90
47,50,45177,1,0,0:0:0:0:
256,192,45341,1,0,0:0:0:0:
255,306,45504,6,0,B|364:306|351:321|351:206,1,180
256,192,45993,1,0,0:0:0:0:
257,78,46156,2,0,B|148:78|161:63|161:178,1,180
160,280,46645,1,0,0:0:0:0:
352,104,46808,1,0,0:0:0:0:
352,104,46889,1,0,0:0:0:0:
352,104,46971,6,0,L|450:104,1,90,0|0,0:0|0:0,0:0:0:0:
472,104,47216,1,0,0:0:0:0:
489,105,47297,2,0,L|489:161,2,45
489,279,47623,2,0,L|489:223,2,45
312,232,47949,1,0,0:0:0:0:
384,344,48112,1,0,0:0:0:0:
224,344,48275,38,0,L|134:344,1,90
69,239,48601,1,0,0:0:0:0:
215,335,48764,6,0,L|125:335,1,90
60,230,49090,1,0,0:0:0:0:
206,324,49254,6,0,L|116:324,1,90
306,60,49580,6,0,L|396:60,1,90
443,145,49906,1,0,0:0:0:0:
297,49,50069,38,0,L|387:49,1,90
452,154,50395,2,0,L|493:154,4,22.5
257,247,50721,1,0,0:0:0:0:
172,35,50884,6,0,B|146:95|146:95|182:153,1,135.000005149842
256,261,51210,1,0,0:0:0:0:
340,35,51373,2,0,B|366:95|366:95|329:153,1,135.000005149842
256,273,51699,1,0,0:0:0:0:
496,136,51862,2,0,B|488:184|432:208|432:208|464:248|464:248|424:304|376:256|376:256|360:336|296:376|216:376|152:336|136:256|136:256|88:304|48:248|48:248|80:208|80:208|24:184|16:136,1,855
31,93,53493,5,0,0:0:0:0:
189,78,53656,1,0,0:0:0:0:
189,78,53737,1,0,0:0:0:0:
189,78,53819,2,0,P|205:119|203:164,1,90
256,304,54145,1,0,0:0:0:0:
256,304,54226,1,0,0:0:0:0:
256,304,54308,1,0,0:0:0:0:
173,241,54471,2,0,L|130:226,1,45
339,241,54634,2,0,L|382:226,1,45
481,93,54797,5,0,0:0:0:0:
322,78,54960,1,0,0:0:0:0:
322,78,55041,1,0,0:0:0:0:
322,78,55123,2,0,P|306:119|308:164,1,90
321,307,55449,2,0,P|293:271|253:251,1,90
123,190,55775,2,0,P|167:184|205:160,1,90
48,112,56101,37,0,0:0:0:0:
33,270,56264,1,0,0:0:0:0:
33,270,56345,1,0,0:0:0:0:
33,270,56427,2,0,P|74:286|119:284,1,90
256,344,56754,1,0,0:0:0:0:
256,344,56835,1,0,0:0:0:0:
256,344,56917,1,0,0:0:0:0:
160,176,57080,2,0,L|180:216,1,45
331,216,57243,2,0,L|352:176,1,45
464,112,57406,5,0,0:0:0:0:
479,270,57569,1,0,0:0:0:0:
479,270,57650,1,0,0:0:0:0:
479,270,57732,2,0,P|437:286|392:284,1,90
181,101,58058,6,0,L|139:115,1,45
331,101,58221,2,0,L|373:115,1,45
189,85,58384,2,0,L|147:99,1,45
323,85,58547,2,0,L|365:99,1,45
154,254,58710,5,0,0:0:0:0:
65,200,58873,1,0,0:0:0:0:
65,200,58955,1,0,0:0:0:0:
65,200,59036,2,0,L|16:275,1,90
256,192,59362,2,0,L|256:96,1,90
447,200,59688,2,0,L|495:275,1,90
358,254,60014,37,0,0:0:0:0:
423,120,60177,1,0,0:0:0:0:
423,120,60259,1,0,0:0:0:0:
423,119,60341,2,0,P|405:79|373:47,1,90
256,112,60667,2,0,L|256:216,1,90
88,119,60993,2,0,P|106:79|138:47,1,90
336,168,61319,6,0,L|336:123,1,45
176,216,61482,2,0,L|176:261,1,45
352,163,61645,2,0,L|352:118,1,45
160,220,61808,2,0,L|160:265,1,45
328,272,61971,6,0,L|373:272,1,45
184,112,62134,2,0,L|139:112,1,45
342,288,62297,2,0,L|387:288,1,45
169,96,62460,2,0,L|124:96,1,45
89,257,62623,5,0,0:0:0:0:
95,302,62704,1,0,0:0:0:0:
121,340,62786,1,0,0:0:0:0:
162,360,62867,1,0,0:0:0:0:
208,364,62949,2,0,P|227:322|227:266,1,90
428,147,63275,2,0,P|382:151|334:179,1,90
131,64,63601,38,0,P|157:102|205:130,1,90
240,128,63928,5,0,0:0:0:0:
386,193,64091,1,0,0:0:0:0:
386,193,64172,1,0,0:0:0:0:
386,193,64254,2,0,P|395:236|392:281,1,90
256,360,64580,1,0,0:0:0:0:
256,360,64661,1,0,0:0:0:0:
256,360,64743,1,0,0:0:0:0:
163,293,64906,2,0,L|107:277,1,45
349,293,65069,2,0,L|405:277,1,45
272,128,65232,5,0,0:0:0:0:
126,193,65395,1,0,0:0:0:0:
126,193,65476,1,0,0:0:0:0:
126,193,65558,2,0,P|116:236|119:281,1,90
321,304,65884,2,0,P|364:290|401:265,1,90
320,78,66210,2,0,P|286:48|246:29,1,90
73,51,66536,5,0,0:0:0:0:
65,206,66699,1,0,0:0:0:0:
65,206,66781,1,0,0:0:0:0:
65,206,66862,2,0,P|114:217|159:211,1,90
256,120,67188,1,0,0:0:0:0:
256,120,67270,1,0,0:0:0:0:
256,120,67351,1,0,0:0:0:0:
312,32,67514,2,0,L|338:68,1,45
173,68,67678,2,0,L|200:32,1,45
439,51,67841,37,0,0:0:0:0:
447,206,68004,1,0,0:0:0:0:
447,206,68086,1,0,0:0:0:0:
447,206,68167,2,0,P|398:217|353:211,1,90
178,307,68493,6,0,L|213:279,1,45
334,307,68656,2,0,L|298:279,1,45
168,328,68819,2,0,L|203:300,1,45
344,328,68982,2,0,L|308:300,1,45
208,176,69145,6,0,B|208:104|208:104|219:90,1,90
256,64,69389,1,0,0:0:0:0:
292,90,69471,2,0,B|304:104|304:104|304:176,1,90
144,64,69797,2,0,L|184:16,1,45
339,29,69960,2,0,L|368:64,1,45
430,179,70123,2,0,P|414:220|385:254,1,90
82,179,70449,6,0,P|97:220|126:254,1,90
166,277,70694,1,0,0:0:0:0:
211,280,70775,2,0,L|304:280,1,90
336,136,71101,2,0,L|314:97,1,45
198,97,71264,2,0,L|176:136,1,45
424,136,71428,2,0,L|381:56,1,90
131,56,71754,38,0,L|88:136,1,90
67,174,71998,1,0,0:0:0:0:
52,217,72080,2,0,P|90:239|134:242,1,90
377,242,72406,2,0,P|421:239|460:217,1,90
445,174,72650,1,0,0:0:0:0:
424,136,72732,2,0,L|381:56,1,90
210,29,73058,6,0,L|198:72,1,45
302,108,73221,2,0,L|313:151,1,45
210,173,73384,2,0,L|198:216,1,45
302,250,73547,2,0,L|313:293,1,45
205,342,73710,1,0,0:0:0:0:
161,330,73792,1,0,0:0:0:0:
127,299,73873,1,0,0:0:0:0:
103,260,73955,1,0,0:0:0:0:
98,215,74036,2,0,B|98:171|98:171|119:130,1,90
392,130,74362,6,0,B|414:171|414:171|414:215,1,90
211,29,74688,2,0,L|305:29,1,90
256,192,75014,1,0,0:0:0:0:
256,192,75096,1,0,0:0:0:0:
256,192,75178,1,0,0:0:0:0:
344,129,75341,2,0,L|362:190,1,45
155,172,75504,2,0,L|168:129,1,45
440,165,75667,6,0,B|454:212|454:212|443:251,1,90
420,290,75911,1,0,0:0:0:0:
379,309,75993,2,0,L|275:309,1,90,0|0,0:0|0:0,0:0:0:0:
72,219,76319,2,0,B|58:172|58:172|68:132,1,90
92,94,76563,1,0,0:0:0:0:
133,75,76645,2,0,L|237:75,1,90,0|0,0:0|0:0,0:0:0:0:
339,263,76971,37,0,0:0:0:0:
321,264,77053,1,0,0:0:0:0:
303,265,77134,1,0,0:0:0:0:
286,266,77216,1,0,0:0:0:0:
226,267,77297,5,0,0:0:0:0:
179,224,77379,1,0,0:0:0:0:
179,161,77460,1,0,0:0:0:0:
226,117,77542,1,0,0:0:0:0:
288,118,77623,1,0,0:0:0:0:
333,161,77705,1,0,0:0:0:0:
333,224,77786,1,0,0:0:0:0:
286,267,77868,1,0,0:0:0:0:
226,267,77949,1,0,0:0:0:0:
179,224,78031,1,0,0:0:0:0:
179,161,78112,1,0,0:0:0:0:
467,348,78438,5,0,0:0:0:0:
382,266,78601,1,0,0:0:0:0:
470,191,78764,1,0,0:0:0:0:
478,146,78846,1,0,0:0:0:0:
467,101,78928,1,0,0:0:0:0:
437,67,79009,1,0,0:0:0:0:
393,53,79091,1,0,0:0:0:0:
293,151,79254,2,0,L|395:152,1,90,0|0,0:0|0:0,0:0:0:0:
257,59,79580,5,0,0:0:0:0:
257,59,80884,37,0,0:0:0:0:
257,59,82188,5,0,0:0:0:0:
257,59,83493,5,0,0:0:0:0:
63,117,83737,1,0,0:0:0:0:
41,291,83982,1,0,0:0:0:0:
257,59,84145,5,0,0:0:0:0:
451,117,84389,1,0,0:0:0:0:
473,291,84634,1,0,0:0:0:0:
221,355,84797,6,0,B|202:330|202:330|226:305|226:305|207:273|259:169,1,204.749990627289
339,57,85449,6,0,B|271:56|271:56|221:73|221:73|197:62|197:62|186:71|186:71|149:64,1,180
88,215,85775,70,0,B|116:212|116:212|122:220|122:220|143:219,1,60
404,222,86101,5,0,0:0:0:0:
385,205,86210,1,0,0:0:0:0:
349,211,86319,1,0,0:0:0:0:
327,247,86428,1,0,0:0:0:0:
353,288,86536,1,0,0:0:0:0:
408,276,86645,1,0,0:0:0:0:
404,222,86754,2,0,P|390:195|375:177,1,45
305,130,86917,2,0,P|390:119|420:39,1,180
155,85,87406,70,0,B|113:181|189:181|142:312,1,204.749990627289
458,310,88058,6,0,B|403:310|403:310|354:342|354:342|306:310|306:310|234:310,1,215.999993408203
41,235,88710,70,0,L|46:305,1,45
131,231,88873,2,0,L|126:161,1,45,0|0,0:0|0:0,0:0:0:0:
51,219,89036,2,0,L|56:289,1,45,0|0,0:0|0:0,0:0:0:0:
141,215,89199,2,0,L|136:145,1,45,0|0,0:0|0:0,0:0:0:0:
58,207,89362,1,0,0:0:0:0:
41,248,89444,1,0,0:0:0:0:
45,292,89525,1,0,0:0:0:0:
76,324,89607,1,0,0:0:0:0:
119,331,89688,6,0,B|175:310|175:310|199:317|199:317|222:303|321:313,1,202.500007724762
290,326,90014,5,0,0:0:0:0:
436,285,90178,1,0,0:0:0:0:
297,312,90341,1,0,0:0:0:0:
427,234,90504,1,0,0:0:0:0:
294,296,90667,1,0,0:0:0:0:
406,188,90830,1,0,0:0:0:0:
282,283,90993,1,0,0:0:0:0:
382,144,91156,1,0,0:0:0:0:
208,131,91319,5,0,0:0:0:0:
154,242,91482,1,0,0:0:0:0:
22,232,91645,1,0,0:0:0:0:
140,240,91808,1,0,0:0:0:0:
194,350,91971,1,0,0:0:0:0:
145,257,92134,1,0,0:0:0:0:
338,126,92297,1,0,0:0:0:0:
211,157,92460,1,0,0:0:0:0:
482,34,92623,5,0,0:0:0:0:
327,23,92786,1,0,0:0:0:0:
482,49,92949,1,0,0:0:0:0:
344,116,93112,1,0,0:0:0:0:
482,67,93275,1,0,0:0:0:0:
392,194,93438,1,0,0:0:0:0:
483,85,93601,1,0,0:0:0:0:
482,235,93764,1,0,0:0:0:0:
353,269,93928,6,0,L|267:269,1,45
211,329,94091,1,0,0:0:0:0:
211,329,94172,2,0,L|135:329,1,45
54,292,94335,1,0,0:0:0:0:
54,292,94417,1,0,0:0:0:0:
54,292,94498,1,0,0:0:0:0:
54,292,94580,1,0,0:0:0:0:
143,213,94743,1,0,0:0:0:0:
69,37,94906,2,0,P|34:76|90:149,1,135,0|0,0:0|0:0,0:0:0:0:
110,146,95232,6,0,B|141:131|141:131|248:131,1,135,0|0,0:0|0:0,0:0:0:0:
286,134,95558,1,0,0:0:0:0:
158,48,95721,2,0,L|250:48,1,90,0|0,0:0|0:0,0:0:0:0:
395,135,96047,1,0,0:0:0:0:
336,224,96210,1,0,0:0:0:0:
336,48,96373,1,0,0:0:0:0:
475,94,96536,6,0,P|484:150|466:199,1,90,0|0,0:0|0:0,0:0:0:0:
428,350,96862,2,0,P|419:294|437:245,1,90,0|0,0:0|0:0,0:0:0:0:
504,304,97188,1,0,0:0:0:0:
336,304,97351,1,0,0:0:0:0:
168,224,97514,1,0,0:0:0:0:
336,224,97677,1,0,0:0:0:0:
121,318,97841,6,0,B|77:291|77:291|77:205,1,135,0|0,0:0|0:0,0:0:0:0:
77,162,98167,1,0,0:0:0:0:
258,117,98330,2,0,L|152:117,1,90,0|0,0:0|0:0,0:0:0:0:
334,23,98656,1,0,0:0:0:0:
395,130,98819,1,0,0:0:0:0:
304,227,98982,6,0,B|275:221|259:236|259:236|234:230|198:236,1,87.749995983124,0|0,0:0|0:0,0:0:0:0:
176,217,99308,5,0,0:0:0:0:
134,200,99389,1,0,0:0:0:0:
88,203,99471,1,0,0:0:0:0:
55,234,99553,1,0,0:0:0:0:
46,277,99634,1,0,0:0:0:0:
64,318,99716,1,0,0:0:0:0:
100,343,99797,1,0,0:0:0:0:
145,342,99879,1,0,0:0:0:0:
183,320,99960,1,0,0:0:0:0:
227,310,100042,1,0,0:0:0:0:
271,310,100123,1,0,0:0:0:0:
308,334,100205,1,0,0:0:0:0:
350,348,100286,1,0,0:0:0:0:
395,349,100368,1,0,0:0:0:0:
438,338,100449,6,0,B|459:320|459:320|459:210,1,135,0|0,0:0|0:0,0:0:0:0:
459,167,100775,1,0,0:0:0:0:
369,270,100938,2,0,L|369:170,1,90,0|0,0:0|0:0,0:0:0:0:
401,94,101264,2,0,P|345:95|289:139,2,90,0|0|0,0:0|0:0|0:0,0:0:0:0:
226,151,101754,6,0,P|215:100|250:31,1,90
269,232,102080,2,0,P|226:243|183:233,1,90
122,137,102406,2,0,L|122:43,1,90,0|0,0:0|0:0,0:0:0:0:
33,170,102732,2,0,L|33:264,1,90,0|0,0:0|0:0,0:0:0:0:
114,315,103058,6,0,B|141:336|141:336|251:336,1,135,0|0,0:0|0:0,0:0:0:0:
287,337,103384,1,0,0:0:0:0:
186,248,103547,2,0,L|278:248,1,90,0|0,0:0|0:0,0:0:0:0:
363,241,103873,1,0,0:0:0:0:
337,148,104036,1,0,0:0:0:0:
454,291,104199,1,0,0:0:0:0:
385,59,104362,6,0,P|422:103|435:144,1,90,0|0,0:0|0:0,0:0:0:0:
440,176,104607,1,0,0:0:0:0:
448,128,104688,2,0,P|430:86|400:53,1,90,0|0,0:0|0:0,0:0:0:0:
256,32,105014,1,0,0:0:0:0:
256,32,105096,1,0,0:0:0:0:
256,32,105178,1,0,0:0:0:0:
134,76,105341,2,0,L|134:128,1,45,0|0,0:0|0:0,0:0:0:0:
52,157,105504,2,0,L|52:105,1,45,0|0,0:0|0:0,0:0:0:0:
210,193,105667,6,0,B|185:235|185:235|89:235,1,135,0|0,0:0|0:0,0:0:0:0:
53,236,105993,1,0,0:0:0:0:
205,318,106156,2,0,L|105:318,1,90,0|0,0:0|0:0,0:0:0:0:
298,359,106482,2,0,P|307:314|293:265,2,90,0|0|0,0:0|0:0|0:0,0:0:0:0:
459,326,106971,6,0,B|431:286|431:286|471:239,1,90,0|0,0:0|0:0,0:0:0:0:
419,108,107297,2,0,B|447:148|447:148|407:195,1,90,0|0,0:0|0:0,0:0:0:0:
325,241,107623,1,0,0:0:0:0:
305,29,107786,1,0,0:0:0:0:
207,165,107949,1,0,0:0:0:0:
419,108,108112,1,0,0:0:0:0:
128,120,108275,6,0,B|112:96|112:96|112:16,1,90,0|0,0:0|0:0,0:0:0:0:
224,52,108601,1,0,0:0:0:0:
293,149,108764,2,0,B|269:165|269:165|189:165,1,90,0|0,0:0|0:0,0:0:0:0:
130,209,109091,2,0,B|130:259|130:259|98:283,2,90,0|0|0,0:0|0:0|0:0,0:0:0:0:
16,316,109580,5,0,0:0:0:0:
44,350,109661,1,0,0:0:0:0:
86,364,109743,1,0,0:0:0:0:
130,361,109824,1,0,0:0:0:0:
171,342,109906,1,0,0:0:0:0:
210,321,109987,1,0,0:0:0:0:
254,315,110069,1,0,0:0:0:0:
298,318,110150,1,0,0:0:0:0:
336,341,110232,2,0,L|406:340,1,45,0|0,0:0|0:0,0:0:0:0:
474,268,110395,2,0,L|405:268,1,45,0|0,0:0|0:0,0:0:0:0:
348,231,110558,6,0,P|333:189|336:162,1,67.5,0|0,0:0|0:0,0:0:0:0:
407,110,110884,5,0,0:0:0:0:
342,47,111047,1,0,0:0:0:0:
417,96,111210,1,0,0:0:0:0:
353,31,111373,1,0,0:0:0:0:
266,111,111536,2,0,L|166:111,1,90,0|0,0:0|0:0,0:0:0:0:
66,205,112188,5,0,0:0:0:0:
131,268,112351,1,0,0:0:0:0:
56,219,112514,1,0,0:0:0:0:
120,284,112677,1,0,0:0:0:0:
207,204,112840,2,0,L|307:204,1,90,0|0,0:0|0:0,0:0:0:0:
461,291,113493,5,0,0:0:0:0:
396,354,113656,1,0,0:0:0:0:
471,305,113819,1,0,0:0:0:0:
407,370,113982,1,0,0:0:0:0:
320,290,114145,2,0,L|220:290,1,90,0|0,0:0|0:0,0:0:0:0:
51,291,114797,5,0,0:0:0:0:
116,354,114960,1,0,0:0:0:0:
41,305,115123,1,0,0:0:0:0:
105,370,115286,1,0,0:0:0:0:
139,239,115449,2,0,L|139:178,1,45,0|0,0:0|0:0,0:0:0:0:
47,189,115775,2,0,L|47:128,1,45,0|0,0:0|0:0,0:0:0:0:
50,57,116101,5,0,0:0:0:0:
136,106,116264,1,0,0:0:0:0:
131,12,116428,1,0,0:0:0:0:
61,67,116591,1,0,0:0:0:0:
149,114,116754,2,0,L|248:114,1,90,0|0,0:0|0:0,0:0:0:0:
378,121,117406,5,0,0:0:0:0:
329,207,117569,1,0,0:0:0:0:
423,202,117733,1,0,0:0:0:0:
368,132,117896,1,0,0:0:0:0:
321,220,118059,2,0,L|321:319,1,90,0|0,0:0|0:0,0:0:0:0:
218,314,118710,5,0,0:0:0:0:
132,265,118873,1,0,0:0:0:0:
137,359,119037,1,0,0:0:0:0:
207,304,119200,1,0,0:0:0:0:
119,257,119363,2,0,L|20:257,1,90,0|0,0:0|0:0,0:0:0:0:
145,117,120014,5,0,0:0:0:0:
224,64,120177,1,0,0:0:0:0:
226,162,120341,1,0,0:0:0:0:
151,102,120504,1,0,0:0:0:0:
326,100,120667,1,0,0:0:0:0:
192,236,120830,1,0,0:0:0:0:
385,237,120993,1,0,0:0:0:0:
400,245,121319,6,0,L|400:355,1,90
301,178,121645,1,0,0:0:0:0:
414,254,121808,2,0,L|414:364,1,90
305,272,122134,2,0,P|253:257|219:221,2,90,0|0|0,0:0|0:0|0:0,0:0:0:0:
394,169,122623,6,0,B|424:124|424:124|425:66,1,90,0|0,0:0|0:0,0:0:0:0:
360,7,122949,2,0,B|330:52|330:52|329:110,1,90,0|0,0:0|0:0,0:0:0:0:
295,175,123275,1,0,0:0:0:0:
200,101,123438,1,0,0:0:0:0:
295,175,123601,1,0,0:0:0:0:
141,25,123764,6,0,B|74:111|89:104|156:177,1,180
152,173,124253,1,0,0:0:0:0:
162,321,124416,2,0,B|228:234|213:241|146:168,1,180,0|0,0:0|0:0,0:0:0:0:
81,254,124906,1,0,0:0:0:0:
239,358,125069,1,0,0:0:0:0:
379,227,125232,6,0,B|328:238|328:238|295:267,1,90,0|0,0:0|0:0,0:0:0:0:
471,239,125558,2,0,B|460:188|460:188|431:155,1,90,0|0,0:0|0:0,0:0:0:0:
416,320,125884,1,0,0:0:0:0:
416,320,125966,1,0,0:0:0:0:
416,320,126047,1,0,0:0:0:0:
323,161,126210,2,0,L|261:161,1,45,0|0,0:0|0:0,0:0:0:0:
336,80,126373,2,0,L|398:80,1,45,0|0,0:0|0:0,0:0:0:0:
460,75,126536,5,0,0:0:0:0:
248,80,126699,1,0,0:0:0:0:
248,80,126781,1,0,0:0:0:0:
248,80,126862,1,0,0:0:0:0:
460,75,127025,1,0,0:0:0:0:
120,120,127351,2,0,P|103:66|65:30,2,90,0|0|0,0:0|0:0|0:0,0:0:0:0:
112,232,127841,5,0,0:0:0:0:
328,232,128004,1,0,0:0:0:0:
328,232,128086,1,0,0:0:0:0:
328,232,128167,1,0,0:0:0:0:
112,232,128330,1,0,0:0:0:0:
344,336,128656,2,0,P|398:319|434:281,2,90,0|0|0,0:0|0:0|0:0,0:0:0:0:
208,336,129145,5,0,0:0:0:0:
164,344,129226,1,0,0:0:0:0:
118,339,129308,1,0,0:0:0:0:
81,312,129389,1,0,0:0:0:0:
61,271,129471,1,0,0:0:0:0:
61,225,129553,1,0,0:0:0:0:
85,187,129634,1,0,0:0:0:0:
124,164,129716,1,0,0:0:0:0:
168,161,129797,1,0,0:0:0:0:
209,179,129879,1,0,0:0:0:0:
247,201,129960,1,0,0:0:0:0:
291,208,130042,1,0,0:0:0:0:
333,193,130123,1,0,0:0:0:0:
358,155,130205,1,0,0:0:0:0:
368,111,130286,1,0,0:0:0:0:
347,70,130368,1,0,0:0:0:0:
305,52,130449,6,0,B|276:62|242:41|242:41|237:45|237:45|204:23|157:38,1,135
140,59,130775,2,0,L|83:59,1,45
158,179,130938,1,0,0:0:0:0:
158,179,131020,1,0,0:0:0:0:
158,179,131101,2,0,L|113:179,1,45,0|0,0:0|0:0,0:0:0:0:
168,292,131264,2,0,L|128:292,10,22.5,0|0|0|0|0|0|0|0|0|0|0,0:0|0:0|0:0|0:0|0:0|0:0|0:0|0:0|0:0|0:0|0:0,0:0:0:0:
297,336,131754,5,0,0:0:0:0:
339,349,131835,1,0,0:0:0:0:
384,344,131917,1,0,0:0:0:0:
418,315,131998,1,0,0:0:0:0:
431,271,132080,1,0,0:0:0:0:
420,227,132161,1,0,0:0:0:0:
386,196,132243,1,0,0:0:0:0:
359,160,132324,1,0,0:0:0:0:
349,115,132406,1,0,0:0:0:0:
362,72,132487,1,0,0:0:0:0:
399,47,132569,1,0,0:0:0:0:
443,49,132650,1,0,0:0:0:0:
479,75,132732,1,0,0:0:0:0:
490,118,132813,1,0,0:0:0:0:
476,161,132895,1,0,0:0:0:0:
435,179,132976,1,0,0:0:0:0:
390,172,133058,6,0,L|326:159,3,45,0|0|0|0,0:0|0:0|0:0|0:0,0:0:0:0:
271,213,133384,2,0,L|226:221,3,45,0|0|0|0,0:0|0:0|0:0|0:0,0:0:0:0:
180,298,133710,2,0,L|135:289,3,45,0|0|0|0,0:0|0:0|0:0|0:0,0:0:0:0:
77,355,134036,2,0,L|32:363,3,45,0|0|0|0,0:0|0:0|0:0|0:0,0:0:0:0:
33,263,134362,5,0,0:0:0:0:
42,218,134444,1,0,0:0:0:0:
74,187,134525,1,0,0:0:0:0:
117,175,134607,1,0,0:0:0:0:
160,183,134688,1,0,0:0:0:0:
196,209,134770,1,0,0:0:0:0:
228,240,134851,1,0,0:0:0:0:
269,257,134933,1,0,0:0:0:0:
313,254,135014,1,0,0:0:0:0:
352,232,135096,1,0,0:0:0:0:
376,193,135178,1,0,0:0:0:0:
375,148,135259,1,0,0:0:0:0:
355,107,135341,1,0,0:0:0:0:
318,81,135422,1,0,0:0:0:0:
273,75,135504,1,0,0:0:0:0:
231,91,135585,1,0,0:0:0:0:
204,127,135667,6,0,L|209:199,1,45,0|0,0:0|0:0,0:0:0:0:
281,284,135830,2,0,L|276:212,1,45,0|0,0:0|0:0,0:0:0:0:
190,133,135993,2,0,L|195:205,1,45
265,295,136156,2,0,L|260:223,1,45,0|0,0:0|0:0,0:0:0:0:
54,103,136319,6,0,L|59:175,1,45,0|0,0:0|0:0,0:0:0:0:
131,260,136482,2,0,L|126:188,1,45,0|0,0:0|0:0,0:0:0:0:
40,109,136645,2,0,L|45:181,1,45
115,271,136808,2,0,L|110:199,1,45,0|0,0:0|0:0,0:0:0:0:
41,333,136971,5,0,0:0:0:0:
82,351,137053,1,0,0:0:0:0:
126,355,137134,1,0,0:0:0:0:
170,344,137216,1,0,0:0:0:0:
200,310,137297,1,0,0:0:0:0:
219,269,137379,1,0,0:0:0:0:
257,246,137460,1,0,0:0:0:0:
302,242,137542,1,0,0:0:0:0:
344,257,137623,1,0,0:0:0:0:
365,296,137705,1,0,0:0:0:0:
349,337,137786,1,0,0:0:0:0:
306,351,137868,1,0,0:0:0:0:
264,333,137949,1,0,0:0:0:0:
247,290,138031,1,0,0:0:0:0:
257,246,138112,1,0,0:0:0:0:
280,207,138194,1,0,0:0:0:0:
315,179,138275,5,0,0:0:0:0:
273,160,138357,1,0,0:0:0:0:
228,163,138438,1,0,0:0:0:0:
189,187,138520,1,0,0:0:0:0:
160,221,138601,1,0,0:0:0:0:
117,236,138683,1,0,0:0:0:0:
73,227,138764,1,0,0:0:0:0:
35,200,138846,1,0,0:0:0:0:
15,159,138928,1,0,0:0:0:0:
19,114,139009,1,0,0:0:0:0:
40,73,139091,1,0,0:0:0:0:
77,48,139172,1,0,0:0:0:0:
120,36,139254,1,0,0:0:0:0:
164,42,139335,1,0,0:0:0:0:
204,61,139417,1,0,0:0:0:0:
226,99,139498,1,0,0:0:0:0:
229,144,139580,6,0,L|224:226,1,45,0|0,0:0|0:0,0:0:0:0:
310,289,139743,2,0,L|315:207,1,45,0|0,0:0|0:0,0:0:0:0:
240,166,139906,2,0,L|235:248,1,45
321,310,140069,2,0,L|326:228,1,45,0|0,0:0|0:0,0:0:0:0:
398,158,140232,6,0,L|393:240,1,45,0|0,0:0|0:0,0:0:0:0:
479,302,140395,2,0,L|484:220,1,45,0|0,0:0|0:0,0:0:0:0:
409,179,140558,2,0,L|404:261,1,45
490,323,140721,2,0,L|495:241,1,45,0|0,0:0|0:0,0:0:0:0:
380,61,140884,5,0,0:0:0:0:
338,79,140966,1,0,0:0:0:0:
309,113,141047,1,0,0:0:0:0:
300,157,141129,1,0,0:0:0:0:
308,200,141210,1,0,0:0:0:0:
331,238,141292,1,0,0:0:0:0:
352,277,141373,1,0,0:0:0:0:
349,322,141455,1,0,0:0:0:0:
316,352,141536,2,0,P|284:355|247:343,1,45,0|0,0:0|0:0,0:0:0:0:
185,276,141699,2,0,P|215:274|254:285,1,45,0|0,0:0|0:0,0:0:0:0:
95,323,141862,6,0,P|85:280|95:228,1,87.749995983124
13,181,142188,5,0,0:0:0:0:
36,142,142270,1,0,0:0:0:0:
76,122,142351,1,0,0:0:0:0:
121,123,142433,1,0,0:0:0:0:
157,148,142514,1,0,0:0:0:0:
189,179,142596,1,0,0:0:0:0:
233,187,142678,1,0,0:0:0:0:
276,175,142759,1,0,0:0:0:0:
306,141,142841,1,0,0:0:0:0:
312,96,142922,1,0,0:0:0:0:
298,52,143004,1,0,0:0:0:0:
266,21,143085,1,0,0:0:0:0:
222,13,143167,1,0,0:0:0:0:
179,25,143248,1,0,0:0:0:0:
153,62,143330,1,0,0:0:0:0:
140,105,143411,1,0,0:0:0:0:
157,148,143493,6,0,P|169:191|168:227,3,45,0|0|0|0,0:0|0:0|0:0|0:0,0:0:0:0:
67,235,143819,2,0,P|55:278|56:314,3,45,0|0|0|0,0:0|0:0|0:0|0:0,0:0:0:0:
132,353,144145,2,0,P|175:365|210:364,3,45,0|0|0|0,0:0|0:0|0:0|0:0,0:0:0:0:
262,303,144471,2,0,P|274:260|273:224,3,45,0|0|0|0,0:0|0:0|0:0|0:0,0:0:0:0:
256,159,144797,5,0,0:0:0:0:
250,114,144879,1,0,0:0:0:0:
267,72,144960,1,0,0:0:0:0:
304,47,145042,1,0,0:0:0:0:
348,40,145123,1,0,0:0:0:0:
389,58,145205,1,0,0:0:0:0:
407,98,145286,1,0,0:0:0:0:
407,143,145368,1,0,0:0:0:0:
384,181,145449,1,0,0:0:0:0:
348,209,145531,1,0,0:0:0:0:
323,246,145612,1,0,0:0:0:0:
320,291,145694,1,0,0:0:0:0:
337,333,145775,1,0,0:0:0:0:
375,357,145857,1,0,0:0:0:0:
419,362,145938,1,0,0:0:0:0:
462,348,146020,1,0,0:0:0:0:
478,306,146101,6,0,L|413:298,1,45
468,209,146264,2,0,L|512:214,1,45
466,294,146428,2,0,L|401:286,1,45
456,197,146591,2,0,L|500:202,1,45
361,144,146754,6,0,L|369:79,1,45
468,56,146917,2,0,L|462:100,1,45
373,132,147080,2,0,L|381:67,1,45
480,44,147244,2,0,L|474:88,1,45
314,207,147406,5,0,0:0:0:0:
269,214,147487,1,0,0:0:0:0:
224,208,147569,1,0,0:0:0:0:
185,185,147650,1,0,0:0:0:0:
159,147,147732,1,0,0:0:0:0:
157,102,147813,1,0,0:0:0:0:
182,64,147895,1,0,0:0:0:0:
223,47,147976,1,0,0:0:0:0:
266,59,148058,1,0,0:0:0:0:
292,95,148139,1,0,0:0:0:0:
286,139,148221,1,0,0:0:0:0:
256,173,148303,1,0,0:0:0:0:
212,182,148384,1,0,0:0:0:0:
167,171,148466,1,0,0:0:0:0:
129,146,148547,1,0,0:0:0:0:
105,107,148629,1,0,0:0:0:0:
86,66,148710,5,0,0:0:0:0:
47,89,148792,1,0,0:0:0:0:
28,129,148873,1,0,0:0:0:0:
26,174,148955,1,0,0:0:0:0:
33,218,149036,1,0,0:0:0:0:
60,254,149118,1,0,0:0:0:0:
99,274,149199,1,0,0:0:0:0:
141,289,149281,1,0,0:0:0:0:
185,292,149362,1,0,0:0:0:0:
229,282,149444,1,0,0:0:0:0:
267,258,149525,1,0,0:0:0:0:
309,242,149607,1,0,0:0:0:0:
352,232,149688,1,0,0:0:0:0:
395,245,149770,1,0,0:0:0:0:
423,279,149851,1,0,0:0:0:0:
425,324,149933,1,0,0:0:0:0:
394,357,150014,6,0,L|314:332,3,45
283,271,150341,2,0,L|244:196,3,45
265,125,150667,2,0,L|290:45,3,45
368,27,150993,2,0,L|442:-11,3,45
446,117,151318,6,0,L|490:106,1,45
450,192,151481,2,0,L|494:181,1,45
456,267,151644,2,0,L|500:256,1,45
465,341,151807,2,0,L|509:330,1,45
342,349,151971,1,0,0:0:0:0:
298,358,152053,1,0,0:0:0:0:
253,347,152134,1,0,0:0:0:0:
219,318,152216,1,0,0:0:0:0:
186,286,152297,1,0,0:0:0:0:
145,270,152379,1,0,0:0:0:0:
101,271,152460,1,0,0:0:0:0:
62,293,152542,1,0,0:0:0:0:
38,331,152623,6,0,L|37:229,1,90
146,177,152949,2,0,L|145:75,1,90
145,41,153194,1,0,0:0:0:0:
145,41,153275,1,0,0:0:0:0:
39,114,153438,1,0,0:0:0:0:
249,227,153601,2,0,B|299:227|299:227|350:207,1,90
376,191,153846,1,0,0:0:0:0:
415,169,153928,6,0,L|505:169,1,90
289,125,154254,2,0,L|245:112,1,45
376,72,154417,2,0,L|419:59,1,45
231,24,154580,6,0,B|121:24,1,90
99,40,154824,1,0,0:0:0:0:
59,62,154906,2,0,B|47:106|47:106|55:148,1,90
131,198,155232,5,0,0:0:0:0:
171,217,155313,1,0,0:0:0:0:
214,227,155395,1,0,0:0:0:0:
258,219,155476,1,0,0:0:0:0:
298,199,155558,1,0,0:0:0:0:
339,181,155639,1,0,0:0:0:0:
383,171,155721,1,0,0:0:0:0:
425,185,155803,1,0,0:0:0:0:
454,218,155884,5,0,0:0:0:0:
488,188,155966,1,0,0:0:0:0:
499,144,156047,1,0,0:0:0:0:
491,99,156129,1,0,0:0:0:0:
467,60,156210,1,0,0:0:0:0:
426,40,156292,1,0,0:0:0:0:
381,38,156373,1,0,0:0:0:0:
339,57,156455,1,0,0:0:0:0:
314,94,156536,5,0,0:0:0:0:
341,129,156618,1,0,0:0:0:0:
358,170,156699,1,0,0:0:0:0:
359,215,156781,1,0,0:0:0:0:
347,258,156862,1,0,0:0:0:0:
318,293,156944,1,0,0:0:0:0:
276,308,157025,1,0,0:0:0:0:
230,307,157107,1,0,0:0:0:0:
191,283,157188,6,0,L|155:254,1,45
198,154,157351,2,0,L|232:181,1,45
174,283,157515,2,0,L|138:254,1,45
181,154,157678,2,0,L|215:181,1,45
93,343,157841,5,0,0:0:0:0:
58,314,157922,1,0,0:0:0:0:
38,273,158004,1,0,0:0:0:0:
27,229,158085,1,0,0:0:0:0:
35,184,158167,1,0,0:0:0:0:
57,145,158248,1,0,0:0:0:0:
88,112,158330,1,0,0:0:0:0:
131,102,158411,1,0,0:0:0:0:
175,109,158493,1,0,0:0:0:0:
215,128,158574,1,0,0:0:0:0:
254,149,158656,1,0,0:0:0:0:
298,152,158737,1,0,0:0:0:0:
342,142,158819,1,0,0:0:0:0:
382,122,158900,1,0,0:0:0:0:
408,85,158982,1,0,0:0:0:0:
444,58,159063,1,0,0:0:0:0:
488,48,159145,6,0,L|491:120,3,45
450,182,159471,2,0,L|447:254,3,45
361,315,159797,6,0,L|332:279,1,45
232,322,159960,2,0,L|259:356,1,45
361,298,160124,2,0,L|332:262,1,45
232,305,160287,2,0,L|259:339,1,45
368,149,160449,5,0,0:0:0:0:
323,140,160531,1,0,0:0:0:0:
278,143,160612,1,0,0:0:0:0:
237,162,160694,1,0,0:0:0:0:
198,185,160775,1,0,0:0:0:0:
156,203,160857,1,0,0:0:0:0:
111,208,160938,1,0,0:0:0:0:
66,197,161020,1,0,0:0:0:0:
34,164,161101,1,0,0:0:0:0:
25,119,161183,1,0,0:0:0:0:
33,75,161264,1,0,0:0:0:0:
63,41,161346,1,0,0:0:0:0:
106,26,161428,1,0,0:0:0:0:
150,26,161509,1,0,0:0:0:0:
188,49,161591,1,0,0:0:0:0:
205,90,161672,1,0,0:0:0:0:
204,135,161754,5,0,0:0:0:0:
162,176,161835,1,0,0:0:0:0:
138,229,161917,1,0,0:0:0:0:
135,287,161998,1,0,0:0:0:0:
162,338,162080,1,0,0:0:0:0:
209,371,162161,1,0,0:0:0:0:
267,377,162243,1,0,0:0:0:0:
324,368,162324,1,0,0:0:0:0:
363,324,162406,1,0,0:0:0:0:
387,271,162487,1,0,0:0:0:0:
368,215,162569,1,0,0:0:0:0:
316,187,162650,1,0,0:0:0:0:
259,205,162732,1,0,0:0:0:0:
239,259,162813,1,0,0:0:0:0:
256,315,162895,1,0,0:0:0:0:
308,340,162976,1,0,0:0:0:0:
351,326,163058,5,0,0:0:0:0:
384,284,163139,1,0,0:0:0:0:
396,241,163221,1,0,0:0:0:0:
397,196,163302,1,0,0:0:0:0:
387,152,163384,1,0,0:0:0:0:
368,112,163465,1,0,0:0:0:0:
339,77,163547,1,0,0:0:0:0:
303,50,163628,1,0,0:0:0:0:
262,33,163710,1,0,0:0:0:0:
217,25,163791,1,0,0:0:0:0:
173,29,163873,1,0,0:0:0:0:
130,43,163954,1,0,0:0:0:0:
92,66,164036,1,0,0:0:0:0:
60,98,164117,1,0,0:0:0:0:
37,137,164199,1,0,0:0:0:0:
33,182,164281,1,0,0:0:0:0:
43,225,164362,6,0,L|72:261,1,45
172,218,164525,2,0,L|145:184,1,45
43,242,164688,2,0,L|72:278,1,45
172,235,164852,2,0,L|145:201,1,45
227,316,165014,6,0,L|272:320,1,45
314,220,165177,2,0,L|270:215,1,45
239,328,165340,2,0,L|284:332,1,45
326,232,165504,2,0,L|282:227,1,45
382,328,165667,5,0,0:0:0:0:
415,298,165748,1,0,0:0:0:0:
431,255,165830,1,0,0:0:0:0:
431,210,165911,1,0,0:0:0:0:
413,168,165993,1,0,0:0:0:0:
380,137,166074,1,0,0:0:0:0:
338,119,166156,1,0,0:0:0:0:
293,125,166237,1,0,0:0:0:0:
255,150,166319,1,0,0:0:0:0:
213,165,166400,1,0,0:0:0:0:
167,167,166482,1,0,0:0:0:0:
122,162,166563,1,0,0:0:0:0:
91,128,166645,1,0,0:0:0:0:
77,85,166726,1,0,0:0:0:0:
90,41,166808,1,0,0:0:0:0:
127,16,166889,1,0,0:0:0:0:
185,14,166971,5,0,0:0:0:0:
222,59,167053,1,0,0:0:0:0:
230,116,167134,1,0,0:0:0:0:
208,170,167216,1,0,0:0:0:0:
164,209,167297,1,0,0:0:0:0:
134,259,167379,1,0,0:0:0:0:
134,317,167460,1,0,0:0:0:0:
169,363,167542,1,0,0:0:0:0:
226,371,167623,1,0,0:0:0:0:
282,354,167705,1,0,0:0:0:0:
307,301,167786,1,0,0:0:0:0:
309,242,167868,1,0,0:0:0:0:
299,184,167949,1,0,0:0:0:0:
312,126,168031,1,0,0:0:0:0:
341,76,168112,1,0,0:0:0:0:
393,49,168194,1,0,0:0:0:0:
437,45,168275,5,0,0:0:0:0:
478,62,168357,1,0,0:0:0:0:
503,98,168438,1,0,0:0:0:0:
509,142,168520,1,0,0:0:0:0:
495,184,168601,1,0,0:0:0:0:
462,216,168683,1,0,0:0:0:0:
417,221,168764,1,0,0:0:0:0:
373,209,168846,1,0,0:0:0:0:
335,183,168928,1,0,0:0:0:0:
295,161,169009,1,0,0:0:0:0:
249,157,169091,1,0,0:0:0:0:
206,171,169172,1,0,0:0:0:0:
173,202,169254,1,0,0:0:0:0:
158,244,169335,1,0,0:0:0:0:
165,288,169417,1,0,0:0:0:0:
191,323,169498,1,0,0:0:0:0:
232,341,169580,6,0,L|316:326,3,45,0|0|0|0,0:0|0:0|0:0|0:0,0:0:0:0:
366,300,169906,2,0,L|391:263,3,45
411,171,170232,2,0,L|403:126,3,45
343,53,170558,2,0,L|306:27,3,45
190,42,170884,5,0,0:0:0:0:
145,31,170966,1,0,0:0:0:0:
101,43,171047,1,0,0:0:0:0:
71,77,171129,1,0,0:0:0:0:
67,121,171210,1,0,0:0:0:0:
85,162,171292,1,0,0:0:0:0:
123,185,171373,1,0,0:0:0:0:
168,182,171455,1,0,0:0:0:0:
211,171,171536,1,0,0:0:0:0:
255,177,171618,1,0,0:0:0:0:
290,204,171699,1,0,0:0:0:0:
305,246,171781,1,0,0:0:0:0:
296,289,171862,1,0,0:0:0:0:
266,323,171944,1,0,0:0:0:0:
222,332,172025,1,0,0:0:0:0:
180,313,172107,1,0,0:0:0:0:
166,270,172188,6,0,L|84:275,1,45,0|0,0:0|0:0,0:0:0:0:
39,179,172351,2,0,L|121:174,1,45,0|0,0:0|0:0,0:0:0:0:
144,259,172514,2,0,L|62:264,1,45
23,168,172677,2,0,L|105:163,1,45,0|0,0:0|0:0,0:0:0:0:
160,115,172840,6,0,L|242:120,1,45,0|0,0:0|0:0,0:0:0:0:
317,27,173003,2,0,L|235:22,1,45,0|0,0:0|0:0,0:0:0:0:
181,104,173166,2,0,L|263:109,1,45
338,16,173329,2,0,L|256:11,1,45,0|0,0:0|0:0,0:0:0:0:
344,112,173493,6,0,L|446:111,1,90
478,113,173737,1,0,0:0:0:0:
478,113,173819,1,0,0:0:0:0:
347,223,173982,1,0,0:0:0:0:
55,315,174308,2,0,P|42:270|50:219,2,90
139,261,174797,6,0,L|140:159,1,90
140,126,175041,1,0,0:0:0:0:
140,126,175123,1,0,0:0:0:0:
240,264,175286,1,0,0:0:0:0:
460,40,175612,2,0,P|473:85|465:136,2,90
376,94,176101,6,0,L|375:196,1,90
376,227,176345,1,0,0:0:0:0:
376,227,176427,1,0,0:0:0:0:
281,95,176590,1,0,0:0:0:0:
117,351,176917,2,0,P|162:364|213:356,2,90
42,299,177406,5,0,0:0:0:0:
37,218,177487,1,0,0:0:0:0:
77,147,177569,1,0,0:0:0:0:
153,121,177650,1,0,0:0:0:0:
232,139,177732,1,0,0:0:0:0:
268,210,177813,1,0,0:0:0:0:
304,281,177895,1,0,0:0:0:0:
383,299,177977,1,0,0:0:0:0:
459,273,178058,1,0,0:0:0:0:
499,202,178140,1,0,0:0:0:0:
490,121,178221,1,0,0:0:0:0:
432,63,178303,1,0,0:0:0:0:
351,63,178384,1,0,0:0:0:0:
289,115,178466,1,0,0:0:0:0:
265,191,178547,1,0,0:0:0:0:
257,272,178629,1,0,0:0:0:0:
256,352,178710,5,0,0:0:0:0:
71,240,179036,1,0,0:0:0:0:
71,240,179199,1,0,0:0:0:0:
102,126,179525,1,0,0:0:0:0:
256,352,179851,1,0,0:0:0:0:
441,240,180178,1,0,0:0:0:0:
441,240,180341,1,0,0:0:0:0:
410,126,180667,1,0,0:0:0:0:
325,59,180993,1,0,0:0:0:0:
256,280,181319,5,0,0:0:0:0:
160,192,181645,1,0,0:0:0:0:
160,192,181808,1,0,0:0:0:0:
168,80,182134,1,0,0:0:0:0:
256,280,182460,1,0,0:0:0:0:
352,192,182786,1,0,0:0:0:0:
352,192,182949,1,0,0:0:0:0:
344,80,183275,1,0,0:0:0:0:
256,16,183601,1,0,0:0:0:0:
256,16,183764,1,0,0:0:0:0:
256,192,183928,5,0,0:0:0:0:
256,16,184580,1,0,0:0:0:0:
256,16,184743,1,0,0:0:0:0:
256,352,185069,1,0,0:0:0:0:
136,96,185884,1,0,0:0:0:0:
256,16,186210,1,0,0:0:0:0:
256,16,186373,1,0,0:0:0:0:
256,192,186537,5,0,0:0:0:0:
376,96,187188,1,0,0:0:0:0:
376,96,187351,1,0,0:0:0:0:
256,352,187678,1,0,0:0:0:0:
256,192,188493,1,0,0:0:0:0:
256,192,188819,1,0,0:0:0:0:
76,234,189145,6,0,B|84:280|84:280|114:309,1,90
436,150,189471,2,0,B|428:104|428:104|397:74,1,90
123,151,189797,6,0,B|106:194|106:194|118:235,1,90
388,232,190123,2,0,B|404:188|404:188|392:147,1,90
184,115,190449,6,0,B|148:144|148:144|137:185,1,90
326,267,190775,2,0,B|361:237|361:237|372:196,1,90
238,114,191101,6,0,B|192:121|192:121|162:152,1,90
273,266,191428,2,0,B|318:257|318:257|348:227,1,90
273,134,191754,6,0,B|229:117|229:117|188:128,1,90
239,246,192080,2,0,B|282:260|282:260|323:249,1,90
288,160,192406,6,0,B|258:123|258:123|217:113,1,90
224,220,192732,2,0,B|254:254|254:254|295:265,1,90
288,183,193058,6,0,B|280:135|280:135|250:106,1,90
224,198,193384,2,0,B|232:242|232:242|262:272,1,90
280,198,193710,6,0,B|297:153|297:153|285:113,1,90
232,183,194036,2,0,B|217:225|217:225|228:266,1,90
280,198,194362,6,0,B|297:153|297:153|285:113,1,90
232,183,194525,2,0,B|217:225|217:225|228:266,1,90
288,183,194688,6,0,B|280:135|280:135|250:106,1,90
224,198,194851,2,0,B|232:242|232:242|262:272,1,90
288,160,195014,6,0,B|258:123|258:123|217:113,1,90
224,220,195178,2,0,B|254:254|254:254|295:265,1,90
273,134,195341,6,0,B|229:117|229:117|188:128,1,90
239,246,195504,2,0,B|282:260|282:260|323:249,1,90
238,114,195667,6,0,B|192:121|192:121|162:152,1,90
273,266,195830,2,0,B|318:257|318:257|348:227,1,90
184,115,195993,6,0,B|148:144|148:144|137:185,1,90
326,267,196156,2,0,B|361:237|361:237|372:196,1,90
123,151,196319,6,0,B|106:194|106:194|118:235,1,90
388,232,196482,2,0,B|404:188|404:188|392:147,1,90
76,234,196645,6,0,B|84:280|84:280|114:309,1,90
436,150,196808,2,0,B|428:104|428:104|397:74,1,90
51,347,196971,5,0,0:0:0:0:
32,351,197297,5,0,0:0:0:0:
461,347,197460,1,0,0:0:0:0:
480,351,197786,5,0,0:0:0:0:
256,8,197949,6,0,B|112:192|400:192|256:376,1,405
