osu file format v14

[General]
AudioFilename: audio.mp3
AudioLeadIn: 0
PreviewTime: 36259
Countdown: 0
SampleSet: Soft
StackLeniency: 0.7
Mode: 0
LetterboxInBreaks: 0
WidescreenStoryboard: 0

[Editor]
DistanceSpacing: 1.15
BeatDivisor: 4
GridSize: 4
TimelineZoom: 2.899999

[Metadata]
Title:Astronauts
TitleUnicode:アストロノーツ
Artist:Reol
ArtistUnicode:れをる
Creator:Moly
Version:A Universe Without Stars
Source:
Tags:椎名もた ぽわぽわP 初音ミク vocaloid hatsune miku shiina mota powapowa-P giga okiku
BeatmapID:1273439
BeatmapSetID:602895

[Difficulty]
HPDrainRate:5
CircleSize:4.9
OverallDifficulty:7
ApproachRate:8.4
SliderMultiplier:1.6
SliderTickRate:1

[Events]
//Background and Video events
0,0,"bgmiku.jpg",0,0
//Break Periods
2,30110,35769
2,215859,220969
2,292658,297769
//Storyboard Layer 0 (Background)
//Storyboard Layer 1 (Fail)
//Storyboard Layer 2 (Pass)
//Storyboard Layer 3 (Foreground)
//Storyboard Sound Samples

[TimingPoints]
4090,369.1,4,2,2,40,1,0
4459,400,4,2,2,40,1,0
4459,-142.857142857143,4,2,2,40,0,0
5659,365.6,4,2,2,40,1,0
6050,365.6,4,2,2,40,1,0
6069,400,4,2,2,40,1,0
6069,-142.857142857143,4,2,2,40,0,0
6269,-142.857142857143,4,2,2,5,0,0
6469,-142.857142857143,4,2,2,40,0,0
6669,-142.857142857143,4,2,2,5,0,0
6869,-142.857142857143,4,2,2,40,0,0
7292,367,4,2,2,40,1,0
7659,400,4,2,2,40,1,0
7659,-142.857142857143,4,2,2,40,0,0
9459,-142.857142857143,4,2,2,5,0,0
10318,380,4,2,2,40,1,0
10888,381,4,2,2,40,1,0
10888,-142.857142857143,4,2,2,40,0,0
12031,393,4,2,2,40,1,0
12456,379,4,2,2,40,1,0
12456,-142.857142857143,4,2,2,40,0,0
12835,408,4,2,2,40,1,0
12835,-142.857142857143,4,2,2,40,0,0
13660,358,4,2,2,40,1,0
13660,-142.857142857143,4,2,2,40,0,0
13839,-142.857142857143,4,2,2,5,0,0
14018,400,4,2,2,40,1,0
14018,-142.857142857143,4,2,2,40,0,0
14818,553,4,2,2,40,1,0
15282,464,4,2,2,40,1,0
15282,-142.857142857143,4,2,2,40,0,0
15746,-142.857142857143,4,2,2,5,0,0
16901,379,4,2,2,40,1,0
17280,-142.857142857143,4,2,2,40,0,0
18466,341,4,2,2,40,1,0
18865,400,4,2,2,40,1,0
18865,-142.857142857143,4,2,2,40,0,0
19065,-142.857142857143,4,2,2,5,0,0
19301,364,4,2,2,40,1,0
19301,-142.857142857143,4,2,2,40,0,0
19665,364,4,2,2,40,1,0
20067,438,4,2,2,40,1,0
20067,-142.857142857143,4,2,2,40,0,0
20505,400,4,2,2,40,1,0
20505,-142.857142857143,4,2,2,40,0,0
20705,-142.857142857143,4,2,2,5,0,0
20905,-142.857142857143,4,2,2,40,0,0
21105,-142.857142857143,4,2,2,5,0,0
21305,-142.857142857143,4,2,2,40,0,0
22305,-142.857142857143,4,2,2,5,0,0
23105,389,4,2,2,40,1,0
23105,-142.857142857143,4,2,2,40,0,0
23688,400,4,2,2,40,1,0
23688,-142.857142857143,4,2,2,40,0,0
24888,396,4,2,2,40,1,0
24888,-142.857142857143,4,2,2,40,0,0
25284,400,4,2,2,40,1,0
25284,-142.857142857143,4,2,2,40,0,0
26084,426,4,2,2,40,1,0
26510,405.2,4,2,2,40,1,0
26510,-142.857142857143,4,2,2,40,0,0
26915,426,4,2,2,40,1,0
26915,-142.857142857143,4,2,2,40,0,0
27722,-142.857142857143,4,2,2,30,0,0
28193,-142.857142857143,4,2,2,40,0,0
36459,400,4,2,1,70,1,1
36459,-100,4,2,1,70,0,1
42759,-100,4,2,1,5,0,1
42859,-100,4,2,1,70,0,1
60859,-117.647058823529,4,2,1,70,0,1
61159,-117.647058823529,4,2,1,5,0,1
61259,-117.647058823529,4,2,2,50,0,1
62059,-117.647058823529,4,2,2,50,0,0
163659,-200,4,2,2,70,0,0
163959,-86.9565217391304,4,2,1,5,0,0
164059,-117.647058823529,4,2,1,70,0,0
164459,-100,4,2,4,70,0,1
164484,-100,4,2,3,70,0,1
182459,-100,4,2,3,70,0,1
188459,-100,4,2,5,70,0,0
190059,-100,4,2,5,70,0,1
215659,-100,4,2,1,70,0,0
222059,-117.647058823529,4,2,2,50,0,0
257159,-117.647058823529,4,2,2,5,0,0
257259,-117.647058823529,4,2,2,50,0,0
292125,-117.647058823529,4,2,2,60,0,0
292192,-117.647058823529,4,2,2,50,0,0
292259,-117.647058823529,4,2,2,40,0,0
292325,-117.647058823529,4,2,2,30,0,0
292392,-117.647058823529,4,2,2,20,0,0
292459,-117.647058823529,4,2,1,10,0,0
298459,-117.647058823529,4,2,1,40,0,0
298859,-100,4,2,2,70,0,1
298884,-100,4,2,3,70,0,1
322859,-100,4,2,5,70,0,0
324459,-100,4,2,5,70,0,1
327459,-100,4,2,5,70,0,1
330859,-71.4285714285714,4,2,5,70,0,1
332859,-100,4,2,5,70,0,1
334059,-71.4285714285714,4,2,5,70,0,1
336059,-100,4,2,5,70,0,1
348459,-89.2857142857143,4,2,1,70,0,1
350059,-89.2857142857143,4,2,1,70,0,0

[Colours]
Combo1 : 192,192,192
Combo2 : 255,255,128
Combo3 : 255,255,0
Combo4 : 97,97,97

[HitObjects]
266,149,4090,37,0,0:0:0:0:
266,149,4274,1,0,0:0:0:0:
266,149,4459,2,0,B|210:165|210:165|159:147,2,111.999996582031,2|2|2,0:0|0:0|0:0,0:0:0:0:
339,122,5659,5,0,0:0:0:0:
339,122,5841,1,0,0:0:0:0:
339,122,6069,2,0,P|344:94|341:66,1,55.9999982910157,2|0,0:0|0:0,0:0:0:0:
329,196,6469,2,0,P|349:214|375:225,1,55.9999982910157,2|0,0:0|0:0,0:0:0:0:
271,152,6869,1,2,0:0:0:0:
145,174,7659,38,0,L|151:62,1,111.999996582031,2|2,0:0|0:0,0:0:0:0:
78,88,8259,1,0,0:0:0:0:
78,88,8459,2,0,L|71:199,1,111.999996582031,2|0,0:0|0:0,0:0:0:0:
99,272,9059,2,0,P|153:291|211:271,1,111.999996582031,0|0,0:0|0:0,0:0:0:0:
365,338,10318,5,0,0:0:0:0:
365,338,10508,1,0,0:0:0:0:
365,338,10698,1,0,0:0:0:0:
365,338,10888,2,0,B|317:342|317:342|301:351|301:351|256:355,2,111.999996582031,2|2|2,0:0|0:0|0:0,0:0:0:0:
443,336,12031,37,0,0:0:0:0:
443,336,12227,1,0,0:0:0:0:
443,336,12456,2,0,L|448:275,1,55.9999982910157,2|0,0:0|0:0,0:0:0:0:
421,206,12835,2,0,P|332:196|310:204,1,111.999996582031,2|2,0:0|0:0,0:0:0:0:
312,202,13660,6,0,P|310:229|315:257,1,55.9999982910157
239,176,14018,2,0,P|231:237|241:285,2,111.999996582031,2|2|2,0:0|0:0|0:0,0:0:0:0:
296,121,15094,1,0,0:0:0:0:
296,121,15282,2,0,P|304:66|293:11,1,111.999996582031
239,176,16901,37,0,0:0:0:0:
239,176,17090,1,0,0:0:0:0:
239,176,17280,2,0,L|127:182,2,111.999996582031,2|2|2,0:0|0:0|0:0,0:0:0:0:
318,175,18466,5,0,0:0:0:0:
318,175,18636,1,0,0:0:0:0:
318,175,18865,2,0,L|315:119,1,55.9999982910157,2|0,0:0|0:0,0:0:0:0:
325,37,19301,2,0,P|271:46|235:87,1,111.999996582031,2|2,0:0|0:0,0:0:0:0:
315,119,20067,1,0,0:0:0:0:
315,119,20286,1,0,0:0:0:0:
315,119,20505,38,0,L|318:175,1,55.9999982910157,2|0,0:0|0:0,0:0:0:0:
279,242,20905,2,0,P|241:246|224:243,1,55.9999982910157,2|0,0:0|0:0,0:0:0:0:
161,291,21305,2,0,P|155:203|167:188,1,111.999996582031,2|0,0:0|0:0,0:0:0:0:
223,242,21905,2,0,P|306:214|323:221,1,111.999996582031
324,222,23105,6,0,B|320:270|320:270|311:286|311:286|307:331,1,111.999996582031
383,311,23688,2,0,L|438:316,1,55.9999982910157,2|0,0:0|0:0,0:0:0:0:
496,262,24088,1,2,0:0:0:0:
496,262,24288,2,0,P|506:189|494:153,1,111.999996582031
436,100,24888,38,0,L|380:105,1,55.9999982910157
297,59,25284,2,0,L|307:170,2,111.999996582031,2|2|2,0:0|0:0|0:0,0:0:0:0:
222,35,26510,5,0,0:0:0:0:
222,35,26915,2,0,P|139:34|112:43,1,111.999996582031,2|2,0:0|0:0,0:0:0:0:
16,98,27767,2,0,P|69:112|114:146,1,111.999996582031,2|0,0:0|0:0,0:0:0:0:
140,220,28406,1,0,0:0:0:0:
336,287,36459,22,0,B|399:281|399:281|425:299|425:299|489:293,2,160,6|2|10,0:0|0:0|0:0,0:0:0:0:
256,295,37458,1,0,0:0:0:0:
290,220,37658,2,0,P|295:180|281:143,1,80,0|0,0:0|0:0,0:0:0:0:
176,301,38058,38,0,P|218:365|295:365,1,160,2|2,0:0|0:0,0:0:0:0:
256,295,38659,1,0,0:0:0:0:
290,220,38859,2,0,P|295:180|282:143,1,80,8|0,0:0|0:0,0:0:0:0:
215,188,39259,2,0,P|183:163|145:155,1,80,0|0,0:0|0:0,0:0:0:0:
151,237,39659,6,0,P|64:312|70:351,1,160,2|2,0:0|0:0,0:0:0:0:
149,321,40259,1,0,0:0:0:0:
224,281,40459,2,0,P|201:167|165:154,1,160,8|2,0:0|0:0,0:0:0:0:
151,237,41059,1,0,0:0:0:0:
149,321,41259,38,0,P|174:352|210:368,1,80,2|0,0:0|0:0,0:0:0:0:
224,281,41659,2,0,P|264:274|295:250,1,80,2|0,0:0|0:0,0:0:0:0:
151,237,42059,1,8,0:0:0:0:
149,321,42259,1,0,0:0:0:0:
227,195,42459,2,0,P|152:150|123:154,1,120,0|0,0:0|0:0,0:0:0:0:
227,195,42859,6,0,B|253:157|253:157|241:44,2,160,2|2|8,0:0|0:0|0:0,0:0:0:0:
181,260,43859,1,0,0:0:0:0:
181,260,44059,2,0,L|189:339,1,80,0|0,0:0|0:0,0:0:0:0:
255,384,44459,38,0,P|331:382|372:317,1,160,2|2,0:0|0:0,0:0:0:0:
448,229,45059,1,0,0:0:0:0:
448,229,45259,2,0,L|288:243,1,160,8|0,0:0|0:0,0:0:0:0:
208,250,45859,1,0,0:0:0:0:
242,178,46059,6,0,P|229:140|235:101,1,80,2|0,0:0|0:0,0:0:0:0:
208,250,46459,2,0,P|176:226|158:190,1,80,2|0,0:0|0:0,0:0:0:0:
308,134,46859,2,0,P|319:95|346:67,1,80,8|0,0:0|0:0,0:0:0:0:
242,178,47259,1,2,0:0:0:0:
389,136,47459,1,0,0:0:0:0:
242,178,47659,38,0,P|224:213|192:237,1,80,2|0,0:0|0:0,0:0:0:0:
316,151,48059,2,0,P|321:190|309:227,1,80,2|0,0:0|0:0,0:0:0:0:
164,162,48459,2,0,P|129:180|89:181,1,80,8|0,0:0|0:0,0:0:0:0:
242,178,48859,1,0,0:0:0:0:
108,103,49059,1,0,0:0:0:0:
70,259,49259,6,0,P|129:345|175:345,1,160,6|2,0:0|0:0,0:0:0:0:
222,281,49859,1,0,0:0:0:0:
222,281,50059,2,0,B|216:218|216:218|234:192|234:192|228:128,1,160,8|0,0:0|0:0,0:0:0:0:
218,47,50659,1,0,0:0:0:0:
218,47,50859,38,0,P|166:75|155:93,1,80,2|0,0:0|0:0,0:0:0:0:
227,127,51259,2,0,P|279:99|290:81,1,80,2|0,0:0|0:0,0:0:0:0:
155,91,51659,2,0,P|148:150|157:169,1,80,8|0,0:0|0:0,0:0:0:0:
289,82,52059,2,0,P|292:22|282:4,1,80,0|0,0:0|0:0,0:0:0:0:
227,127,52459,6,0,P|339:139|363:97,2,160,2|2|8,0:0|0:0|0:0,0:0:0:0:
223,47,53459,1,0,0:0:0:0:
156,90,53659,2,0,P|149:149|158:168,1,80,2|0,0:0|0:0,0:0:0:0:
152,8,54059,38,0,P|113:18|86:46,1,80,2|0,0:0|0:0,0:0:0:0:
227,127,54459,2,0,P|266:117|293:89,1,80,2|0,0:0|0:0,0:0:0:0:
156,90,54859,2,0,P|145:128|155:166,1,80,8|0,0:0|0:0,0:0:0:0:
223,47,55259,1,0,0:0:0:0:
86,45,55459,1,0,0:0:0:0:
155,166,55659,6,0,P|201:201|222:202,1,80,2|0,0:0|0:0,0:0:0:0:
293,243,56059,2,0,P|269:138|228:123,1,160,2|8,0:0|0:0,0:0:0:0:
222,203,56659,1,0,0:0:0:0:
228,283,56859,2,0,P|275:317|296:319,1,80,0|0,0:0|0:0,0:0:0:0:
230,123,57259,38,0,B|172:138|172:138|147:169|147:169|88:185,2,160,2|2|8,0:0|0:0|0:0,0:0:0:0:
310,101,58259,1,0,0:0:0:0:
310,101,58459,2,0,P|310:41|300:23,1,80,0|0,0:0|0:0,0:0:0:0:
230,123,58859,5,4,0:0:0:0:
256,192,58959,12,4,60459,0:0:0:0:
180,225,60859,22,0,B|233:218|233:218|270:249,1,102.000001945496,2|0,0:0|0:0,0:0:0:0:
180,224,61259,2,8,P|169:178|172:157,1,68.0000012969971,8|8,0:0|0:0,0:0:0:0:
197,89,61659,37,0,0:0:0:0:
197,89,61859,1,0,0:0:0:0:
197,89,62059,2,0,P|131:94|97:151,2,136.000002593994,2|2|8,0:0|0:0|0:0,0:0:0:0:
171,158,63259,6,0,P|201:184|227:191,1,68.0000012969971,0|0,0:0|0:0,0:0:0:0:
301,178,63659,2,0,P|318:112|304:47,2,136.000002593994,2|2|8,0:0|0:0|0:0,0:0:0:0:
391,93,64859,38,0,P|386:59|375:27,1,68.0000012969971
303,46,65259,2,0,P|271:32|238:27,1,68.0000012969971,2|0,0:0|0:0,0:0:0:0:
169,57,65659,2,0,P|152:123|166:188,2,136.000002593994,2|8|0,0:0|0:0|0:0,0:0:0:0:
235,155,66859,6,0,P|229:115|236:90,1,68.0000012969971,2|0,0:0|0:0,0:0:0:0:
301,209,67259,2,0,P|269:235|244:241,1,68.0000012969971,2|0,0:0|0:0,0:0:0:0:
311,130,67659,2,0,P|349:144|367:163,1,68.0000012969971,8|0,0:0|0:0,0:0:0:0:
235,155,68059,37,0,0:0:0:0:
235,155,68259,1,0,0:0:0:0:
235,155,68459,2,0,P|229:115|236:90,1,68.0000012969971,2|0,0:0|0:0,0:0:0:0:
301,209,68859,2,0,P|214:240|180:222,2,136.000002593994,2|8|0,0:0|0:0|0:0,0:0:0:0:
375,179,69859,5,0,0:0:0:0:
375,179,70059,2,0,P|381:219|374:244,1,68.0000012969971,2|0,0:0|0:0,0:0:0:0:
235,155,70459,2,0,P|229:115|236:90,1,68.0000012969971,2|0,0:0|0:0,0:0:0:0:
301,209,70859,2,0,P|214:240|180:222,1,136.000002593994,8|0,0:0|0:0,0:0:0:0:
132,109,71459,37,0,0:0:0:0:
132,109,71659,2,0,B|122:162|122:162|103:179|103:179|93:234,2,136.000002593994,2|2|8,0:0|0:0|0:0,0:0:0:0:
151,29,72659,1,0,0:0:0:0:
208,86,72859,2,0,P|241:86|271:101,1,68.0000012969971,0|0,0:0|0:0,0:0:0:0:
351,171,73259,6,0,L|215:185,2,136.000002593994,2|2|8,0:0|0:0|0:0,0:0:0:0:
351,171,74459,38,0,L|357:103,1,68.0000012969971,0|0,0:0|0:0,0:0:0:0:
429,82,74859,2,0,P|449:145|423:205,2,136.000002593994,2|2|8,0:0|0:0|0:0,0:0:0:0:
357,103,75859,5,0,0:0:0:0:
357,103,76059,2,0,L|351:171,1,68.0000012969971,0|0,0:0|0:0,0:0:0:0:
271,199,76459,2,0,L|283:63,2,136.000002593994,2|2|8,0:0|0:0|0:0,0:0:0:0:
271,199,77659,38,0,P|221:188|201:193,1,68.0000012969971,0|0,0:0|0:0,0:0:0:0:
230,266,78059,2,0,P|187:293|177:311,1,68.0000012969971,2|0,0:0|0:0,0:0:0:0:
249,341,78459,2,8,L|385:329,2,136.000002593994,2|8|0,0:0|0:0|0:0,0:0:0:0:
249,340,79659,6,0,P|251:294|243:273,1,68.0000012969971,2|0,0:0|0:0,0:0:0:0:
177,232,80059,2,0,L|41:244,2,136.000002593994,2|8|0,0:0|0:0|0:0,0:0:0:0:
255,226,81059,1,0,0:0:0:0:
177,232,81259,2,0,P|182:199|200:171,1,68.0000012969971,2|0,0:0|0:0,0:0:0:0:
333,221,81659,2,0,P|327:254|308:282,1,68.0000012969971,2|0,0:0|0:0,0:0:0:0:
288,155,82059,37,8,0:0:0:0:
366,147,82259,2,0,P|398:178|407:199,1,68.0000012969971,0|0,0:0|0:0,0:0:0:0:
319,86,82659,1,0,0:0:0:0:
333,221,82859,2,0,P|322:265|308:283,1,68.0000012969971,2|0,0:0|0:0,0:0:0:0:
288,155,83259,1,2,0:0:0:0:
366,147,83459,1,0,0:0:0:0:
255,226,83659,2,0,P|213:175|231:102,1,136.000002593994,8|0,0:0|0:0,0:0:0:0:
288,155,84259,1,0,0:0:0:0:
333,221,84459,6,0,P|322:265|308:283,1,68.0000012969971,2|0,0:0|0:0,0:0:0:0:
288,155,84859,2,0,P|353:144|407:196,1,136.000002593994,2|8,0:0|0:0,0:0:0:0:
333,221,85459,1,0,0:0:0:0:
255,225,85659,2,0,P|215:187|210:172,1,68.0000012969971,0|0,0:0|0:0,0:0:0:0:
140,130,86059,38,0,L|133:265,2,136.000002593994,2|2|8,0:0|0:0|0:0,0:0:0:0:
109,57,87259,6,0,P|165:53|185:62,1,68.0000012969971,0|0,0:0|0:0,0:0:0:0:
139,130,87659,2,0,P|181:168|188:187,1,68.0000012969971,2|0,0:0|0:0,0:0:0:0:
139,130,88059,2,0,P|45:108|32:78,2,136.000002593994,2|8|0,0:0|0:0|0:0,0:0:0:0:
109,57,89059,1,0,0:0:0:0:
109,57,89259,2,0,P|165:53|185:62,1,68.0000012969971,2|0,0:0|0:0,0:0:0:0:
139,130,89659,2,0,P|181:168|188:187,1,68.0000012969971,2|0,0:0|0:0,0:0:0:0:
260,256,90059,38,0,L|125:263,2,136.000002593994,8|0|2,0:0|0:0|0:0,0:0:0:0:
338,252,91059,1,0,0:0:0:0:
260,256,91259,2,0,L|263:188,1,68.0000012969971,2|0,0:0|0:0,0:0:0:0:
338,252,91659,2,0,L|334:319,1,68.0000012969971,8|0,0:0|0:0,0:0:0:0:
262,188,92059,2,0,P|293:161|321:153,1,68.0000012969971,0|0,0:0|0:0,0:0:0:0:
314,74,92459,6,0,P|217:114|197:137,2,136.000002593994,2|2|8,0:0|0:0|0:0,0:0:0:0:
262,188,93659,38,0,P|242:215|235:248,1,68.0000012969971,0|0,0:0|0:0,0:0:0:0:
195,320,94059,2,0,P|169:297|156:266,1,68.0000012969971,2|0,0:0|0:0,0:0:0:0:
255,350,94459,2,0,L|119:341,2,136.000002593994,2|8|0,0:0|0:0|0:0,0:0:0:0:
419,361,95459,1,0,0:0:0:0:
336,355,95659,6,0,P|350:310|364:296,1,68.0000012969971,2|0,0:0|0:0,0:0:0:0:
419,361,96059,1,2,0:0:0:0:
255,350,96259,1,0,0:0:0:0:
419,361,96459,2,0,P|460:339|480:339,1,68.0000012969971,8|0,0:0|0:0,0:0:0:0:
336,355,96859,2,0,P|350:310|364:296,1,68.0000012969971,0|0,0:0|0:0,0:0:0:0:
422,217,97259,38,0,L|286:226,1,136.000002593994,2|2,0:0|0:0,0:0:0:0:
121,233,98059,1,8,0:0:0:0:
163,302,98259,1,0,0:0:0:0:
202,231,98459,2,0,P|212:186|230:165,1,68.0000012969971,0|0,0:0|0:0,0:0:0:0:
168,112,98859,2,0,P|129:167|121:233,2,136.000002593994,2|2|8,0:0|0:0|0:0,0:0:0:0:
282,226,100059,6,0,P|320:201|348:199,1,68.0000012969971,0|0,0:0|0:0,0:0:0:0:
202,231,100459,2,0,P|206:197|225:169,1,68.0000012969971,2|0,0:0|0:0,0:0:0:0:
282,226,100859,2,0,P|228:307|196:311,1,136.000002593994,2|8,0:0|0:0,0:0:0:0:
128,265,101459,1,0,0:0:0:0:
202,231,101659,2,0,P|206:197|225:169,1,68.0000012969971,0|0,0:0|0:0,0:0:0:0:
127,264,102059,2,0,P|137:163|154:134,2,136.000002593994,2|2|8,0:0|0:0|0:0,0:0:0:0:
282,226,103259,1,0,0:0:0:0:
202,231,103459,1,0,0:0:0:0:
248,297,103659,38,0,P|295:306|316:300,1,68.0000012969971,2|0,0:0|0:0,0:0:0:0:
282,226,104059,2,0,P|266:180|250:165,1,68.0000012969971,2|0,0:0|0:0,0:0:0:0:
202,231,104459,2,0,P|170:267|165:288,1,68.0000012969971,8|0,0:0|0:0,0:0:0:0:
313,300,104859,2,0,P|348:267|356:248,1,68.0000012969971,0|0,0:0|0:0,0:0:0:0:
252,167,105259,6,0,P|188:150|132:189,2,136.000002593994,2|2|8,0:0|0:0|0:0,0:0:0:0:
202,231,106259,1,0,0:0:0:0:
202,231,106459,2,0,P|176:272|175:293,1,68.0000012969971,0|0,0:0|0:0,0:0:0:0:
225,355,106859,2,0,L|360:348,1,136.000002593994,2|2,0:0|0:0,0:0:0:0:
510,341,107659,37,8,0:0:0:0:
435,344,107859,2,0,P|440:310|461:284,2,68.0000012969971,0|0|0,0:0|0:0|0:0,0:0:0:0:
360,347,108459,2,0,P|388:251|411:227,1,136.000002593994,2|2,0:0|0:0,0:0:0:0:
486,194,109059,1,0,0:0:0:0:
424,141,109259,2,0,B|370:148|370:148|351:166|351:166|297:175,1,136.000002593994,8|0,0:0|0:0,0:0:0:0:
296,175,110059,6,0,P|263:203|254:227,1,68.0000012969971,2|0,0:0|0:0,0:0:0:0:
249,304,110459,2,0,L|181:313,1,68.0000012969971,2|0,0:0|0:0,0:0:0:0:
103,321,110859,1,8,0:0:0:0:
135,249,111059,1,0,0:0:0:0:
181,313,111259,2,0,P|176:346|158:375,1,68.0000012969971,0|0,0:0|0:0,0:0:0:0:
58,256,111659,38,0,P|62:222|80:193,1,68.0000012969971,2|0,0:0|0:0,0:0:0:0:
103,321,112059,2,0,P|71:333|38:332,1,68.0000012969971,2|0,0:0|0:0,0:0:0:0:
135,249,112459,2,0,P|238:260|258:301,1,136.000002593994,8|0,0:0|0:0,0:0:0:0:
181,313,113059,5,0,0:0:0:0:
181,313,113259,2,0,P|78:302|58:261,2,136.000002593994,2|2|8,0:0|0:0|0:0,0:0:0:0:
135,249,114459,38,0,P|118:210|121:183,1,68.0000012969971,0|0,0:0|0:0,0:0:0:0:
96,110,114859,2,0,P|66:126|47:153,1,68.0000012969971,2|0,0:0|0:0,0:0:0:0:
121,185,115259,2,0,B|158:202|158:202|252:185,1,136.000002593994,2|8,0:0|0:0,0:0:0:0:
414,161,116059,6,0,P|418:214|425:226,1,68.0000012969971,0|0,0:0|0:0,0:0:0:0:
330,173,116459,2,0,P|332:139|348:109,1,68.0000012969971,2|0,0:0|0:0,0:0:0:0:
422,83,116859,2,0,P|404:54|376:35,1,68.0000012969971,2|0,0:0|0:0,0:0:0:0:
348,109,117259,2,0,P|329:168|362:234,1,136.000002593994,8|0,0:0|0:0,0:0:0:0:
422,83,118059,38,0,P|404:54|376:35,1,68.0000012969971,2|0,0:0|0:0,0:0:0:0:
408,162,118459,2,0,P|441:161|471:146,1,68.0000012969971,2|0,0:0|0:0,0:0:0:0:
376,35,118859,2,0,P|314:36|263:90,1,136.000002593994,8|0,0:0|0:0,0:0:0:0:
257,165,119459,1,0,0:0:0:0:
257,165,119659,2,0,B|189:178|189:178|131:143,2,136.000002593994,2|2|8,0:0|0:0|0:0,0:0:0:0:
337,148,120859,5,0,0:0:0:0:
282,87,121059,1,0,0:0:0:0:
257,165,121259,2,0,P|281:210|300:223,1,68.0000012969971,2|0,0:0|0:0,0:0:0:0:
368,288,121659,2,0,L|232:297,1,136.000002593994,2|8,0:0|0:0,0:0:0:0:
207,370,122259,37,0,0:0:0:0:
207,370,122459,2,0,P|180:349|164:319,1,68.0000012969971,0|0,0:0|0:0,0:0:0:0:
179,247,122859,2,0,L|314:256,2,136.000002593994,2|2|8,0:0|0:0|0:0,0:0:0:0:
97,243,123859,1,0,0:0:0:0:
97,243,124059,2,0,L|92:175,1,68.0000012969971,0|0,0:0|0:0,0:0:0:0:
179,247,124459,6,0,L|184:315,1,68.0000012969971,2|0,0:0|0:0,0:0:0:0:
248,359,124859,2,0,P|314:364|373:332,1,136.000002593994,2|8,0:0|0:0,0:0:0:0:
476,215,125659,38,0,P|410:220|351:188,1,136.000002593994,0|2,0:0|0:0,0:0:0:0:
292,65,126459,2,0,B|285:119|285:119|267:138|267:138|258:192,1,136.000002593994,2|8,0:0|0:0,0:0:0:0:
241,269,127059,1,0,0:0:0:0:
181,220,127259,1,0,0:0:0:0:
316,241,127459,1,0,0:0:0:0:
170,298,127659,6,0,P|126:278|114:264,1,68.0000012969971,2|0,0:0|0:0,0:0:0:0:
25,193,128059,2,0,P|34:299|24:324,2,136.000002593994,2|8|0,0:0|0:0|0:0,0:0:0:0:
57,122,129059,1,0,0:0:0:0:
25,193,129259,38,0,P|58:199|90:192,1,68.0000012969971,2|0,0:0|0:0,0:0:0:0:
57,122,129659,2,0,P|85:103|103:74,1,68.0000012969971,2|0,0:0|0:0,0:0:0:0:
148,10,130059,2,0,P|181:3|213:10,1,68.0000012969971,8|0,0:0|0:0,0:0:0:0:
180,81,130459,2,0,P|208:99|226:128,1,68.0000012969971,0|0,0:0|0:0,0:0:0:0:
208,208,130859,2,0,P|144:187|79:206,2,136.000002593994,2|2|8,0:0|0:0|0:0,0:0:0:0:
304,339,132059,5,0,0:0:0:0:
304,339,132259,1,0,0:0:0:0:
304,339,132459,2,0,L|297:264,1,68.0000012969971,2|0,0:0|0:0,0:0:0:0:
379,267,132859,2,0,L|385:334,1,68.0000012969971,2|0,0:0|0:0,0:0:0:0:
401,186,133259,38,0,L|265:198,1,136.000002593994,8|0,0:0|0:0,0:0:0:0:
183,206,133859,1,0,0:0:0:0:
183,206,134059,2,0,L|189:274,1,68.0000012969971,2|0,0:0|0:0,0:0:0:0:
265,197,134459,2,0,L|259:129,1,68.0000012969971,2|0,0:0|0:0,0:0:0:0:
252,46,134859,2,0,L|116:58,2,136.000002593994,8|0|2,0:0|0:0|0:0,0:0:0:0:
259,129,135859,6,0,L|395:117,1,136.000002593994,0|0,0:0|0:0,0:0:0:0:
471,142,136459,1,8,0:0:0:0:
410,194,136659,1,0,0:0:0:0:
394,117,136859,2,0,P|416:82|442:66,1,68.0000012969971,0|0,0:0|0:0,0:0:0:0:
485,221,137259,2,0,P|441:269|375:268,1,136.000002593994,2|2,0:0|0:0,0:0:0:0:
315,212,138059,2,0,B|322:158|322:158|340:139|340:139|349:85,1,136.000002593994,8|0,0:0|0:0,0:0:0:0:
212,110,138859,38,0,P|184:171|186:239,1,136.000002593994,8|0,0:0|0:0,0:0:0:0:
213,316,139459,1,2,0:0:0:0:
207,321,139559,1,2,0:0:0:0:
200,326,139659,2,0,B|145:316|145:316|126:298|126:298|72:291,1,136.000002593994,8|0,0:0|0:0,0:0:0:0:
16,227,140259,1,2,0:0:0:0:
23,222,140359,1,2,0:0:0:0:
29,218,140459,6,0,L|37:150,1,68.0000012969971,8|0,0:0|0:0,0:0:0:0:
127,87,140859,2,0,L|119:155,1,68.0000012969971,2|0,0:0|0:0,0:0:0:0:
191,239,141259,2,0,L|199:171,1,68.0000012969971,8|0,0:0|0:0,0:0:0:0:
109,237,141659,2,2,L|106:259,6,22.666667098999,2|2|2|2|2|2|8,0:0|0:0|0:0|0:0|0:0|0:0|0:0,0:0:0:0:
118,155,142259,37,0,0:0:0:0:
96,76,142459,2,0,P|144:76|162:85,1,68.0000012969971,0|2,0:0|0:0,0:0:0:0:
168,91,142759,1,2,0:0:0:0:
175,98,142859,2,0,P|260:74|272:34,1,136.000002593994,8|0,0:0|0:0,0:0:0:0:
325,122,143459,1,2,0:0:0:0:
320,130,143559,1,2,0:0:0:0:
315,139,143659,6,0,P|308:173|314:205,1,68.0000012969971,8|0,0:0|0:0,0:0:0:0:
285,281,144059,2,0,P|257:261|238:233,1,68.0000012969971,2|0,0:0|0:0,0:0:0:0:
390,173,144459,1,8,0:0:0:0:
223,144,144859,2,2,L|198:141,5,22.666667098999
239,159,145259,38,0,B|170:151|170:151|112:193,1,136.000002593994,8|0,0:0|0:0,0:0:0:0:
64,254,145859,1,2,0:0:0:0:
69,260,145959,1,2,0:0:0:0:
74,266,146059,2,0,L|150:270,1,68.0000012969971,8|0,0:0|0:0,0:0:0:0:
198,329,146459,2,0,L|265:332,1,68.0000012969971,0|2,0:0|0:0,0:0:0:0:
273,328,146759,1,2,0:0:0:0:
280,324,146859,6,0,P|291:279|287:256,1,68.0000012969971,8|0,0:0|0:0,0:0:0:0:
357,216,147259,2,0,P|324:184|302:176,1,68.0000012969971,2|0,0:0|0:0,0:0:0:0:
375,301,147659,2,0,P|415:281|430:263,1,68.0000012969971,8|0,0:0|0:0,0:0:0:0:
449,186,148059,2,2,L|426:187,6,22.666667098999,2|2|2|2|2|2|8,0:0|0:0|0:0|0:0|0:0|0:0|0:0,0:0:0:0:
467,108,148659,37,0,0:0:0:0:
467,108,148859,2,0,L|399:113,1,68.0000012969971,0|2,0:0|0:0,0:0:0:0:
391,108,149159,1,2,0:0:0:0:
384,102,149259,2,0,P|376:55|382:35,2,68.0000012969971,8|0|0,0:0|0:0|0:0,0:0:0:0:
298,167,149859,1,2,0:0:0:0:
304,175,149959,1,2,0:0:0:0:
310,183,150059,2,0,L|446:193,2,136.000002593994,8|2|8,0:0|0:0|0:0,0:0:0:0:
300,59,151259,2,2,L|298:36,5,22.666667098999,2|2|2|2|2|2,0:0|0:0|0:0|0:0|0:0|0:0,0:0:0:0:
315,74,151659,6,0,L|179:84,1,136.000002593994,8|0,0:0|0:0,0:0:0:0:
125,145,152259,1,2,0:0:0:0:
122,154,152359,1,2,0:0:0:0:
119,163,152459,38,0,L|124:231,1,68.0000012969971,8|0,0:0|0:0,0:0:0:0:
97,308,152859,2,0,P|149:310|168:301,1,68.0000012969971,0|2,0:0|0:0,0:0:0:0:
171,298,153159,1,2,0:0:0:0:
180,292,153259,2,0,P|232:290|251:299,1,68.0000012969971,8|0,0:0|0:0,0:0:0:0:
323,319,153659,2,0,P|292:229|261:217,1,136.000002593994,2|8,0:0|0:0,0:0:0:0:
210,361,154459,2,2,L|212:383,6,22.666667098999,2|2|2|2|2|2|8,0:0|0:0|0:0|0:0|0:0|0:0|0:0,0:0:0:0:
202,279,155059,5,0,0:0:0:0:
135,326,155259,2,0,L|67:332,1,68.0000012969971,0|2,0:0|0:0,0:0:0:0:
61,325,155559,1,2,0:0:0:0:
55,318,155659,2,0,P|48:273|54:250,1,68.0000012969971,8|0,0:0|0:0,0:0:0:0:
61,170,156059,2,0,P|103:186|120:203,1,68.0000012969971,0|2,0:0|0:0,0:0:0:0:
126,211,156359,1,2,0:0:0:0:
134,220,156459,38,0,L|201:213,1,68.0000012969971,8|0,0:0|0:0,0:0:0:0:
283,202,156859,2,0,L|276:135,1,68.0000012969971,2|0,0:0|0:0,0:0:0:0:
201,212,157259,2,0,L|208:279,1,68.0000012969971,8|0,0:0|0:0,0:0:0:0:
290,285,157659,2,2,L|292:307,6,22.666667098999,2|2|2|2|2|2|8,0:0|0:0|0:0|0:0|0:0|0:0|0:0,0:0:0:0:
357,237,158259,5,0,0:0:0:0:
283,202,158459,2,0,L|276:135,1,68.0000012969971,0|2,0:0|0:0,0:0:0:0:
283,123,158759,1,2,0:0:0:0:
290,111,158859,2,0,L|283:44,1,68.0000012969971,8|0,0:0|0:0,0:0:0:0:
200,22,159259,2,0,L|207:89,1,68.0000012969971,0|2,0:0|0:0,0:0:0:0:
200,101,159559,1,2,0:0:0:0:
193,113,159659,2,0,L|200:180,1,68.0000012969971,8|0,0:0|0:0,0:0:0:0:
269,225,160059,38,0,P|203:264|151:249,1,136.000002593994,2|8,0:0|0:0,0:0:0:0:
283,153,160859,6,2,P|297:154|307:161,6,22.666667098999,2|2|2|2|2|2|8,0:0|0:0|0:0|0:0|0:0|0:0|0:0,0:0:0:0:
269,225,161859,38,0,P|282:235|291:252,2,34.0000006484985,2|2|8,0:0|0:0|0:0,0:0:0:0:
225,284,162659,6,0,P|226:300|221:319,2,34.0000006484985,2|2|8,0:0|0:0|0:0,0:0:0:0:
298,144,163659,6,0,P|288:101|275:87,1,60,2|0,0:0|0:0,0:0:0:0:
236,136,164059,2,0,B|252:123|254:100|254:100|274:148|255:194,1,136.000002593994,2|4,0:0|0:0,0:0:0:0:
256,192,164484,12,2,167259,0:0:0:0:
131,96,167659,6,0,L|211:104,1,80,4|0,0:0|0:0,0:0:0:0:
276,148,168059,2,0,P|290:101|281:68,1,80,2|0,0:0|0:0,0:0:0:0:
205,184,168459,2,0,P|239:219|273:228,1,80,4|0,0:0|0:0,0:0:0:0:
276,148,168859,1,2,0:0:0:0:
139,133,169059,1,0,0:0:0:0:
268,228,169259,38,0,P|317:218|343:194,1,80,8|0,0:0|0:0,0:0:0:0:
210,105,169659,2,0,P|162:114|136:138,1,80,8|0,0:0|0:0,0:0:0:0:
276,148,170059,2,0,P|289:99|278:65,1,80,8|0,0:0|0:0,0:0:0:0:
210,105,170459,1,8,0:0:0:0:
268,228,170659,1,0,0:0:0:0:
281,71,170859,6,0,P|248:34|212:25,1,80,4|0,0:0|0:0,0:0:0:0:
201,185,171259,2,0,P|153:192|126:217,1,80,2|0,0:0|0:0,0:0:0:0:
343,203,171659,1,4,0:0:0:0:
210,105,171859,1,0,0:0:0:0:
268,228,172059,1,2,0:0:0:0:
281,71,172259,1,0,0:0:0:0:
326,280,172459,38,0,P|253:305|194:254,1,160,8|8,0:0|0:0,0:0:0:0:
213,96,173059,1,0,0:0:0:0:
204,176,173259,2,0,P|156:183|129:208,1,80,8|0,0:0|0:0,0:0:0:0:
278,145,173659,1,8,0:0:0:0:
154,44,173859,1,0,0:0:0:0:
132,202,174059,6,0,P|139:250|164:277,1,80,4|0,0:0|0:0,0:0:0:0:
278,145,174459,2,0,P|323:162|358:154,1,80,2|0,0:0|0:0,0:0:0:0:
154,44,174859,1,4,0:0:0:0:
204,176,175059,1,0,0:0:0:0:
228,13,175259,1,2,0:0:0:0:
80,75,175459,1,0,0:0:0:0:
190,254,175659,38,0,B|126:243|126:243|99:259|99:259|36:249,2,160,8|8|8,0:0|0:0|0:0,0:0:0:0:
267,235,176659,1,0,0:0:0:0:
190,254,176859,2,0,P|200:194|212:178,1,80,8|0,0:0|0:0,0:0:0:0:
345,217,177259,6,0,P|335:277|323:293,1,80,4|0,0:0|0:0,0:0:0:0:
210,179,177659,2,0,P|266:157|286:160,1,80,2|0,0:0|0:0,0:0:0:0:
324,291,178059,2,0,P|290:309|250:309,1,80,4|0,0:0|0:0,0:0:0:0:
267,235,178459,1,2,0:0:0:0:
402,271,178659,1,0,0:0:0:0:
249,308,178859,38,0,P|202:269|194:250,1,80,8|0,0:0|0:0,0:0:0:0:
345,217,179259,2,0,P|355:157|367:141,1,80,8|0,0:0|0:0,0:0:0:0:
402,271,179659,1,8,0:0:0:0:
267,235,179859,1,0,0:0:0:0:
422,197,180059,1,8,0:0:0:0:
383,346,180259,1,0,0:0:0:0:
345,217,180459,5,4,0:0:0:0:
460,328,180659,1,0,0:0:0:0:
364,139,180859,1,2,0:0:0:0:
402,271,181059,1,0,0:0:0:0:
444,116,181259,1,4,0:0:0:0:
287,161,181459,1,0,0:0:0:0:
422,197,181659,1,2,0:0:0:0:
309,81,181859,1,0,0:0:0:0:
267,239,182059,38,0,P|282:285|311:307,1,80,8|0,0:0|0:0,0:0:0:0:
388,77,182459,2,0,P|372:30|343:8,1,80,8|0,0:0|0:0,0:0:0:0:
224,173,182859,2,0,P|191:208|187:245,1,80,8|0,0:0|0:0,0:0:0:0:
346,235,183259,1,8,0:0:0:0:
309,81,183459,1,0,0:0:0:0:
266,239,183659,6,0,P|361:314|387:304,2,160,4|2|4,0:0|0:0|0:0,0:0:0:0:
314,174,184659,1,0,0:0:0:0:
234,165,184859,2,0,P|195:194|185:229,1,80,2|0,0:0|0:0,0:0:0:0:
197,303,185259,37,8,0:0:0:0:
38,287,185459,1,0,0:0:0:0:
186,223,185659,1,8,0:0:0:0:
120,275,185859,1,0,0:0:0:0:
234,165,186059,1,8,0:0:0:0:
197,303,186259,1,0,0:0:0:0:
159,146,186459,2,0,P|193:97|212:88,1,80,8|0,0:0|0:0,0:0:0:0:
186,223,186859,6,0,L|11:207,2,160,4|2|4,0:0|0:0|0:0,0:0:0:0:
265,234,187859,1,0,0:0:0:0:
215,297,188059,2,0,P|205:352|213:375,1,80,2|0,0:0|0:0,0:0:0:0:
343,248,188459,38,0,P|310:169|231:162,1,160,8|8,0:0|0:0,0:0:0:0:
265,234,189059,1,0,0:0:0:0:
243,157,189259,2,0,P|198:194|190:217,1,80,8|0,0:0|0:0,0:0:0:0:
265,234,189659,2,0,P|274:291|290:309,1,80,8|0,0:0|0:0,0:0:0:0:
222,353,190059,6,0,B|159:347|159:347|133:365|133:365|69:359,1,160,4|2,0:0|0:0,0:0:0:0:
76,279,190659,1,0,0:0:0:0:
3,313,190859,2,0,P|-1:255|8:236,1,80,4|0,0:0|0:0,0:0:0:0:
149,246,191259,2,0,P|153:304|144:323,1,80,2|0,0:0|0:0,0:0:0:0:
113,169,191659,38,0,B|176:163|176:163|202:181|202:181|266:175,1,160,8|8,0:0|0:0,0:0:0:0:
346,168,192259,1,0,0:0:0:0:
425,159,192459,2,0,P|428:36|409:2,2,160,8|8|4,0:0|0:0|0:0,0:0:0:0:
346,168,193459,5,0,0:0:0:0:
346,168,193659,2,0,L|266:159,1,80,2|0,0:0|0:0,0:0:0:0:
213,226,194059,2,0,L|373:243,1,160,4|2,0:0|0:0,0:0:0:0:
451,253,194659,1,0,0:0:0:0:
451,253,194859,38,0,P|423:305|407:315,1,80,8|0,0:0|0:0,0:0:0:0:
372,242,195259,2,0,P|400:190|416:180,1,80,8|0,0:0|0:0,0:0:0:0:
406,315,195659,2,0,P|304:286|292:237,1,160,8|8,0:0|0:0,0:0:0:0:
288,164,196259,1,0,0:0:0:0:
209,164,196459,6,0,L|193:323,2,160,4|2|4,0:0|0:0|0:0,0:0:0:0:
217,84,197459,1,0,0:0:0:0:
142,115,197659,2,0,P|83:106|63:112,1,80,2|0,0:0|0:0,0:0:0:0:
298,86,198059,38,0,P|276:30|260:16,1,80,8|0,0:0|0:0,0:0:0:0:
217,84,198459,1,8,0:0:0:0:
376,87,198659,1,0,0:0:0:0:
209,164,198859,2,0,P|171:210|167:230,1,80,8|0,0:0|0:0,0:0:0:0:
79,311,199259,2,0,L|244:315,1,160,8|4,0:0|0:0,0:0:0:0:
318,318,199859,5,0,0:0:0:0:
318,318,200059,2,0,P|294:258|283:249,1,80,2|0,0:0|0:0,0:0:0:0:
238,314,200459,2,0,P|198:364|195:378,1,80,4|0,0:0|0:0,0:0:0:0:
283,249,200859,2,0,P|219:237|205:242,1,80,2|0,0:0|0:0,0:0:0:0:
133,275,201259,38,0,P|112:198|131:122,2,160,8|8|8,0:0|0:0|0:0,0:0:0:0:
206,241,202259,1,0,0:0:0:0:
206,241,202459,2,0,P|245:235|283:249,1,80,8|0,0:0|0:0,0:0:0:0:
371,331,202859,6,0,L|209:342,2,160,4|2|4,0:0|0:0|0:0,0:0:0:0:
451,327,203859,1,0,0:0:0:0:
408,259,204059,2,0,P|414:219|401:182,1,80,2|0,0:0|0:0,0:0:0:0:
334,138,204459,38,0,L|254:143,1,80,8|0,0:0|0:0,0:0:0:0:
192,222,204859,2,0,L|271:227,1,80,8|0,0:0|0:0,0:0:0:0:
332,280,205259,2,0,P|338:319|325:356,1,80,8|0,0:0|0:0,0:0:0:0:
245,384,205659,2,0,L|83:373,1,160,8|4,0:0|0:0,0:0:0:0:
43,304,206259,5,0,0:0:0:0:
43,304,206459,2,0,P|48:193|74:150,1,160,2|4,0:0|0:0,0:0:0:0:
136,208,207059,1,0,0:0:0:0:
136,208,207259,2,0,P|184:173|204:172,1,80,2|0,0:0|0:0,0:0:0:0:
332,129,207659,38,0,B|269:120|269:120|247:97|247:97|184:88,2,160,8|8|8,0:0|0:0|0:0,0:0:0:0:
411,139,208659,1,0,0:0:0:0:
411,139,208859,2,0,L|421:59,1,80,8|0,0:0|0:0,0:0:0:0:
496,32,209259,6,0,P|502:146|483:184,1,160,4|2,0:0|0:0,0:0:0:0:
411,139,209859,1,0,0:0:0:0:
411,139,210059,2,0,P|315:201|272:204,1,160,4|2,0:0|0:0,0:0:0:0:
192,195,210659,1,0,0:0:0:0:
192,195,210859,38,0,L|188:115,1,80,8|0,0:0|0:0,0:0:0:0:
272,204,211259,2,0,L|276:284,1,80,8|0,0:0|0:0,0:0:0:0:
236,353,211659,2,0,P|185:366|156:358,1,80,8|0,0:0|0:0,0:0:0:0:
275,283,212059,2,0,P|312:320|320:349,1,80,8|0,0:0|0:0,0:0:0:0:
192,284,212459,6,0,P|227:216|307:207,1,160,4|2,0:0|0:0,0:0:0:0:
275,283,213059,1,0,0:0:0:0:
192,284,213259,2,0,P|130:238|134:158,1,160,4|2,0:0|0:0,0:0:0:0:
173,85,213859,1,0,0:0:0:0:
173,85,214059,38,0,L|93:91,1,80,8|0,0:0|0:0,0:0:0:0:
239,157,214459,2,0,L|318:150,1,80,8|0,0:0|0:0,0:0:0:0:
184,237,214859,2,0,L|104:243,1,80,8|0,0:0|0:0,0:0:0:0:
250,309,215259,2,0,L|329:302,1,80,8|0,0:0|0:0,0:0:0:0:
409,296,215659,37,4,0:0:0:0:
145,195,221659,37,0,0:0:0:0:
145,195,221859,1,0,0:0:0:0:
145,195,222059,2,0,B|77:208|77:208|41:266,2,136.000002593994,2|2|8,0:0|0:0|0:0,0:0:0:0:
145,195,223259,2,0,P|149:154|144:127,1,68.0000012969971,0|0,0:0|0:0,0:0:0:0:
187,60,223659,5,2,0:0:0:0:
187,60,223859,2,0,P|208:85|220:117,1,68.0000012969971,0|2,0:0|0:0,0:0:0:0:
230,198,224259,2,0,P|276:177|287:164,1,68.0000012969971,0|8,0:0|0:0,0:0:0:0:
306,91,224659,1,0,0:0:0:0:
367,135,224859,2,0,L|359:202,1,68.0000012969971,0|0,0:0|0:0,0:0:0:0:
286,164,225259,38,0,P|230:93|240:53,2,136.000002593994,2|2|8,0:0|0:0|0:0,0:0:0:0:
367,135,226259,1,0,0:0:0:0:
367,135,226459,2,0,L|359:202,1,68.0000012969971,0|0,0:0|0:0,0:0:0:0:
268,275,226859,6,0,B|322:268|322:268|345:280|345:280|399:272,2,136.000002593994,2|2|8,0:0|0:0|0:0,0:0:0:0:
268,275,228059,2,0,L|260:207,1,68.0000012969971,0|0,0:0|0:0,0:0:0:0:
212,149,228459,38,0,P|161:150|144:156,1,68.0000012969971,2|0,0:0|0:0,0:0:0:0:
94,211,228859,2,0,P|96:315|110:342,2,136.000002593994,2|8|0,0:0|0:0|0:0,0:0:0:0:
169,237,229859,1,0,0:0:0:0:
169,237,230059,6,0,P|194:197|212:187,1,68.0000012969971,2|0,0:0|0:0,0:0:0:0:
285,116,230459,2,0,L|149:112,1,136.000002593994,2|8,0:0|0:0,0:0:0:0:
73,109,231059,1,0,0:0:0:0:
108,175,231259,2,0,P|100:223|105:244,1,68.0000012969971,0|0,0:0|0:0,0:0:0:0:
149,112,231659,38,0,P|93:35|54:35,2,136.000002593994,2|2|8,0:0|0:0|0:0,0:0:0:0:
108,175,232659,1,0,0:0:0:0:
74,242,232859,2,0,P|123:249|143:242,1,68.0000012969971,0|0,0:0|0:0,0:0:0:0:
206,209,233259,6,0,P|213:258|206:278,1,68.0000012969971,2|0,0:0|0:0,0:0:0:0:
270,317,233659,2,0,P|231:347|210:352,1,68.0000012969971,2|0,0:0|0:0,0:0:0:0:
270,317,234059,2,0,B|324:324|324:324|347:312|347:312|401:320,1,136.000002593994,8|0,0:0|0:0,0:0:0:0:
475,336,234659,1,0,0:0:0:0:
450,265,234859,38,0,P|460:226|455:198,1,68.0000012969971,2|0,0:0|0:0,0:0:0:0:
387,220,235259,2,0,P|323:152|285:159,1,136.000002593994,2|8,0:0|0:0,0:0:0:0:
236,206,235859,1,0,0:0:0:0:
236,206,236059,2,0,L|242:273,1,68.0000012969971,0|0,0:0|0:0,0:0:0:0:
250,351,236459,5,2,0:0:0:0:
310,302,236659,1,0,0:0:0:0:
175,317,236859,2,0,L|162:181,1,136.000002593994,2|8,0:0|0:0,0:0:0:0:
162,181,237659,2,0,P|112:181|95:188,1,68.0000012969971,0|0,0:0|0:0,0:0:0:0:
196,111,238059,38,0,P|129:101|64:119,2,136.000002593994,2|2|8,0:0|0:0|0:0,0:0:0:0:
236,174,239059,1,0,0:0:0:0:
269,106,239259,2,0,L|266:38,1,68.0000012969971,0|0,0:0|0:0,0:0:0:0:
162,182,239659,6,0,L|159:249,1,68.0000012969971,2|0,0:0|0:0,0:0:0:0:
205,309,240059,2,0,P|271:319|337:301,2,136.000002593994,2|8|0,0:0|0:0|0:0,0:0:0:0:
239,241,241059,1,0,0:0:0:0:
205,308,241259,38,0,P|200:362|204:378,1,68.0000012969971,2|0,0:0|0:0,0:0:0:0:
160,243,241659,2,0,P|129:286|124:302,1,68.0000012969971,2|0,0:0|0:0,0:0:0:0:
53,352,242059,2,0,L|48:210,1,136.000002593994,8|0,0:0|0:0,0:0:0:0:
43,65,242659,1,0,0:0:0:0:
44,139,242859,6,0,P|83:127|105:103,1,68.0000012969971,2|0,0:0|0:0,0:0:0:0:
180,43,243259,2,0,L|175:178,1,136.000002593994,2|8,0:0|0:0,0:0:0:0:
104,213,243859,1,0,0:0:0:0:
171,257,244059,2,0,L|238:259,1,68.0000012969971,0|0,0:0|0:0,0:0:0:0:
307,228,244459,2,0,P|311:277|304:295,1,68.0000012969971,2|0,0:0|0:0,0:0:0:0:
244,183,244859,2,0,P|239:133|246:115,1,68.0000012969971,2|0,0:0|0:0,0:0:0:0:
318,149,245259,1,8,0:0:0:0:
238,259,245459,1,0,0:0:0:0:
244,117,245659,2,0,P|277:79|295:72,1,68.0000012969971,0|0,0:0|0:0,0:0:0:0:
318,149,246059,38,0,P|367:158|382:170,1,68.0000012969971,2|0,0:0|0:0,0:0:0:0:
361,245,246459,2,0,B|415:236|415:236|434:218|434:218|488:211,2,136.000002593994,2|8|0,0:0|0:0|0:0,0:0:0:0:
286,255,247459,1,0,0:0:0:0:
332,313,247659,6,0,P|335:365|344:379,1,68.0000012969971,2|0,0:0|0:0,0:0:0:0:
286,255,248059,2,0,P|257:298|255:314,1,68.0000012969971,2|0,0:0|0:0,0:0:0:0:
182,350,248459,2,0,L|177:214,1,136.000002593994,8|0,0:0|0:0,0:0:0:0:
173,139,249059,1,0,0:0:0:0:
240,172,249259,37,2,0:0:0:0:
111,180,249459,1,0,0:0:0:0:
232,102,249659,2,0,P|265:106|292:126,1,68.0000012969971,2|0,0:0|0:0,0:0:0:0:
348,76,250059,2,0,P|348:176|326:193,1,136.000002593994,8|0,0:0|0:0,0:0:0:0:
348,76,250859,6,0,B|386:58|386:58|480:72,2,136.000002593994,2|2|8,0:0|0:0|0:0,0:0:0:0:
343,151,251859,1,0,0:0:0:0:
281,109,252059,2,0,P|276:62|281:43,1,68.0000012969971,0|0,0:0|0:0,0:0:0:0:
343,151,252459,38,0,P|348:198|342:216,1,68.0000012969971,2|0,0:0|0:0,0:0:0:0:
304,280,252859,2,0,L|168:274,1,136.000002593994,2|8,0:0|0:0,0:0:0:0:
168,274,253659,2,0,P|163:227|169:209,1,68.0000012969971,0|0,0:0|0:0,0:0:0:0:
97,324,254059,6,0,P|122:348|154:359,1,68.0000012969971,2|0,0:0|0:0,0:0:0:0:
169,208,254459,2,0,L|33:214,2,136.000002593994,2|8|0,0:0|0:0|0:0,0:0:0:0:
247,205,255459,1,0,0:0:0:0:
247,205,255659,38,0,L|244:137,1,68.0000012969971,2|0,0:0|0:0,0:0:0:0:
168,208,256059,2,0,P|240:284|265:283,1,136.000002593994,2|8,0:0|0:0,0:0:0:0:
414,343,256859,2,0,L|409:241,1,102.000001945496,0|0,0:0|0:0,0:0:0:0:
397,228,257259,6,0,P|355:224|330:231,1,68.0000012969971,2|0,0:0|0:0,0:0:0:0:
248,231,257659,2,0,P|260:192|278:171,1,68.0000012969971,2|0,0:0|0:0,0:0:0:0:
342,93,258059,2,0,L|206:98,1,136.000002593994,8|0,0:0|0:0,0:0:0:0:
133,83,258659,1,0,0:0:0:0:
153,155,258859,38,0,L|155:222,1,68.0000012969971,2|0,0:0|0:0,0:0:0:0:
188,298,259259,2,0,L|52:292,2,136.000002593994,2|8|0,0:0|0:0|0:0,0:0:0:0:
344,308,260259,1,0,0:0:0:0:
265,304,260459,5,2,0:0:0:0:
312,154,260659,1,0,0:0:0:0:
369,214,260859,2,0,P|302:235|245:201,2,136.000002593994,2|8|0,0:0|0:0|0:0,0:0:0:0:
312,154,261859,1,0,0:0:0:0:
312,154,262059,2,0,P|341:122|347:98,1,68.0000012969971,2|0,0:0|0:0,0:0:0:0:
317,29,262459,2,0,L|181:34,1,136.000002593994,2|8,0:0|0:0,0:0:0:0:
181,33,263259,2,0,P|176:85|182:101,1,68.0000012969971,0|0,0:0|0:0,0:0:0:0:
174,179,263659,38,0,P|141:169|116:146,1,68.0000012969971,2|0,0:0|0:0,0:0:0:0:
248,137,264059,2,0,P|245:228|212:257,2,136.000002593994,2|8|0,0:0|0:0|0:0,0:0:0:0:
248,137,265259,6,0,L|315:132,1,68.0000012969971,2|0,0:0|0:0,0:0:0:0:
390,201,265659,2,0,L|322:205,1,68.0000012969971,2|0,0:0|0:0,0:0:0:0:
260,287,266059,2,0,L|327:282,1,68.0000012969971,8|0,0:0|0:0,0:0:0:0:
406,281,266459,1,0,0:0:0:0:
406,281,266659,1,0,0:0:0:0:
252,212,266859,38,0,P|196:251|192:314,1,136.000002593994,8|0,0:0|0:0,0:0:0:0:
133,370,267459,1,2,0:0:0:0:
126,375,267559,1,2,0:0:0:0:
119,381,267659,2,0,L|51:376,1,68.0000012969971,8|0,0:0|0:0,0:0:0:0:
11,312,268059,2,0,L|15:244,1,68.0000012969971,0|2,0:0|0:0,0:0:0:0:
23,237,268359,1,2,0:0:0:0:
31,230,268459,6,10,B|100:207|90:262|161:244,2,136.000002593994,10|2|10,0:0|0:0|0:0,0:0:0:0:
140,162,269659,2,2,L|137:137,5,22.666667098999,2|2|2|2|2|2,0:0|0:0|0:0|0:0|0:0|0:0,0:0:0:0:
152,172,270059,38,0,L|287:155,1,136.000002593994,8|0,0:0|0:0,0:0:0:0:
360,140,270659,1,2,0:0:0:0:
364,131,270759,1,2,0:0:0:0:
368,122,270859,2,0,P|366:78|357:55,1,68.0000012969971,8|0,0:0|0:0,0:0:0:0:
292,20,271259,2,0,L|224:28,1,68.0000012969971,0|2,0:0|0:0,0:0:0:0:
219,37,271559,1,2,0:0:0:0:
215,46,271659,6,0,P|216:89|225:112,1,68.0000012969971,8|0,0:0|0:0,0:0:0:0:
228,193,272059,2,0,P|194:186|165:168,1,68.0000012969971,2|0,0:0|0:0,0:0:0:0:
244,266,272459,2,0,P|274:250|297:225,1,68.0000012969971,8|0,0:0|0:0,0:0:0:0:
372,224,272859,2,2,L|368:201,5,22.666667098999,2|2|2|2|2|2,0:0|0:0|0:0|0:0|0:0|0:0,0:0:0:0:
382,234,273259,38,0,L|400:368,1,136.000002593994,8|0,0:0|0:0,0:0:0:0:
483,336,273859,1,2,0:0:0:0:
478,330,273959,1,2,0:0:0:0:
473,324,274059,2,0,L|464:257,1,68.0000012969971,8|0,0:0|0:0,0:0:0:0:
452,182,274459,1,0,0:0:0:0:
400,127,274659,1,2,0:0:0:0:
391,125,274759,1,2,0:0:0:0:
382,124,274859,6,0,P|340:127|316:137,1,68.0000012969971,8|0,0:0|0:0,0:0:0:0:
259,87,275259,2,0,P|240:150|277:205,1,136.000002593994,2|8,0:0|0:0,0:0:0:0:
328,58,276059,2,2,L|326:35,5,22.666667098999,2|2|2|2|2|2,0:0|0:0|0:0|0:0|0:0|0:0,0:0:0:0:
340,70,276459,38,0,L|206:88,1,136.000002593994,8|0,0:0|0:0,0:0:0:0:
116,89,277059,1,2,0:0:0:0:
123,96,277159,1,2,0:0:0:0:
130,102,277259,6,0,L|139:169,1,68.0000012969971,8|0,0:0|0:0,0:0:0:0:
151,243,277659,1,0,0:0:0:0:
206,192,277859,1,2,0:0:0:0:
213,188,277959,1,2,0:0:0:0:
220,184,278059,2,0,P|264:175|286:179,1,68.0000012969971,8|0,0:0|0:0,0:0:0:0:
302,106,278459,2,0,P|361:166|354:214,1,136.000002593994,2|8,0:0|0:0,0:0:0:0:
330,282,279259,2,2,L|352:286,5,22.666667098999,2|2|2|2|2|2,0:0|0:0|0:0|0:0|0:0|0:0,0:0:0:0:
313,296,279659,38,0,B|259:289|259:289|236:301|236:301|180:292,1,136.000002593994,8|0,0:0|0:0,0:0:0:0:
107,276,280259,1,2,0:0:0:0:
105,286,280359,1,2,0:0:0:0:
104,296,280459,2,0,P|125:346|148:359,1,68.0000012969971,8|0,0:0|0:0,0:0:0:0:
151,218,280859,2,0,L|138:139,1,68.0000012969971,0|2,0:0|0:0,0:0:0:0:
131,144,281159,1,2,0:0:0:0:
122,138,281259,6,8,L|256:161,2,136.000002593994,8|2|8,0:0|0:0|0:0,0:0:0:0:
105,65,282459,2,2,L|101:42,5,22.666667098999,2|2|2|2|2|2,0:0|0:0|0:0|0:0|0:0|0:0,0:0:0:0:
94,79,282859,38,0,P|82:143|122:196,1,136.000002593994,8|0,0:0|0:0,0:0:0:0:
189,229,283459,1,2,0:0:0:0:
196,236,283559,1,2,0:0:0:0:
203,243,283659,2,0,B|257:236|257:236|280:248|280:248|336:239,1,136.000002593994,8|0,0:0|0:0,0:0:0:0:
384,182,284259,1,2,0:0:0:0:
384,182,284359,1,2,0:0:0:0:
384,182,284459,6,0,P|380:136|371:117,1,68.0000012969971,8|0,0:0|0:0,0:0:0:0:
334,239,284859,2,0,P|375:259|396:260,1,68.0000012969971,2|0,0:0|0:0,0:0:0:0:
305,165,285259,2,0,P|268:192|257:210,1,68.0000012969971,8|0,0:0|0:0,0:0:0:0:
233,281,285659,2,2,L|255:284,5,22.666667098999,2|2|2|2|2|2,0:0|0:0|0:0|0:0|0:0|0:0,0:0:0:0:
216,288,286059,38,0,P|170:206|181:169,1,136.000002593994,8|0,0:0|0:0,0:0:0:0:
95,144,286659,1,2,0:0:0:0:
100,150,286759,1,2,0:0:0:0:
105,157,286859,2,0,P|96:189|97:223,1,68.0000012969971,8|0,0:0|0:0,0:0:0:0:
179,171,287259,2,0,P|188:139|187:105,1,68.0000012969971,0|2,0:0|0:0,0:0:0:0:
181,92,287559,1,2,0:0:0:0:
171,82,287659,6,0,P|200:98|224:121,1,68.0000012969971,8|0,0:0|0:0,0:0:0:0:
250,189,288059,2,0,L|385:175,1,136.000002593994,2|8,0:0|0:0,0:0:0:0:
467,180,288859,2,2,L|464:157,5,22.666667098999,2|2|2|2|2|2,0:0|0:0|0:0|0:0|0:0|0:0,0:0:0:0:
457,191,289259,38,0,L|463:258,1,68.0000012969971,8|0,0:0|0:0,0:0:0:0:
435,328,289659,2,0,P|395:340|370:337,1,68.0000012969971,0|2,0:0|0:0,0:0:0:0:
360,333,289959,1,2,0:0:0:0:
350,329,290059,2,0,P|307:328|283:337,1,68.0000012969971,8|0,0:0|0:0,0:0:0:0:
205,369,290459,2,0,L|211:302,1,68.0000012969971,0|2,0:0|0:0,0:0:0:0:
205,292,290759,1,2,0:0:0:0:
199,283,290859,6,0,L|205:216,1,68.0000012969971,8|0,0:0|0:0,0:0:0:0:
171,149,291259,2,0,B|239:122|233:173|305:146,1,136.000002593994,2|8,0:0|0:0,0:0:0:0:
267,71,292059,2,2,L|271:48,6,22.666667098999,2|2|2|2|2|2|4,0:0|0:0|0:0|0:0|0:0|0:0|0:0,0:0:0:0:
274,137,298459,6,0,B|258:124|256:101|256:101|236:149|256:192,1,136.000002593994,2|4,0:0|0:0,0:0:0:0:
256,192,298884,12,2,301659,0:0:0:0:
128,244,302059,6,0,P|125:282|139:319,1,80,4|0,0:0|0:0,0:0:0:0:
203,270,302459,2,0,P|235:292|273:298,1,80,2|0,0:0|0:0,0:0:0:0:
186,191,302859,1,4,0:0:0:0:
42,263,303059,1,0,0:0:0:0:
203,270,303259,1,2,0:0:0:0:
215,111,303459,1,0,0:0:0:0:
128,244,303659,38,0,P|125:282|139:319,1,80,8|0,0:0|0:0,0:0:0:0:
278,296,304059,2,0,P|281:258|267:221,1,80,8|0,0:0|0:0,0:0:0:0:
109,162,304459,2,0,P|74:179|49:210,1,80,8|0,0:0|0:0,0:0:0:0:
203,270,304859,1,8,0:0:0:0:
215,111,305059,1,0,0:0:0:0:
128,244,305259,6,0,P|125:282|139:319,1,80,4|0,0:0|0:0,0:0:0:0:
278,296,305659,2,0,P|309:317|348:323,1,80,2|0,0:0|0:0,0:0:0:0:
398,192,306059,1,4,0:0:0:0:
247,140,306259,1,0,0:0:0:0:
339,245,306459,1,2,0:0:0:0:
306,87,306659,1,0,0:0:0:0:
415,269,306859,38,0,P|472:219|461:143,1,160,8|8,0:0|0:0,0:0:0:0:
323,166,307459,1,0,0:0:0:0:
355,322,307659,2,0,P|388:346|431:350,1,80,8|0,0:0|0:0,0:0:0:0:
398,192,308059,1,8,0:0:0:0:
275,295,308259,1,0,0:0:0:0:
415,269,308459,6,0,P|451:250|474:213,1,80,4|0,0:0|0:0,0:0:0:0:
381,115,308859,2,0,P|344:133|321:170,1,80,2|0,0:0|0:0,0:0:0:0:
355,322,309259,1,4,0:0:0:0:
398,192,309459,1,0,0:0:0:0:
264,220,309659,1,2,0:0:0:0:
339,243,309859,1,0,0:0:0:0:
189,197,310059,38,0,B|124:207|124:207|104:231|104:231|42:244,2,160,8|8|8,0:0|0:0|0:0,0:0:0:0:
264,225,311059,1,0,0:0:0:0:
189,197,311259,2,0,P|184:237|198:273,1,80,8|0,0:0|0:0,0:0:0:0:
323,165,311659,6,0,P|327:125|313:88,1,80,4|0,0:0|0:0,0:0:0:0:
198,273,312059,2,0,P|230:295|269:301,1,80,2|0,0:0|0:0,0:0:0:0:
244,136,312459,2,0,P|211:112|172:106,1,80,4|0,0:0|0:0,0:0:0:0:
180,189,312859,1,2,0:0:0:0:
323,165,313059,1,0,0:0:0:0:
172,106,313259,38,0,P|134:120|108:149,1,80,8|0,0:0|0:0,0:0:0:0:
258,218,313659,2,0,P|251:257|263:295,1,80,8|0,0:0|0:0,0:0:0:0:
396,205,314059,1,8,0:0:0:0:
315,91,314259,1,0,0:0:0:0:
331,250,314459,1,8,0:0:0:0:
461,158,314659,1,0,0:0:0:0:
323,170,314859,5,4,0:0:0:0:
469,238,315059,1,0,0:0:0:0:
389,124,315259,1,2,0:0:0:0:
403,284,315459,1,0,0:0:0:0:
454,78,315659,1,4,0:0:0:0:
251,137,315859,1,0,0:0:0:0:
396,205,316059,1,2,0:0:0:0:
309,10,316259,1,0,0:0:0:0:
184,183,316459,38,0,P|222:215|261:219,1,80,8|0,0:0|0:0,0:0:0:0:
389,124,316859,2,0,P|397:75|381:39,1,80,8|0,0:0|0:0,0:0:0:0:
176,103,317259,2,0,P|129:119|106:151,1,80,8|0,0:0|0:0,0:0:0:0:
323,170,317659,1,8,0:0:0:0:
309,10,317859,1,0,0:0:0:0:
266,226,318059,6,0,P|360:240|397:197,2,160,4|2|4,0:0|0:0|0:0,0:0:0:0:
246,148,319059,1,0,0:0:0:0:
187,204,319259,2,0,P|186:247|204:280,1,80,2|0,0:0|0:0,0:0:0:0:
323,170,319659,37,8,0:0:0:0:
169,125,319859,1,0,0:0:0:0:
266,226,320059,1,8,0:0:0:0:
226,69,320259,1,0,0:0:0:0:
112,181,320459,1,8,0:0:0:0:
246,148,320659,1,0,0:0:0:0:
91,103,320859,2,0,P|57:123|36:156,1,80,8|0,0:0|0:0,0:0:0:0:
132,258,321259,6,0,L|291:245,1,160,4|2,0:0|0:0,0:0:0:0:
450,230,321859,1,0,0:0:0:0:
370,237,322059,2,0,L|363:157,1,80,4|0,0:0|0:0,0:0:0:0:
356,77,322459,1,2,0:0:0:0:
428,112,322659,1,0,0:0:0:0:
286,120,322859,38,0,P|211:143|132:132,2,160,8|8|8,0:0|0:0|0:0,0:0:0:0:
285,38,323859,1,0,0:0:0:0:
428,112,324059,1,8,0:0:0:0:
421,32,324259,1,0,0:0:0:0:
358,152,324459,6,0,P|386:183|422:195,1,80,4|0,0:0|0:0,0:0:0:0:
239,300,324859,2,0,P|198:309|170:334,1,80,2|0,0:0|0:0,0:0:0:0:
170,123,325259,2,0,P|183:83|175:46,1,80,4|0,0:0|0:0,0:0:0:0:
256,192,325659,1,2,0:0:0:0:
256,192,325859,1,0,0:0:0:0:
153,231,326059,38,0,P|125:200|89:189,1,80,8|0,0:0|0:0,0:0:0:0:
272,83,326459,2,0,P|313:74|341:49,1,80,8|0,0:0|0:0,0:0:0:0:
341,260,326859,2,0,P|328:300|336:337,1,80,8|0,0:0|0:0,0:0:0:0:
256,192,327259,1,8,0:0:0:0:
256,192,327459,1,0,0:0:0:0:
410,303,327659,6,0,L|489:296,1,80,4|0,0:0|0:0,0:0:0:0:
510,219,328059,2,0,P|516:175|505:140,1,80,2|0,0:0|0:0,0:0:0:0:
366,151,328459,2,0,P|360:195|370:229,1,80,4|0,0:0|0:0,0:0:0:0:
438,185,328859,1,2,0:0:0:0:
294,117,329059,1,0,0:0:0:0:
305,276,329259,38,0,P|340:303|375:310,1,80,8|0,0:0|0:0,0:0:0:0:
366,151,329659,2,0,P|360:195|370:229,1,80,8|0,0:0|0:0,0:0:0:0:
502,142,330059,2,0,P|465:156|438:185,1,80,8|0,0:0|0:0,0:0:0:0:
510,219,330459,1,8,0:0:0:0:
494,65,330659,1,0,0:0:0:0:
340,95,330859,6,0,B|326:73|325:41|325:41|318:72|300:90,1,111.999996582031,4|0,0:0|0:0,0:0:0:0:
230,119,331259,2,0,B|205:125|174:116|174:116|201:132|213:155,1,111.999996582031,2|0,0:0|0:0,0:0:0:0:
219,230,331659,2,0,B|212:254|188:276|188:276|216:261|242:262,1,111.999996582031,4|0,0:0|0:0,0:0:0:0:
321,276,332059,2,0,B|342:290|356:319|356:319|350:287|359:263,1,111.999996582031,2|0,0:0|0:0,0:0:0:0:
395,193,332459,38,0,B|414:177|447:173|447:173|415:168|394:153,1,111.999996582031,8|0,0:0|0:0,0:0:0:0:
316,171,332859,2,0,P|308:133|314:94,1,80,8|0,0:0|0:0,0:0:0:0:
452,11,333259,2,0,P|458:50|449:88,1,80,8|0,0:0|0:0,0:0:0:0:
241,47,333659,1,8,0:0:0:0:
377,14,333859,1,0,0:0:0:0:
394,153,334059,6,0,B|415:168|447:173|447:173|414:177|395:193,1,111.999996582031,4|0,0:0|0:0,0:0:0:0:
359,263,334459,2,0,B|350:287|356:319|356:319|342:290|315:278,1,111.999996582031,2|0,0:0|0:0,0:0:0:0:
242,262,334859,2,0,B|216:261|188:276|188:276|212:254|219:230,1,111.999996582031,4|0,0:0|0:0,0:0:0:0:
213,155,335259,2,0,B|201:132|174:116|174:116|205:125|230:119,1,111.999996582031,2|0,0:0|0:0,0:0:0:0:
300,90,335659,38,0,B|318:72|325:41|325:41|326:73|340:95,1,111.999996582031,8|0,0:0|0:0,0:0:0:0:
394,153,336059,2,0,B|387:216|387:216|368:242|368:242|361:305,1,160,8|8,0:0|0:0,0:0:0:0:
177,384,336859,2,0,L|168:304,1,80,8|0,0:0|0:0,0:0:0:0:
198,230,337259,6,0,P|158:226|121:240,1,80,4|0,0:0|0:0,0:0:0:0:
247,292,337659,2,0,P|270:259|276:220,1,80,2|0,0:0|0:0,0:0:0:0:
150,168,338059,2,0,P|126:200|120:239,1,80,4|0,0:0|0:0,0:0:0:0:
198,230,338459,1,2,0:0:0:0:
102,106,338659,1,0,0:0:0:0:
167,303,338859,38,0,P|206:306|243:292,1,80,8|0,0:0|0:0,0:0:0:0:
226,157,339259,2,0,P|186:153|149:167,1,80,8|0,0:0|0:0,0:0:0:0:
198,230,339659,1,8,0:0:0:0:
256,81,339859,1,0,0:0:0:0:
356,205,340059,1,8,0:0:0:0:
177,94,340259,1,0,0:0:0:0:
335,68,340459,5,4,0:0:0:0:
278,217,340659,1,0,0:0:0:0:
205,19,340859,1,2,0:0:0:0:
412,54,341059,1,0,0:0:0:0:
226,157,341259,1,4,0:0:0:0:
362,0,341459,1,0,0:0:0:0:
429,196,341659,1,2,0:0:0:0:
256,81,341859,1,0,0:0:0:0:
459,120,342059,38,0,P|490:143|508:179,1,80,8|0,0:0|0:0,0:0:0:0:
314,254,342459,2,0,P|312:292|293:328,1,80,8|0,0:0|0:0,0:0:0:0:
121,212,342859,2,0,P|88:232|48:237,1,80,8|0,0:0|0:0,0:0:0:0:
254,66,343259,1,8,0:0:0:0:
215,229,343459,1,0,0:0:0:0:
64,155,343659,6,0,B|53:36|53:36|76:2,2,160,4|2|4,0:0|0:0|0:0,0:0:0:0:
71,234,344659,1,0,0:0:0:0:
136,188,344859,2,0,P|149:225|143:264,1,80,2|0,0:0|0:0,0:0:0:0:
64,155,345259,37,8,0:0:0:0:
222,179,345459,1,0,0:0:0:0:
71,234,345659,1,8,0:0:0:0:
98,75,345859,1,0,0:0:0:0:
257,102,346059,1,8,0:0:0:0:
230,261,346259,1,0,0:0:0:0:
144,163,346459,2,0,L|222:179,1,80,8|0,0:0|0:0,0:0:0:0:
352,134,346859,6,0,P|379:205|333:267,1,160,4|2,0:0|0:0,0:0:0:0:
300,195,347459,1,0,0:0:0:0:
352,134,347659,2,0,L|430:150,1,80,4|0,0:0|0:0,0:0:0:0:
333,267,348059,2,0,L|255:283,1,80,2|0,0:0|0:0,0:0:0:0:
183,154,348459,38,0,B|233:124|233:124|171:104|171:104|158:29|158:29|116:88|116:88|44:76|44:76|83:132|83:132|47:201|47:201|117:179|117:179|168:235|168:235|174:159,1,716.80000875,4|4,0:0|0:0,0:0:0:0:
