osu file format v14

[General]
AudioFilename: Reol.mp3
AudioLeadIn: 0
PreviewTime: 56057
Countdown: 0
SampleSet: Normal
StackLeniency: 0.7
Mode: 0
LetterboxInBreaks: 0
WidescreenStoryboard: 0

[Editor]
DistanceSpacing: 0.5
BeatDivisor: 4
GridSize: 4
TimelineZoom: 1.2

[Metadata]
Title:+Danshi
TitleUnicode:+♂
Artist:Reol
ArtistUnicode:れをる
Creator:neonat
Version:Hard
Source:
Tags:GigaP Giga ギガP Tagre Plus Boy Hinsvar Fort Papcio Pappy jomnhnk [I]MMoRTal[S]
BeatmapID:671474
BeatmapSetID:299259

[Difficulty]
HPDrainRate:5
CircleSize:4
OverallDifficulty:5
ApproachRate:8
SliderMultiplier:1.7
SliderTickRate:1

[Events]
//Background and Video events
0,0,"BG.png",0,0
Video,0,"new.avi"
//Break Periods
2,46934,53984
2,78934,80651
//Storyboard Layer 0 (Background)
//Storyboard Layer 1 (Fail)
//Storyboard Layer 2 (Pass)
//Storyboard Layer 3 (Foreground)
//Storyboard Sound Samples

[TimingPoints]
12068,333.333333333333,4,1,1,70,1,0
57401,-90.9090909090909,4,1,1,80,0,1
67401,-100,4,1,1,80,0,0
68067,-90.9090909090909,4,1,1,80,0,1
78734,-100,4,2,1,80,0,0
102734,-133.333333333333,4,2,1,80,0,0
113401,-90.9090909090909,4,1,1,80,0,1
123401,-100,4,1,1,80,0,0
124067,-90.9090909090909,4,1,1,80,0,1
134734,-133.333333333333,4,2,1,80,0,0
145401,-90.9090909090909,4,2,1,80,0,1
145422,-100,4,1,1,80,0,0
166734,-100,4,2,1,30,0,0
168567,-100,4,2,1,40,0,0
168734,-100,4,2,1,50,0,0
168901,-100,4,2,1,60,0,0
169067,-100,4,2,1,70,0,0
169234,-100,4,2,1,80,0,0
169401,-90.9090909090909,4,1,1,80,0,1
179401,-100,4,1,1,80,0,0
180067,-90.9090909090909,4,1,1,80,0,1
190734,-100,4,1,1,80,0,0

[Colours]
Combo1 : 245,167,230
Combo2 : 253,232,113
Combo3 : 245,184,150
Combo4 : 135,186,243

[HitObjects]
256,132,13401,5,8,0:0:0:0:
428,60,13734,1,8,0:0:0:0:
380,240,14068,1,8,0:0:0:0:
356,328,14234,1,8,0:0:0:0:
284,268,14401,2,2,B|224:288|164:240|96:276,1,170,0|4,0:0|0:0,0:0:0:0:
40,324,14901,1,0,0:0:0:0:
28,232,15068,6,0,P|16:192|40:136,1,85,8|0,0:0|0:0,0:0:0:0:
60,128,15318,1,0,0:0:0:0:
96,120,15401,2,0,L|192:108,1,85
336,136,15734,1,8,0:0:0:0:
248,168,15901,1,0,0:0:0:0:
268,64,16068,1,0,0:0:0:0:
380,32,16234,1,0,0:0:0:0:
380,32,16318,1,0,0:0:0:0:
380,32,16401,6,0,P|428:36|472:72,1,85,8|0,0:0|0:0,0:0:0:0:
423,203,16734,2,0,P|406:241|408:284,1,85
336,136,17068,2,0,L|240:112,1,85,8|0,0:0|0:0,0:0:0:0:
160,100,17401,6,0,B|120:128|128:168|128:168|168:216|152:276,1,170,0|8,0:0|0:0,0:0:0:0:
100,324,17901,1,0,0:0:0:0:
68,236,18068,2,0,L|8:228,2,42.5
156,250,18401,1,8,0:0:0:0:
248,232,18568,1,0,0:0:0:0:
248,232,18651,1,0,0:0:0:0:
248,232,18734,6,0,P|288:184|288:136,1,85
356,96,19068,2,0,P|412:108|440:148,1,85,8|0,0:0|0:0,0:0:0:0:
388,208,19401,2,0,L|384:304,1,85
460,360,19734,2,0,L|464:268,1,85,8|0,0:0|0:0,0:0:0:0:
508,160,20068,6,0,P|472:60|416:28,1,170,0|8,0:0|0:0,0:0:0:0:
328,16,20568,1,0,0:0:0:0:
244,52,20734,2,0,P|184:72|148:64,1,85
76,32,21068,2,0,P|68:76|84:120,1,85,8|0,0:0|0:0,0:0:0:0:
152,176,21401,5,0,0:0:0:0:
244,152,21568,1,0,0:0:0:0:
236,244,21734,2,0,L|308:296,1,85,8|0,0:0|0:0,0:0:0:0:
356,212,22068,2,0,L|456:184,1,85
384,112,22401,2,0,L|424:28,1,85,8|0,0:0|0:0,0:0:0:0:
328,28,22734,6,0,P|264:20|152:32,1,170,0|8,0:0|0:0,0:0:0:0:
188,216,23401,2,0,P|252:224|364:212,1,170
256,192,24067,12,0,25067,0:0:0:0:
336,188,25401,6,0,P|344:232|332:288,1,85,4|0,0:3|0:0,0:0:0:0:
252,232,25734,2,0,P|244:188|256:132,1,85,4|0,0:3|0:0,0:0:0:0:
332,100,26067,2,0,P|380:92|424:104,2,85,4|0|4,0:3|0:0|0:3,0:0:0:0:
249,148,26567,1,0,0:0:0:0:
160,116,26734,6,0,L|64:116,1,85,4|0,0:3|0:0,0:0:0:0:
120,36,27067,2,0,L|216:36,1,85,4|0,0:3|0:0,0:0:0:0:
332,100,27401,1,4,0:3:0:0:
392,172,27567,1,0,0:0:0:0:
312,216,27734,1,4,0:3:0:0:
249,148,27901,1,0,0:0:0:0:
284,32,28067,6,0,P|332:16|380:32,1,85,0|0,0:3|0:0,0:0:0:0:
424,112,28401,1,4,0:3:0:0:
468,192,28567,2,0,P|476:248|468:292,1,85,0|4,0:0|0:3,0:0:0:0:
392,328,28901,2,0,P|336:356|296:344,2,85,0|4|0,0:0|0:3|0:0,0:0:0:0:
364,240,29401,6,0,B|340:204|320:216|292:176,1,85,4|0,0:3|0:0,0:0:0:0:
204,188,29734,2,0,B|183:218|163:206|139:242,1,85,4|0,0:3|0:0,0:0:0:0:
92,324,30067,2,0,B|44:296|44:236|44:236|64:168,1,170,4|4,0:3|0:3,0:0:0:0:
112,92,30567,1,0,0:0:0:0:
208,56,30734,6,0,B|244:64|252:44|300:52,1,85,4|0,0:3|0:0,0:0:0:0:
324,140,31067,2,0,B|360:148|368:128|416:136,1,85,4|0,0:3|0:0,0:0:0:0:
476,200,31401,2,0,P|492:256|472:304,1,85,4|0,0:3|0:0,0:0:0:0:
396,312,31734,1,4,0:3:0:0:
391,312,31817,1,0,0:0:0:0:
388,312,31901,1,0,0:0:0:0:
384,312,31984,1,0,0:0:0:0:
380,312,32067,6,0,B|340:304|320:324|320:324|272:296,2,85,4|0|4,0:3|0:0|0:3,0:0:0:0:
486,280,32567,1,0,0:0:0:0:
396,228,32734,1,4,0:3:0:0:
476,116,32901,2,0,P|481:74|465:35,1,85,0|4,0:0|0:3,0:0:0:0:
372,48,33234,6,0,L|288:108,1,85,0|4,0:0|0:3,0:0:0:0:
272,184,33567,2,0,L|184:248,1,85,0|4,0:0|0:3,0:0:0:0:
164,320,33901,2,0,L|64:380,1,85,0|4,0:0|0:3,0:0:0:0:
24,300,34234,2,0,P|12:256|32:204,2,85,0|4|0,0:0|0:3|0:0,0:0:0:0:
108,256,34734,5,4,0:3:0:0:
108,256,34817,1,0,0:0:0:0:
108,256,34901,2,0,P|120:212|100:160,1,85,0|4,0:0|0:3,0:0:0:0:
40,112,35234,1,0,0:0:0:0:
128,32,35401,1,4,0:3:0:0:
256,36,35567,2,0,L|288:8,2,42.5,0|0|4,0:0|0:0|0:3,0:0:0:0:
280,152,35901,1,0,0:0:0:0:
392,80,36067,6,0,P|402:125|388:163,1,85,4|0,0:3|0:0,0:0:0:0:
280,152,36401,1,4,0:3:0:0:
188,116,36567,2,0,B|144:108|132:124|96:116,2,85,0|4|0,0:0|0:3|0:0,0:0:0:0:
280,152,37067,1,4,0:3:0:0:
336,228,37234,1,0,0:0:0:0:
200,216,37401,6,0,L|96:216,1,85,4|0,0:3|0:0,0:0:0:0:
220,300,37734,2,0,L|324:300,1,85,4|0,0:3|0:0,0:0:0:0:
360,148,38067,2,0,P|404:180|416:220,1,85,4|0,0:3|0:0,0:0:0:0:
280,152,38401,2,0,P|296:96|340:72,1,85,4|0,0:3|0:0,0:0:0:0:
408,76,38734,5,4,0:3:0:0:
480,136,38901,1,0,0:0:0:0:
488,44,39067,2,0,P|460:4|408:-4,1,85,4|0,0:3|0:0,0:0:0:0:
336,24,39401,2,0,P|276:36|240:24,1,85,4|0,0:3|0:0,0:0:0:0:
160,24,39734,2,0,B|124:40|124:40|132:80|116:116,1,85,4|0,0:3|0:0,0:0:0:0:
84,168,40067,5,4,0:3:0:0:
156,232,40234,1,0,0:0:0:0:
64,256,40401,2,0,B|48:280|48:280|64:308|48:344,1,85,4|0,0:3|0:0,0:0:0:0:
144,324,40734,2,0,B|168:340|168:340|196:324|232:340,1,85,4|0,0:3|0:0,0:0:0:0:
316,352,41067,6,0,P|380:348|400:324,1,85,4|0,0:3|0:0,0:0:0:0:
428,248,41401,1,4,0:3:0:0:
392,164,41567,2,0,B|332:148|328:80|328:80|248:72,1,170
212,144,42067,1,4,0:3:0:0:
292,196,42234,2,0,L|332:272,2,85,0|4|0,0:0|0:3|0:0,0:0:0:0:
376,80,42734,6,0,P|452:108|472:160,1,127.5,4|0,0:3|0:0,0:0:0:0:
472,192,43067,2,0,L|476:296,1,85,4|0,0:3|0:0,0:0:0:0:
412,348,43401,1,4,0:3:0:0:
292,284,43567,2,0,P|240:276|204:288,2,85,0|4|0,0:0|0:3|0:0,0:0:0:0:
376,240,44067,6,0,P|376:188|344:152,1,85,4|0,0:3|0:0,0:0:0:0:
264,148,44401,2,0,L|160:176,1,85,4|0,0:3|0:0,0:0:0:0:
88,168,44734,2,0,P|40:140|32:88,1,85,4|0,0:3|0:0,0:0:0:0:
52,24,45067,2,0,L|-4:16,2,42.5,4|0|0,0:3|0:0|0:0,0:0:0:0:
160,64,45401,5,4,0:3:0:0:
248,28,45567,1,0,0:0:0:0:
336,60,45734,2,0,B|352:76|384:76|384:76|392:116,1,85,4|0,0:3|0:0,0:0:0:0:
440,188,46067,2,0,L|492:188,2,42.5,4|0|0,0:3|0:0|0:0,0:0:0:0:
312,208,46401,2,0,P|268:224|220:208,1,85,4|0,0:3|0:0,0:0:0:0:
192,188,46651,1,0,0:0:0:0:
160,152,46734,1,4,0:0:0:0:
256,192,54734,12,4,56067,0:3:0:0:
308,160,56901,5,0,0:0:0:0:
312,168,57067,1,0,0:0:0:0:
316,176,57234,1,0,0:0:0:0:
320,184,57401,6,0,P|326:262|224:316,1,187.000005706787,4|8,0:0|0:0,0:0:0:0:
148,316,57901,1,0,0:0:0:0:
96,240,58067,2,0,P|90:162|192:108,1,187.000005706787,0|8,0:0|0:0,0:0:0:0:
224,184,58567,1,0,0:0:0:0:
316,176,58734,2,0,B|384:128|336:52|336:52|280:44,1,187.000005706787,0|8,0:0|0:0,0:0:0:0:
200,20,59234,1,0,0:0:0:0:
112,52,59401,6,0,L|84:144,1,93.5000028533936
148,212,59734,2,0,L|176:324,1,93.5000028533936,8|0,0:0|0:0,0:0:0:0:
260,336,60067,2,0,L|380:336,1,93.5000028533936
464,264,60401,2,0,L|356:264,1,93.5000028533936,8|0,0:0|0:0,0:0:0:0:
276,240,60734,2,0,B|240:228|236:180|236:180|196:164,2,93.5000028533936,0|0|8,0:0|0:0|0:0,0:0:0:0:
356,196,61234,6,0,B|372:148|372:148|340:108|340:108|352:72|372:44|424:52,1,187.000005706787
488,68,61734,1,8,0:0:0:0:
460,156,61901,1,0,0:0:0:0:
396,51,62067,2,0,P|352:16|292:20,1,93.5000028533936
240,64,62401,2,0,B|224:88|252:136|232:156,1,93.5000028533936,8|0,0:0|0:0,0:0:0:0:
128,232,62734,6,0,L|28:232,1,93.5000028533936
172,304,63067,2,0,L|296:304,1,93.5000028533936,8|0,0:0|0:0,0:0:0:0:
312,224,63401,2,0,L|200:224,1,93.5000028533936
344,296,63734,2,0,L|452:296,1,93.5000028533936,8|0,0:0|0:0,0:0:0:0:
480,212,64067,5,0,0:0:0:0:
456,120,64234,2,0,B|416:32|332:40|332:40|296:72,2,187.000005706787
396,192,65067,2,0,B|360:204|328:192|328:192|284:196,1,93.5000028533936,8|0,0:0|0:0,0:0:0:0:
132,192,65401,6,0,P|72:156|64:112,2,93.5000028533936,0|0|8,0:0|0:0|0:0,0:0:0:0:
220,160,65901,2,0,P|184:100|140:92,2,93.5000028533936
196,252,66401,2,0,P|220:291|263:306,2,93.5000028533936,8|0|4,0:0|0:0|0:3,0:0:0:0:
132,192,66901,2,0,P|88:207|64:246,2,93.5000028533936,0|4|0,0:0|0:3|0:0,0:0:0:0:
220,160,67401,6,0,P|304:168|400:156,1,170,2|2,0:0|0:0,0:0:0:0:
164,32,68067,6,0,P|112:24|16:116,1,187.000005706787,4|8,0:0|0:0,0:0:0:0:
164,32,68567,2,0,P|128:88|172:196,1,187.000005706787
260,184,69067,1,8,0:0:0:0:
260,184,69234,1,0,0:0:0:0:
356,32,69401,6,0,P|408:24|504:116,1,187.000005706787,0|8,0:0|0:0,0:0:0:0:
356,32,69901,2,0,P|392:88|348:196,1,187.000005706787
260,184,70401,1,8,0:0:0:0:
260,184,70568,1,0,0:0:0:0:
88,256,70734,6,0,P|32:240|0:92,1,187.000005706787,0|8,0:0|0:0,0:0:0:0:
88,256,71234,2,0,P|72:180|152:104,1,187.000005706787
236,100,71734,2,0,L|344:104,1,93.5000028533936,8|0,0:0|0:0,0:0:0:0:
436,168,72067,5,0,0:0:0:0:
324,220,72234,1,0,0:0:0:0:
440,252,72401,1,8,0:0:0:0:
356,148,72567,1,0,0:0:0:0:
368,288,72734,2,0,P|328:324|256:328,1,93.5000028533936
180,256,73067,1,8,0:0:0:0:
0,104,73401,6,0,P|72:80|188:104,1,187.000005706787,4|8,0:0|0:0,0:0:0:0:
256,196,73901,1,0,0:0:0:0:
272,320,74067,2,0,P|362:340|451:315,1,187.000005706787,0|8,0:0|0:0,0:0:0:0:
492,200,74567,1,0,0:0:0:0:
424,72,74734,6,0,B|336:92|288:52|228:76,1,187.000005706787,0|8,0:0|0:0,0:0:0:0:
156,136,75234,1,0,0:0:0:0:
56,168,75401,2,0,P|44:120|72:64,1,93.5000028533936
132,236,75734,2,0,P|144:284|116:340,1,93.5000028533936,8|0,0:0|0:0,0:0:0:0:
52,248,76067,6,0,P|8:232|-20:176,1,93.5000028533936
100,192,76401,2,0,P|77:151|92:90,1,93.5000028533936,8|0,0:0|0:0,0:0:0:0:
180,136,76734,2,0,L|296:136,2,93.5000028533936,0|0|8,0:0|0:0|0:0,0:0:0:0:
292,216,77234,6,0,P|356:136|308:60,1,187.000005706787
220,52,77734,2,0,B|164:52|164:52|108:32,1,93.5000028533936,8|0,0:3|0:0,0:0:0:0:
28,60,78067,2,0,B|0:112|0:112|0:176,1,93.5000028533936,8|0,0:3|0:0,0:0:0:0:
96,192,78401,2,0,B|96:248|96:248|68:278,1,93.5000028533936,8|0,0:3|0:0,0:0:0:0:
4,340,78734,1,4,0:3:0:0:
444,148,81401,6,0,P|460:192|440:256,1,85,2|0,0:3|0:0,0:0:0:0:
376,280,81734,2,0,P|360:236|380:172,1,85,4|0,0:3|0:0,0:0:0:0:
356,104,82067,2,0,B|356:60|356:60|332:16,2,85,4|0|4,0:3|0:0|0:3,0:0:0:0:
284,164,82567,1,0,0:0:0:0:
204,212,82734,6,0,P|128:212|96:200,1,85,4|0,0:3|0:0,0:0:0:0:
116,116,83067,2,0,P|192:116|224:128,1,85,4|0,0:3|0:0,0:0:0:0:
284,164,83401,2,0,B|344:184|328:236|384:244|384:244|424:224,1,170,4|4,2:3|0:3,0:0:0:0:
472,152,83901,1,0,0:0:0:0:
424,72,84067,6,0,L|352:8,1,85,4|0,0:3|0:0,0:0:0:0:
272,52,84401,2,0,L|208:108,1,85,4|0,0:3|0:0,0:0:0:0:
172,196,84734,1,4,0:3:0:0:
172,196,84817,1,0,0:0:0:0:
172,196,84901,1,0,0:0:0:0:
80,240,85067,2,0,P|68:188|84:144,1,85,4|0,0:3|0:0,0:0:0:0:
124,56,85401,6,0,L|168:84,3,42.5,4|0|0|0,0:3|0:0|0:0|0:0,0:0:0:0:
196,108,85734,2,0,P|232:140|268:144,1,85,4|0,0:3|0:0,0:0:0:0:
336,80,86067,2,0,P|360:136|356:180,1,85,4|0,0:3|0:0,0:0:0:0:
296,228,86401,1,4,0:3:0:0:
376,280,86567,1,0,0:0:0:0:
472,184,86734,6,0,P|484:136|472:96,1,85,4|0,0:3|0:0,0:0:0:0:
452,12,87067,2,0,P|404:0|364:12,1,85,4|0,0:3|0:0,0:0:0:0:
276,24,87401,2,0,P|256:80|264:116,1,85,4|0,0:3|0:0,0:0:0:0:
208,184,87734,2,0,P|172:140|168:96,1,85,4|0,0:3|0:0,0:0:0:0:
192,21,88067,6,0,L|304:25,1,85,4|0,0:3|0:0,0:0:0:0:
345,107,88401,2,0,L|260:103,1,85,4|0,0:3|0:0,0:0:0:0:
168,104,88734,2,0,P|120:112|60:100,1,85,4|0,0:3|0:0,0:0:0:0:
16,44,89067,1,4,0:3:0:0:
104,4,89234,1,0,0:0:0:0:
168,104,89401,6,0,L|168:216,1,85,4|0,0:3|0:0,0:0:0:0:
240,308,89734,2,0,L|240:220,1,85,4|0,0:3|0:0,0:0:0:0:
276,120,90067,2,0,P|328:96|368:108,2,85,4|0|4,0:3|0:0|0:3,0:0:0:0:
336,192,90567,1,0,0:0:0:0:
436,120,90734,6,0,B|468:132|448:180|496:192,1,85,4|0,0:3|0:0,0:0:0:0:
424,288,91067,2,0,B|444:260|484:294|510:251,1,85,4|0,0:3|0:0,0:0:0:0:
408,212,91401,2,0,B|356:228|340:272|352:320|352:320|288:344,1,170,4|4,0:3|0:3,0:0:0:0:
228,336,91901,1,0,0:0:0:0:
88,300,92067,6,0,P|76:248|88:212,1,85,4|0,0:3|0:0,0:0:0:0:
164,168,92401,2,0,L|268:180,1,85,4|0,0:3|0:0,0:0:0:0:
320,236,92734,1,4,0:3:0:0:
332,144,92901,1,0,0:0:0:0:
248,252,93067,2,0,L|184:320,1,85,4|0,0:3|0:0,0:0:0:0:
99,218,93401,5,4,0:3:0:0:
99,218,93484,1,0,0:0:0:0:
99,218,93567,1,0,0:0:0:0:
99,218,93651,1,0,0:0:0:0:
99,218,93734,2,0,P|56:184|52:144,1,85,4|0,0:3|0:0,0:0:0:0:
108,84,94067,1,4,0:3:0:0:
40,20,94234,1,0,0:0:0:0:
184,40,94401,2,0,L|216:140,1,85,4|0,0:3|0:0,0:0:0:0:
320,228,94734,6,0,P|352:192|364:144,1,85,4|0,0:3|0:0,0:0:0:0:
328,72,95067,2,0,L|240:64,1,85,4|0,0:3|0:0,0:0:0:0:
404,48,95401,2,0,P|418:87|447:118,1,85,4|0,0:3|0:0,0:0:0:0:
460,252,95734,1,4,0:3:0:0:
460,252,95901,1,0,0:0:0:0:
320,228,96067,6,0,L|240:168,1,85,4|0,0:3|0:0,0:0:0:0:
192,48,96401,2,0,B|148:52|128:72|128:72|120:104|88:128,1,127.5,4|0,0:3|0:0,0:0:0:0:
60,148,96734,2,0,P|4:140|-16:96,1,85,4|0,0:3|0:0,0:0:0:0:
80,20,97067,2,0,P|152:16|240:24,1,127.5,4|0,0:3|0:0,0:0:0:0:
252,40,97401,6,0,P|328:40|364:28,1,85,4|0,0:3|0:0,0:0:0:0:
428,44,97734,2,0,P|464:104|464:184,1,127.5,4|0,0:3|0:0,0:0:0:0:
448,200,98067,1,4,0:3:0:0:
364,136,98234,1,0,0:0:0:0:
232,168,98401,1,4,0:3:0:0:
232,168,98567,1,0,0:0:0:0:
312,212,98734,5,4,0:3:0:0:
444,120,98901,1,0,0:0:0:0:
444,120,98984,1,0,0:0:0:0:
444,120,99067,2,0,P|492:136|520:176,1,85,4|0,0:3|0:0,0:0:0:0:
508,256,99401,1,4,0:3:0:0:
440,320,99567,1,0,0:0:0:0:
400,236,99734,1,4,0:3:0:0:
332,300,99901,1,0,0:0:0:0:
244,272,100067,5,4,0:3:0:0:
244,272,100151,1,0,0:0:0:0:
244,272,100234,1,0,0:0:0:0:
160,192,100401,2,0,B|156:252|156:252|176:284,2,85,4|0|4,0:3|0:0|0:3,0:0:0:0:
240,140,100901,1,0,0:0:0:0:
240,140,100984,1,0,0:0:0:0:
240,140,101067,2,0,P|244:80|228:44,1,85,4|0,0:3|0:0,0:0:0:0:
148,24,101401,5,4,0:3:0:0:
24,164,101734,1,4,0:3:0:0:
292,72,102067,2,0,B|340:72|376:92|376:92|428:104|468:76,1,170,4|0,0:3|0:0,0:0:0:0:
456,83,102734,5,2,0:3:0:0:
316,192,103067,1,0,0:0:0:0:
188,152,103317,1,0,0:0:0:0:
188,152,103401,2,0,P|152:184|132:252,1,95.6250036478044,2|0,0:0|0:0,0:0:0:0:
128,272,103734,2,0,L|168:372,1,95.6250036478044,0|0,0:0|0:0,0:0:0:0:
208,368,104067,5,2,0:0:0:0:
328,308,104317,1,0,0:0:0:0:
328,308,104401,2,0,P|384:280|420:280,1,95.6250036478044
460,280,104734,2,0,P|492:248|496:188,1,95.6250036478044,2|0,0:0|0:0,0:0:0:0:
476,164,105067,1,0,0:0:0:0:
328,164,105317,1,0,0:0:0:0:
328,164,105401,6,0,L|212:180,1,95.6250036478044,2|0,0:3|0:0,0:0:0:0:
188,176,105734,2,0,P|144:144|124:100,1,95.6250036478044
132,64,106067,2,0,B|168:48|204:56|204:56|240:32,1,95.6250036478044,2|0,0:0|0:0,0:0:0:0:
264,24,106401,1,0,0:0:0:0:
396,56,106651,1,0,0:0:0:0:
432,80,106734,6,0,L|436:140,3,31.8750012159348,4|0|0|0,0:3|0:0|0:0|0:0,0:0:0:0:
460,148,107067,2,0,L|464:204,3,31.8750012159348,4|0|0|0,0:3|0:0|0:0|0:0,0:0:0:0:
432,216,107401,2,0,P|424:264|432:316,1,95.6250036478044,2|0,0:0|0:0,0:0:0:0:
452,348,107734,1,0,0:0:0:0:
288,316,107984,1,0,0:0:0:0:
288,316,108067,6,0,P|220:332|184:324,1,95.6250036478044,2|0,0:3|0:0,0:0:0:0:
180,284,108401,2,0,P|132:280|87:295,1,95.6250036478044
56,324,108734,2,0,P|28:280|36:216,1,95.6250036478044,2|0,0:0|0:0,0:0:0:0:
52,200,109067,1,0,0:0:0:0:
164,128,109317,1,0,0:0:0:0:
164,128,109401,6,0,P|224:136|272:120,1,95.6250036478044,2|0,0:0|0:0,0:0:0:0:
300,140,109734,2,0,P|320:104|304:32,1,95.6250036478044
284,20,110067,2,0,L|184:20,1,95.6250036478044,2|0,0:0|0:0,0:0:0:0:
144,32,110401,1,0,0:0:0:0:
32,136,110651,1,0,0:0:0:0:
32,136,110734,6,0,B|72:144|64:192|112:192,1,95.6250036478044,2|0,0:3|0:0,0:0:0:0:
148,208,111067,2,0,P|208:208|236:180,1,95.6250036478044
272,164,111401,2,0,L|376:180,1,95.6250036478044,2|0,0:0|0:0,0:0:0:0:
408,188,111734,2,0,P|444:224|452:276,1,95.6250036478044
440,308,112067,1,4,0:3:0:0:
324,292,112734,1,4,0:3:0:0:
316,296,112901,5,0,0:0:0:0:
308,300,113067,1,0,0:0:0:0:
300,304,113234,1,0,0:0:0:0:
292,308,113401,6,8,P|240:316|172:200,1,187.000005706787,4|8,0:0|0:0,0:0:0:0:
188,128,113901,1,0,0:0:0:0:
268,80,114067,2,0,P|320:72|388:188,1,187.000005706787,0|8,0:0|0:0,0:0:0:0:
312,216,114567,1,0,0:0:0:0:
380,280,114734,2,0,B|448:304|484:260|484:260|492:164,1,187.000005706787,0|8,0:0|0:0,0:0:0:0:
476,96,115234,1,0,0:0:0:0:
384,112,115401,2,0,L|384:236,1,93.5000028533936
292,216,115734,2,0,L|292:340,1,93.5000028533936,8|0,0:0|0:0,0:0:0:0:
176,348,116067,6,0,P|116:352|56:344,1,93.5000028533936
32,272,116401,2,0,P|92:268|152:276,1,93.5000028533936,8|0,0:0|0:0,0:0:0:0:
220,272,116734,2,0,P|256:312|260:364,2,93.5000028533936,0|0|8,0:0|0:0|0:0,0:0:0:0:
164,196,117234,2,0,B|140:152|160:112|160:112|136:76|104:68|60:80,1,187.000005706787
72,172,117734,2,0,L|116:276,1,93.5000028533936,8|0,0:0|0:0,0:0:0:0:
220,272,118067,2,0,L|256:185,1,93.5000028533936
344,156,118401,2,0,B|360:192|336:220|364:272,1,93.5000028533936,8|0,0:0|0:0,0:0:0:0:
428,356,118734,6,0,P|484:356|532:352,1,93.5000028533936
352,328,119067,2,0,P|296:328|248:332,1,93.5000028533936,8|0,0:0|0:0,0:0:0:0:
356,248,119401,2,0,P|412:248|460:244,1,93.5000028533936
280,220,119734,2,0,P|224:220|176:224,1,93.5000028533936,8|0,0:0|0:0,0:0:0:0:
120,288,120067,5,0,0:0:0:0:
20,204,120234,2,0,P|28:132|120:64,2,187.000005706787
112,196,121067,2,0,L|200:140,1,93.5000028533936,8|0,0:0|0:0,0:0:0:0:
276,104,121401,6,0,P|336:92|388:116,2,93.5000028533936,0|0|8,0:0|0:0|0:0,0:0:0:0:
264,196,121901,2,0,P|314:230|333:284,2,93.5000028533936
188,248,122401,2,0,P|197:308|172:359,2,93.5000028533936,8|0|4,0:0|0:0|0:3,0:0:0:0:
104,288,122901,2,0,P|67:337|12:354,2,93.5000028533936,0|4|0,0:0|0:3|0:0,0:0:0:0:
188,248,123401,6,0,P|252:236|368:248,1,170,2|2,0:0|0:0,0:0:0:0:
156,156,124067,6,0,P|201:116|321:129,1,187.000005706787,4|8,0:0|0:0,0:0:0:0:
156,156,124567,2,0,P|163:79|267:16,1,187.000005706787
352,32,125067,1,8,0:0:0:0:
352,32,125234,1,0,0:0:0:0:
256,188,125401,6,0,P|315:191|392:283,1,187.000005706787,0|8,0:0|0:0,0:0:0:0:
256,188,125901,2,0,P|314:138|433:164,1,187.000005706787
483,235,126401,1,8,0:0:0:0:
483,235,126568,1,0,0:0:0:0:
352,324,126734,6,0,P|297:301|256:187,1,187.000005706787,0|8,0:0|0:0,0:0:0:0:
352,324,127234,2,0,P|280:350|177:285,1,187.000005706787
164,180,127734,2,0,P|104:164|68:172,1,93.5000028533936,8|0,0:0|0:0,0:0:0:0:
36,296,128067,5,0,0:0:0:0:
148,368,128234,1,0,0:0:0:0:
100,244,128401,1,8,0:0:0:0:
68,372,128567,1,0,0:0:0:0:
168,288,128734,2,0,P|228:252|240:224,1,93.5000028533936
252,132,129067,1,8,0:0:0:0:
496,40,129401,6,0,P|524:108|512:228,1,187.000005706787,4|8,0:0|0:0,0:0:0:0:
436,272,129901,1,0,0:0:0:0:
316,232,130067,2,0,P|252:212|132:240,1,187.000005706787,0|8,0:0|0:0,0:0:0:0:
76,308,130567,1,0,0:0:0:0:
220,352,130734,6,0,B|288:368|348:332|412:356,1,187.000005706787,0|8,0:0|0:0,0:0:0:0:
500,340,131234,1,0,0:0:0:0:
436,272,131401,2,0,P|428:220|440:172,1,93.5000028533936
508,136,131734,2,0,P|516:181|508:227,1,93.5000028533936,8|0,0:0|0:0,0:0:0:0:
364,292,132067,6,0,P|325:266|304:225,1,93.5000028533936,0|0,0:0|0:0,0:0:0:0:
344,136,132401,2,0,P|316:88|271:66,1,93.5000028533936,8|0,0:0|0:0,0:0:0:0:
256,156,132734,2,0,L|152:224,2,93.5000028533936,0|0|8,0:0|0:0|0:0,0:0:0:0:
120,152,133234,6,0,P|104:244|196:284,1,187.000005706787
268,308,133734,2,0,B|320:304|320:304|360:272,1,93.5000028533936,4|0,0:3|0:0,0:0:0:0:
432,232,134067,2,0,P|456:288|456:344,1,93.5000028533936,4|0,0:3|0:0,0:0:0:0:
432,232,134401,2,0,P|408:176|408:120,1,93.5000028533936,4|0,0:3|0:0,0:0:0:0:
436,60,134734,6,0,P|392:48|304:60,1,127.500004863739,4|0,0:0|0:0,0:0:0:0:
252,104,135234,1,0,0:0:0:0:
308,156,135401,2,0,P|320:200|292:276,1,127.500004863739,8|0,0:3|0:0,0:0:0:0:
224,308,135901,1,0,0:0:0:0:
148,284,136067,6,0,L|84:324,1,63.7500024318696,8|0,0:3|0:0,0:0:0:0:
64,248,136401,2,0,L|0:288,1,63.7500024318696,8|0,0:3|0:0,0:0:0:0:
128,208,136734,2,0,L|182:174,2,63.7500024318696,8|0|0,0:3|0:0|0:0,0:0:0:0:
64,248,137234,1,0,0:0:0:0:
8,196,137401,6,0,P|-8:144|16:64,1,127.500004863739,8|0,0:3|0:0,0:0:0:0:
84,84,137901,1,0,0:0:0:0:
148,40,138067,2,0,B|192:28|232:64|280:40,1,127.500004863739,8|0,0:3|0:0,0:0:0:0:
348,24,138567,6,0,P|388:36|416:132,1,127.500004863739
368,164,139067,1,8,0:3:0:0:
440,188,139234,1,0,0:0:0:0:
327,98,139401,2,0,B|288:112|288:112|264:156|264:156|220:168,1,127.500004863739,8|8,0:3|0:3,0:0:0:0:
152,152,139901,1,0,0:0:0:0:
80,100,140067,6,0,P|64:152|100:224,1,127.500004863739,4|0,0:0|0:0,0:0:0:0:
164,244,140567,1,0,0:0:0:0:
240,232,140734,2,0,P|288:216|376:236,1,127.500004863739,8|0,0:3|0:0,0:0:0:0:
424,276,141234,1,0,0:0:0:0:
352,308,141401,6,0,L|352:372,1,63.7500024318696,8|0,0:3|0:0,0:0:0:0:
276,308,141734,2,0,L|276:372,1,63.7500024318696,8|0,0:3|0:0,0:0:0:0:
200,308,142067,2,0,L|200:372,2,63.7500024318696,8|0|0,0:3|0:0|0:0,0:0:0:0:
164,244,142567,1,0,0:0:0:0:
184,168,142734,6,0,P|212:136|304:128,1,127.500004863739,8|0,0:3|0:0,0:0:0:0:
336,188,143234,1,0,0:0:0:0:
264,208,143401,2,0,L|188:100,1,127.500004863739,8|0,0:3|0:0,0:0:0:0:
116,84,143901,1,0,0:0:0:0:
72,148,144067,6,0,L|72:236,1,63.7500024318696,8|0,0:3|0:0,0:0:0:0:
44,80,144401,2,0,L|0:24,1,63.7500024318696,8|0,0:3|0:0,0:0:0:0:
116,84,144734,2,0,B|152:52|152:52|188:32|248:56,1,127.500004863739,8|4,0:3|0:3,0:0:0:0:
412,144,145401,5,4,0:0:0:0:
412,144,145484,1,0,0:0:0:0:
300,228,145734,2,0,P|288:280|316:340,1,85,8|0,0:0|0:0,0:0:0:0:
388,312,146067,2,0,L|488:312,1,85
436,224,146401,2,0,L|528:224,1,85,8|0,0:0|0:0,0:0:0:0:
484,104,146734,5,0,0:0:0:0:
484,104,146817,1,0,0:0:0:0:
348,72,147067,2,0,B|308:60|276:80|232:68,1,85,8|0,0:0|0:0,0:0:0:0:
220,60,147317,1,0,0:0:0:0:
172,52,147401,2,0,P|124:52|80:88,1,85
151,147,147734,1,8,0:0:0:0:
244,152,147901,5,0,0:0:0:0:
244,152,147984,1,0,0:0:0:0:
244,152,148067,2,0,P|276:184|280:232,1,85
208,304,148401,2,0,L|204:216,1,85,8|0,0:0|0:0,0:0:0:0:
151,147,148734,2,0,L|64:112,1,85
88,208,149067,2,0,L|1:173,1,85,8|0,0:0|0:0,0:0:0:0:
24,268,149401,5,0,0:0:0:0:
9,176,149567,2,0,P|-13:97|44:32,1,170
132,48,150067,2,0,L|224:56,1,85
296,104,150401,1,8,0:0:0:0:
296,104,150567,1,0,0:0:0:0:
296,104,150734,5,0,0:0:0:0:
380,60,150901,2,0,P|428:80|464:208,1,170
384,224,151401,2,0,L|280:224,1,85
344,312,151734,2,0,L|429:312,1,85,8|0,0:0|0:0,0:0:0:0:
504,244,152067,5,0,0:0:0:0:
384,224,152234,2,0,B|324:200|256:216|256:216|204:184,1,170
124,172,152734,1,0,0:0:0:0:
24,200,152901,2,0,P|0:156|28:44,1,170
128,52,153401,5,0,0:0:0:0:
216,20,153567,1,0,0:0:0:0:
296,68,153734,2,0,P|344:72|388:64,1,85,8|0,0:0|0:0,0:0:0:0:
468,104,154067,2,0,B|488:132|488:132|496:160|484:204,1,85
396,172,154401,2,0,B|376:200|376:200|368:228|380:272,1,85,8|0,0:0|0:0,0:0:0:0:
452,304,154734,6,0,L|536:292,1,85,4|0,0:3|0:0,0:0:0:0:
388,348,155067,2,0,L|304:360,1,85,4|0,0:3|0:0,0:0:0:0:
220,316,155401,2,0,P|152:304|36:320,1,170,4|8,0:3|0:0,0:0:0:0:
256,188,156067,5,4,0:0:0:0:
328,128,156234,2,0,L|392:124,5,42.5,0|0|8|0|0|0,0:0|0:0|0:0|0:0|0:0|0:0,0:0:0:0:
416,136,156734,2,0,L|456:212,1,85
416,296,157067,1,8,0:0:0:0:
328,260,157234,1,0,0:0:0:0:
244,300,157401,6,0,P|200:320|160:320,1,85
76,288,157734,1,8,0:0:0:0:
76,288,157901,1,0,0:0:0:0:
104,200,158067,2,0,P|176:188|280:200,1,170,0|8,0:0|0:0,0:0:0:0:
368,80,158734,6,0,L|412:0,2,85,0|0|8,0:0|0:0|0:0,0:0:0:0:
280,112,159234,1,0,0:0:0:0:
200,68,159401,2,0,P|128:48|48:120,1,170,0|8,0:0|0:0,0:0:0:0:
140,144,159901,1,0,0:0:0:0:
192,220,160067,2,0,L|192:316,1,85
280,288,160401,2,0,L|280:203,1,85,8|0,0:0|0:0,0:0:0:0:
280,112,160734,2,0,P|352:92|456:120,1,170,0|2,0:0|2:3,0:0:0:0:
476,296,161401,5,0,0:0:0:0:
412,364,161567,1,0,0:0:0:0:
388,272,161734,1,8,0:0:0:0:
452,204,161901,1,0,0:0:0:0:
484,116,162067,2,0,P|448:48|348:16,1,170,0|8,0:0|0:0,0:0:0:0:
276,48,162567,1,0,0:0:0:0:
168,128,162734,5,0,0:0:0:0:
204,216,162901,1,0,0:0:0:0:
256,140,163067,1,8,0:0:0:0:
296,224,163234,1,0,0:0:0:0:
244,300,163401,2,0,P|288:348|332:352,2,85,0|0|8,0:0|0:0|0:0,0:0:0:0:
112,56,164067,6,0,P|78:138|139:214,1,170,0|8,0:0|0:0,0:0:0:0:
292,140,164734,2,0,L|392:140,1,85
456,192,165067,1,8,0:0:0:0:
312,328,165401,6,0,P|248:324|212:332,1,85,4|0,2:3|0:0,0:0:0:0:
136,352,165734,2,0,P|80:356|44:352,1,85,4|0,2:3|0:0,0:0:0:0:
24,264,166067,1,4,2:3:0:0:
72,184,166234,1,0,0:0:0:0:
164,172,166401,1,8,0:0:0:0:
348,208,166734,6,0,B|400:228|440:208|440:208|524:236,2,170,4|0|0,0:3|0:0|0:0,0:0:0:0:
256,192,167734,12,4,169401,0:0:0:0:
188,228,169734,5,8,0:0:0:0:
96,208,169901,1,0,0:0:0:0:
40,132,170067,2,0,P|40:72|148:16,1,187.000005706787,0|8,0:0|0:0,0:0:0:0:
208,76,170567,1,0,0:0:0:0:
272,144,170734,6,0,B|320:148|352:92|352:92|392:72|440:96,1,187.000005706787,0|8,0:0|0:0,0:0:0:0:
500,160,171234,1,0,0:0:0:0:
440,232,171401,2,0,L|440:336,1,93.5000028533936
360,252,171734,2,0,L|360:356,1,93.5000028533936,8|0,0:0|0:0,0:0:0:0:
268,328,172067,6,0,P|216:320|172:328,1,93.5000028533936
96,244,172401,2,0,P|142:237|187:245,1,93.5000028533936,8|0,0:0|0:0,0:0:0:0:
276,220,172734,2,0,P|304:176|304:132,2,93.5000028533936,0|0|8,0:0|0:0|0:0,0:0:0:0:
200,164,173234,6,0,B|160:92|96:92|96:92|44:124,1,187.000005706787
96,244,173734,2,0,L|208:256,1,93.5000028533936,8|0,0:0|0:0,0:0:0:0:
276,220,174067,1,0,0:0:0:0:
332,144,174234,1,0,0:0:0:0:
384,220,174401,1,8,0:0:0:0:
388,220,174567,1,0,0:0:0:0:
328,320,174734,6,0,L|224:320,1,93.5000028533936
392,364,175067,2,0,L|485:364,1,93.5000028533936,8|0,0:0|0:0,0:0:0:0:
488,268,175401,2,0,L|394:268,1,93.5000028533936
260,208,175734,2,0,L|353:208,1,93.5000028533936,8|0,0:0|0:0,0:0:0:0:
436,168,176067,5,0,0:0:0:0:
480,60,176234,2,0,B|448:0|364:16|364:16|316:60,2,187.000005706787
396,96,177067,2,0,P|356:132|296:128,1,93.5000028533936,8|0,0:0|0:0,0:0:0:0:
240,84,177401,6,0,P|192:60|128:80,2,93.5000028533936,0|0|8,0:0|0:0|0:0,0:0:0:0:
232,176,177901,2,0,P|201:220|212:286,2,93.5000028533936
308,232,178401,2,0,P|338:276|327:342,2,93.5000028533936,8|0|4,0:0|0:0|0:3,0:0:0:0:
260,312,178901,2,0,P|224:352|157:357,2,93.5000028533936,0|4|0,0:0|0:3|0:0,0:0:0:0:
308,232,179401,6,0,B|336:164|284:132|312:60,1,170,2|2,0:0|0:0,0:0:0:0:
128,32,180067,6,0,P|72:64|72:176,1,187.000005706787,4|8,0:0|0:0,0:0:0:0:
168,212,180567,2,0,P|224:180|224:68,1,187.000005706787
148,120,181067,1,8,0:0:0:0:
148,120,181234,1,0,0:0:0:0:
218,275,181401,6,0,P|289:328|371:293,1,187.000005706787,0|8,0:0|0:0,0:0:0:0:
384,192,181901,2,0,P|312:138|230:173,1,187.000005706787
298,232,182401,1,8,0:0:0:0:
298,232,182568,1,0,0:0:0:0:
487,204,182734,6,0,P|540:133|505:51,1,187.000005706787,0|8,0:0|0:0,0:0:0:0:
404,38,183234,2,0,P|350:110|385:192,1,187.000005706787
420,280,183734,2,0,L|336:348,1,93.5000028533936,8|0,0:0|0:0,0:0:0:0:
232,300,184067,5,0,0:0:0:0:
112,320,184234,1,0,0:0:0:0:
196,232,184401,1,8,0:0:0:0:
180,352,184567,1,0,0:0:0:0:
120,244,184734,2,0,P|96:200|100:136,1,93.5000028533936
148,80,185067,1,8,0:0:0:0:
396,64,185401,6,0,P|448:96|456:228,1,187.000005706787,4|8,0:0|0:0,0:0:0:0:
436,304,185901,1,0,0:0:0:0:
348,276,186067,2,0,P|278:217|279:127,1,187.000005706787,0|8,0:0|0:0,0:0:0:0:
240,40,186567,1,0,0:0:0:0:
148,56,186734,6,0,B|76:88|80:148|80:148|108:200|84:248,1,187.000005706787,0|8,0:0|0:0,0:0:0:0:
48,292,187234,1,0,0:0:0:0:
132,336,187401,2,0,L|248:368,1,93.5000028533936
260,276,187734,2,0,L|368:324,1,93.5000028533936,8|0,0:0|0:0,0:0:0:0:
424,264,188067,6,0,L|424:156,1,93.5000028533936
480,96,188401,2,0,P|448:48|380:32,1,93.5000028533936,8|0,0:0|0:0,0:0:0:0:
332,68,188734,2,0,P|273:27|254:-33,2,93.5000028533936,0|0|8,0:0|0:0|0:0,0:0:0:0:
352,160,189234,6,0,B|304:188|316:256|316:256|224:232,1,187.000005706787
160,188,189734,2,0,L|136:96,1,93.5000028533936,4|0,0:3|0:0,0:0:0:0:
60,44,190067,1,4,0:3:0:0:
4,116,190234,1,0,0:0:0:0:
136,97,190401,2,0,L|232:48,1,93.5000028533936,4|0,0:3|0:0,0:0:0:0:
312,68,190734,6,0,P|368:72|408:60,1,85,2|0,0:0|0:0,0:0:0:0:
484,32,191067,2,0,P|500:88|488:204,1,170,8|8,0:0|0:0,0:0:0:0:
416,256,191567,1,8,0:0:0:0:
340,204,191734,2,2,P|304:184|172:208,1,170,10|0,0:0|0:0,1:0:0:0:
256,288,192234,1,8,0:0:0:0:
256,288,192317,1,8,0:0:0:0:
256,288,192401,2,0,P|296:328|340:332,1,85,8|8,0:0|0:0,0:0:0:0:
412,352,192734,1,8,0:0:0:0:
504,248,192901,5,4,0:3:0:0:
504,236,193067,1,4,0:3:0:0:
504,224,193234,1,4,0:3:0:0:
504,212,193401,6,0,P|500:160|392:104,1,170,4|8,0:0|0:0,0:0:0:0:
340,168,193901,1,0,0:0:0:0:
340,168,193984,1,0,0:0:0:0:
340,168,194067,2,0,P|284:176|240:160,1,85
212,88,194401,2,0,P|144:80|56:160,1,170,8|0,0:0|0:0,0:0:0:0:
80,228,194901,5,0,0:0:0:0:
80,228,194984,1,0,0:0:0:0:
80,228,195067,2,0,B|88:276|88:276|76:328,1,85,8|0,0:0|0:0,0:0:0:0:
0,280,195401,2,0,B|-8:232|-8:232|4:180,1,85
65,138,195734,2,0,P|132:134|173:148,1,85,8|0,0:0|0:0,0:0:0:0:
260,200,196067,6,0,B|332:232|388:204|388:204|400:156,1,170,0|8,0:0|0:0,0:0:0:0:
380,76,196567,1,0,0:0:0:0:
380,76,196651,1,0,0:0:0:0:
380,76,196734,2,0,P|328:68|284:80,1,85
212,116,197067,1,8,0:0:0:0:
168,196,197234,1,0,0:0:0:0:
168,196,197317,1,0,0:0:0:0:
168,196,197401,6,0,L|168:296,1,85
260,200,197734,2,0,L|260:115,1,85,8|0,0:0|0:0,0:0:0:0:
308,36,198067,2,0,L|368:32,3,42.5
396,48,198401,2,0,P|436:72|456:124,1,85,8|0,0:0|0:0,0:0:0:0:
460,236,198734,6,0,P|424:300|320:312,1,170,0|8,0:0|0:0,0:0:0:0:
364,224,199234,1,0,0:0:0:0:
364,224,199317,1,0,0:0:0:0:
364,224,199401,2,0,L|264:216,1,85
212,152,199734,2,0,L|104:160,1,85,8|0,0:0|0:0,0:0:0:0:
36,136,200067,6,0,P|44:200|68:232,1,85
127,159,200401,2,0,P|119:95|95:63,1,85,8|0,0:0|0:0,0:0:0:0:
176,12,200734,2,0,P|224:16|272:8,1,85
360,92,201067,2,0,P|312:88|264:96,1,85,8|0,0:0|0:0,0:0:0:0:
176,220,201401,6,0,P|204:272|336:284,1,170,0|8,0:0|0:0,0:0:0:0:
376,236,201901,1,0,0:0:0:0:
376,236,201984,1,0,0:0:0:0:
376,236,202067,2,0,P|424:272|432:312,1,85
361,356,202401,2,0,P|313:320|305:280,1,85,8|0,0:0|0:0,0:0:0:0:
300,176,202734,6,0,L|300:76,1,85,4|0,0:3|0:0,0:0:0:0:
388,20,203067,2,0,L|388:105,1,85,4|0,0:3|0:0,0:0:0:0:
312,16,203401,2,0,L|227:16,1,85,4|0,0:3|0:0,0:0:0:0:
108,88,203734,2,0,L|193:88,1,85,4|0,0:3|0:0,0:0:0:0:
300,176,204067,6,0,P|328:256|292:344,1,170,4|8,0:0|0:0,0:0:0:0:
236,256,204567,1,0,0:0:0:0:
232,256,204651,1,0,0:0:0:0:
228,256,204734,2,0,P|192:192|196:156,1,85
228,92,205067,2,0,P|272:68|316:68,1,85,8|0,0:0|0:0,0:0:0:0:
384,120,205401,6,0,L|464:172,1,85
456,260,205734,2,0,L|376:312,1,85,8|0,0:0|0:0,0:0:0:0:
300,348,206067,2,0,P|248:360|216:348,2,85,0|0|8,0:0|0:0|0:0,0:0:0:0:
308,256,206567,1,0,0:0:0:0:
220,220,206734,6,0,P|168:216|124:232,1,85
60,344,207067,2,0,P|80:284|72:240,1,85,8|0,0:0|0:0,0:0:0:0:
24,164,207401,2,0,P|4:224|12:268,1,85
60,344,207734,1,8,0:0:0:0:
152,324,207901,1,0,0:0:0:0:
152,324,207984,1,0,0:0:0:0:
152,324,208067,6,0,P|212:320|256:328,1,85
320,364,208401,1,8,0:0:0:0:
380,296,208567,1,0,0:0:0:0:
328,216,208734,2,0,P|316:164|340:104,1,85
428,136,209067,2,0,P|440:188|416:248,1,85,8|0,0:0|0:0,0:0:0:0:
296,288,209401,6,0,B|248:264|240:212|260:176|260:176|229:132,1,170,0|8,0:0|0:0,0:0:0:0:
176,72,209901,1,0,0:0:0:0:
84,88,210067,2,0,P|64:152|88:192,1,85
124,240,210401,1,8,0:0:0:0:
60,308,210567,1,0,0:0:0:0:
144,352,210734,5,0,0:0:0:0:
232,324,210901,1,0,0:0:0:0:
232,324,210984,1,0,0:0:0:0:
232,324,211067,2,0,P|284:316|320:328,1,85,8|0,0:0|0:0,0:0:0:0:
408,332,211401,2,0,P|420:288|412:244,1,85
320,192,211734,2,0,L|224:192,1,85,8|0,0:0|0:0,0:0:0:0:
136,224,212067,6,0,B|90:269|23:239|2:191|14:117|95:90|134:154|134:154|202:45|202:45|101:36,1,510,4|8,0:3|0:0,0:0:0:0:
213,52,213234,2,0,L|264:126,1,85,0|4,0:0|0:3,0:0:0:0:
256,192,213567,12,2,214401,0:0:0:0:
