osu file format v14

[General]
AudioFilename: Danshi.mp3
AudioLeadIn: 0
PreviewTime: 169385
Countdown: 0
SampleSet: Normal
StackLeniency: 0.7
Mode: 0
LetterboxInBreaks: 1
EpilepsyWarning: 1
WidescreenStoryboard: 1

[Editor]
DistanceSpacing: 1.3
BeatDivisor: 4
GridSize: 8
TimelineZoom: 1

[Metadata]
Title:+Danshi
TitleUnicode:+♂
Artist:Reol
ArtistUnicode:れをる
Creator:Sognux
Version:Normal
Source:
Tags:Kagamine Len Vocaloid Cover Giga GigaP Giga-P Sirade Prophecy hydrosilver agu Razorflamekun Negri_sk plus boy male
BeatmapID:443283
BeatmapSetID:180906

[Difficulty]
HPDrainRate:2.6
CircleSize:2.5
OverallDifficulty:2.7
ApproachRate:3.6
SliderMultiplier:1.4
SliderTickRate:2

[Events]
//Background and Video events
Video,0,"pipipi.avi"
0,0,"+danishxd.png",0,0
//Break Periods
2,48252,56017
//Storyboard Layer 0 (Background)
//Storyboard Layer 1 (Fail)
//Storyboard Layer 2 (Pass)
//Storyboard Layer 3 (Foreground)
//Storyboard Sound Samples

[TimingPoints]
13386,333.333333333333,4,2,0,50,1,0
13386,-200,4,2,0,50,0,0
14552,-200,4,1,0,50,0,0
25386,-200,4,1,0,75,0,0
28052,-200,4,2,0,50,0,0
30719,-200,4,1,0,50,0,0
47885,-200,4,1,0,75,0,0
57385,-133.333333333333,4,1,0,70,0,1
67385,-133.333333333333,4,1,0,75,0,0
68052,-133.333333333333,4,1,0,70,0,1
78885,-200,4,1,0,50,0,0
102719,-200,4,2,0,50,0,0
113385,-133.333333333333,4,1,0,70,0,1
134719,-200,4,3,0,75,0,0
145386,-133.333333333333,4,1,0,50,0,0
169385,-133.333333333333,4,1,0,70,0,1
179385,-111.111111111111,4,1,0,70,0,0
179719,-100,4,1,0,70,0,1
192719,-100,4,1,0,70,0,0

[Colours]
Combo1 : 255,255,0
Combo2 : 0,191,244
Combo3 : 40,255,30
Combo4 : 255,0,0

[HitObjects]
88,80,13386,5,0,0:0:0:0:
192,56,13719,1,0,0:0:0:0:
296,40,14052,2,0,P|344:40|360:48,2,35,0|0|4,0:0|0:0|0:0,0:0:0:0:
256,136,14719,1,4,0:0:0:0:
256,240,15052,1,0,0:0:0:0:
352,192,15386,2,0,B|384:160|384:160|376:112,1,70
296,72,16052,2,8,P|296:32|296:16,2,35
200,112,16719,1,0,0:0:0:0:
136,192,17052,1,4,0:0:0:0:
264,256,17386,6,0,P|280:216|264:160,1,70
264,88,18052,2,4,P|312:88|352:120,1,70
368,200,18719,2,0,P|416:160|432:128,1,70
392,56,19386,1,8,0:0:0:0:
344,32,19552,1,8,0:0:0:0:
296,24,19719,1,8,0:0:0:0:
312,128,20052,1,0,0:0:0:0:
248,208,20386,6,0,P|256:256|256:296,1,70
160,232,21052,2,0,P|160:184|168:152,1,70
224,72,21719,1,0,0:0:0:0:
328,88,22052,1,0,0:0:0:0:
344,192,22386,2,8,P|400:184|424:176,2,70
224,72,24886,5,8,0:0:0:0:
280,72,25052,5,8,0:0:0:0:
336,72,25219,5,8,0:0:0:0:
392,72,25386,6,0,P|400:120|384:160,1,70
312,224,26052,1,0,0:0:0:0:
208,224,26386,1,0,0:0:0:0:
216,120,26719,2,8,B|224:80|224:80|200:48,2,70
112,136,27719,1,0,0:0:0:0:
144,232,28052,6,0,P|168:264|200:288,1,70
240,184,28719,2,0,P|240:144|256:104,1,70
352,152,29385,2,0,P|360:80|352:64,1,70
272,24,30052,1,0,0:0:0:0:
176,64,30385,1,4,0:0:0:0:
224,160,30719,5,8,0:0:0:0:
160,248,31052,1,8,0:0:0:0:
264,264,31385,2,2,P|240:320|208:344,1,70
160,256,32052,2,0,P|139:284|130:317,2,70
264,224,33052,1,0,0:0:0:0:
264,120,33385,5,4,0:0:0:0:
264,72,33719,1,4,0:0:0:0:
264,24,34052,1,4,0:0:0:0:
352,80,34385,2,0,P|392:80|440:80,2,70
376,184,35385,1,2,0:0:0:0:
304,264,35719,1,4,0:0:0:0:
248,176,36052,6,2,P|216:136|184:104,1,70
96,120,36719,1,0,0:0:0:0:
96,224,37052,1,0,0:0:0:0:
184,280,37385,2,8,B|240:272|240:272|264:304,2,70
224,184,38385,1,0,0:0:0:0:
232,80,38719,6,0,B|192:80|192:80|104:160,1,140,0|8,0:0|0:0,0:0:0:0:
112,256,39719,1,0,0:0:0:0:
192,192,40052,2,0,B|224:160|224:160|328:160,1,140,0|8,0:0|0:0,0:0:0:0:
424,160,41052,1,8,0:0:0:0:
352,240,41385,2,0,P|368:296|384:320,2,70,8|8|4,0:0|0:0|0:0,0:0:0:0:
248,248,42385,1,0,0:0:0:0:
224,144,42719,6,0,B|304:72|304:72|360:80,1,140,0|8,0:0|0:0,0:0:0:0:
312,176,43719,1,8,0:0:0:0:
232,248,44052,2,0,B|192:264|168:256|168:256|152:240|128:248|128:248|104:200,1,140
128,120,45052,1,0,0:0:0:0:
224,72,45385,2,0,B|296:48|296:48|336:64|336:64|336:104,1,140
264,160,46385,1,0,0:0:0:0:
288,264,46719,2,0,B|344:272|360:256|352:184|352:184|424:192|432:168|424:80,1,280,0|4,0:0|0:0,0:0:0:0:
128,96,57385,5,0,0:0:0:0:
120,224,57719,2,0,P|160:264|208:280,1,105.000004005432
224,152,58385,2,8,P|248:96|296:64,2,105.000004005432
352,168,59385,1,0,0:0:0:0:
464,216,59719,1,0,0:0:0:0:
352,280,60052,2,0,P|256:248|152:288,1,210.000008010865
64,192,61052,1,0,0:0:0:0:
152,104,61385,1,0,0:0:0:0:
224,208,61719,2,0,P|288:256|304:280,1,105.000004005432
392,184,62385,2,0,P|336:152|304:120,1,105.000004005432
208,48,63052,5,12,0:0:0:0:
120,144,63385,1,12,0:0:0:0:
192,248,63719,2,4,B|240:296|240:296|192:352,2,105.000004005432
112,144,64719,1,8,0:0:0:0:
208,56,65052,1,8,0:0:0:0:
336,72,65385,6,2,B|368:128|288:144|360:176|328:208|328:208|280:240|280:240|256:280|256:280,1,210.000008010865
160,304,66385,2,2,B|96:264|96:264|104:224|80:200|88:176|112:112|112:112|168:88|208:136,1,315.000012016297
304,176,67719,5,8,0:0:0:0:
400,200,68052,2,0,B|392:128|392:128|360:88,1,105.000004005432
344,96,68552,2,0,B|304:104|304:104|304:152|304:152|312:184|312:184|320:216|304:240,1,157.500006008148
208,288,69385,2,0,B|136:280|136:280|120:264|120:264|128:224,1,105.000004005432
128,232,69885,2,0,B|136:176|136:176|104:128|104:128|144:88|144:88,1,157.500006008148
264,112,70719,2,0,B|256:144|256:144|280:176|280:176|264:248,1,105.000004005432
272,232,71219,2,0,B|312:280|312:280|368:256|368:224|368:224|392:200|392:200|384:176|384:176,1,157.500006008148
376,88,72052,6,2,P|288:32|176:40,1,210.000008010865
144,160,73052,1,8,0:0:0:0:
272,160,73385,2,0,P|248:240|200:264,1,105.000004005432
112,264,74052,1,8,0:0:0:0:
232,304,74385,2,0,P|304:304|336:296,1,105.000004005432
352,168,75052,1,8,0:0:0:0:
304,48,75385,2,0,B|240:80|192:88|192:88,1,105.000004005432
120,176,76052,2,2,B|184:192|184:192|144:232|144:296|176:336,1,210.000008010865
280,272,77052,1,4,0:0:0:0:
368,184,77385,2,0,B|368:128|368:128|328:96|328:96|280:136|280:136|216:96|192:136|192:136|152:128|120:128|120:128|120:72|72:72|72:72,1,420.000016021729,0|4,0:0|0:0,0:0:0:0:
152,112,80885,6,8,L|144:160,2,35
176,72,81385,2,0,P|208:56|272:56,1,70
336,24,82052,2,0,P|336:88|320:112,1,70
280,176,82719,1,0,0:0:0:0:
344,248,83052,1,0,0:0:0:0:
264,304,83385,2,2,P|224:320|184:312,1,70
144,232,84052,1,0,0:0:0:0:
128,136,84385,1,0,0:0:0:0:
192,64,84719,2,0,L|264:104,1,70
296,184,85385,1,0,0:0:0:0:
368,120,85719,2,8,P|392:72|392:32,2,70,8|8|4,0:0|0:0|0:0,0:0:0:0:
296,192,86719,6,2,P|232:224|176:288,1,140
88,264,87719,1,0,0:0:0:0:
64,168,88052,1,0,0:0:0:0:
160,184,88385,2,0,P|200:208|224:248,2,70
64,176,89385,2,0,P|88:120|120:96,1,70
184,72,90052,1,0,0:0:0:0:
280,56,90385,1,0,0:0:0:0:
376,88,90719,2,2,P|384:160|376:232,1,140
296,280,91719,1,0,0:0:0:0:
296,184,92052,5,0,0:0:0:0:
272,88,92385,2,0,L|208:48,1,70
136,120,93052,2,0,L|120:152,1,35,8|0,0:0|0:0,0:0:0:0:
144,192,93385,2,0,P|184:208|200:240,2,70
128,288,94385,2,8,L|168:328,1,35
200,304,94719,2,0,P|240:288|272:272,1,70
296,184,95385,1,0,0:0:0:0:
368,248,95719,1,0,0:0:0:0:
424,168,96052,1,0,0:0:0:0:
360,88,96385,2,0,P|320:64|280:64,1,70
296,160,97052,1,0,0:0:0:0:
224,96,97385,6,2,P|184:80|144:80,1,70
136,176,98052,1,0,0:0:0:0:
208,240,98385,2,0,P|232:176|232:160,1,70
224,80,99052,2,0,P|288:40|368:40,1,140,0|8,0:0|0:0,0:0:0:0:
376,128,100052,2,0,P|424:112|448:88,2,70
288,168,101052,1,0,0:0:0:0:
224,240,101385,1,0,0:0:0:0:
160,168,101719,2,0,L|128:104,1,70,8|8,0:0|0:0,0:0:0:0:
224,96,102385,1,0,0:0:0:0:
312,64,102719,6,2,P|392:104|400:176,1,140,2|4,0:0|0:0,0:0:0:0:
328,208,103719,2,0,L|280:144,1,70
224,224,104385,2,0,L|152:280,1,70
136,176,105052,2,0,B|128:128|152:104|184:80|224:96,1,140
296,152,106052,2,0,P|312:112|312:80,1,70
392,144,106719,2,8,P|408:88|408:64,2,70
360,240,107719,1,0,0:0:0:0:
280,272,108052,6,2,B|216:272|216:272|168:248|168:248|176:200,1,140
248,184,109052,1,0,0:0:0:0:
192,104,109385,2,0,P|224:56|264:48,1,70
328,88,110052,2,0,L|392:128,1,70
312,184,110719,1,0,0:0:0:0:
256,120,111052,2,0,B|224:80|224:80|184:136|160:184|232:184|208:232,1,210,0|4,0:0|0:0,0:0:0:0:
384,64,113385,6,2,P|416:120|424:184,1,105.000004005432
296,144,114052,1,0,0:0:0:0:
200,64,114385,1,0,0:0:0:0:
152,184,114719,2,2,P|120:232|104:280,1,105.000004005432
224,320,115385,2,8,P|264:256|272:200,1,105.000004005432
224,112,116052,1,0,0:0:0:0:
336,64,116385,1,0,0:0:0:0:
432,144,116719,1,0,0:0:0:0:
440,272,117052,6,2,B|344:256|320:208|320:208,1,105.000004005432
256,144,117719,2,0,P|208:96|144:80,2,105.000004005432
152,216,118719,1,8,0:0:0:0:
240,312,119052,1,8,0:0:0:0:
280,192,119385,1,8,0:0:0:0:
152,208,119719,1,8,0:0:0:0:
232,304,120052,6,0,P|304:288|336:248,1,105.000004005432,8|0,0:0|0:0,0:0:0:0:
328,240,120552,2,2,B|328:184|328:184|368:144|368:144|368:96,1,157.500006008148
248,64,121385,2,4,B|136:64|136:64|152:144|152:144|120:192|120:192,1,210.000008010865
136,280,122385,2,4,B|224:264|224:264|248:240|248:240|304:280|304:280|320:232|320:232,1,210.000008010865
312,136,123385,1,4,0:0:0:0:
112,96,123719,5,0,0:0:0:0:
120,224,124052,2,8,P|200:224|264:240,2,105.000004005432
168,344,125052,1,0,0:0:0:0:
288,312,125385,2,8,P|352:288|384:256,2,105.000004005432
280,184,126385,1,0,0:0:0:0:
224,72,126719,2,8,P|152:56|104:64,2,105.000004005432
160,184,127719,1,0,0:0:0:0:
288,176,128052,2,2,B|320:144|320:144|384:144|384:144|384:200|384:200|344:240,1,210.000008010865
224,256,129052,2,0,P|184:192|184:120,1,105.000004005432
296,176,129719,6,0,P|328:248|296:312,1,105.000004005432
208,312,130385,1,8,0:0:0:0:
88,320,130719,1,8,0:0:0:0:
112,208,131052,2,0,P|112:120|144:88,1,105.000004005432
240,72,131719,1,0,0:0:0:0:
256,200,132052,2,0,B|304:248|304:248|368:248|368:200|440:176,1,210.000008010865
336,88,133052,1,0,0:0:0:0:
208,96,133385,2,0,B|168:136|168:136|176:192|96:240|128:288,1,210.000008010865
240,320,134385,1,0,0:0:0:0:
376,272,134719,6,8,B|384:208|384:176|384:176|344:160,1,140
256,144,135719,1,2,0:0:0:0:
176,104,136052,2,8,B|176:48|176:48|280:48,1,140
336,96,137052,1,2,0:0:0:0:
376,176,137385,2,8,B|360:224|360:224|248:256,1,140
192,208,138385,1,8,0:0:0:0:
224,120,138719,6,2,B|296:136|368:112|440:136,1,210
432,224,140052,2,8,B|424:264|424:264|344:336,1,140
280,272,141052,1,4,0:0:0:0:
200,224,141385,2,8,B|168:152|168:152|240:128,1,140
184,56,142385,1,4,0:0:0:0:
96,72,142719,2,8,B|80:144|80:144|104:208,1,140
184,160,143719,1,4,0:0:0:0:
264,128,144052,2,8,B|304:88|384:96|424:136|424:192,1,210,8|12,0:0|0:0,0:0:0:0:
208,248,145385,6,0,P|168:216|160:184,1,70
168,88,146052,1,0,0:0:0:0:
280,112,146385,1,0,0:0:0:0:
368,184,146719,2,2,P|400:128|392:80,1,105.000004005432
288,40,147385,2,0,B|256:56|248:72|248:72|240:56|200:40,1,105.000004005432
175,151,148052,2,2,B|245:162|245:162|263:191|287:183,1,105.000004005432
384,208,148719,2,0,P|368:256|304:296,1,105.000004005432
208,296,149385,1,0,0:0:0:0:
271,184,149719,1,0,0:0:0:0:
272,72,150052,1,0,0:0:0:0:
168,120,150385,2,8,P|128:144|104:160,2,52.5000020027161,8|8|4,0:0|0:0|0:0,0:0:0:0:
304,296,151385,6,8,B|304:256|336:248|304:240|304:192,1,105.000004005432
296,80,152052,2,0,B|248:112|224:136|224:168,1,105.000004005432
184,264,152719,2,0,B|144:208|128:176|136:152,1,105.000004005432
184,72,153385,2,0,B|232:48|232:48|264:96,1,105.000004005432
360,152,154052,1,0,0:0:0:0:
456,88,154385,1,0,0:0:0:0:
464,200,154719,2,0,B|432:264|432:264|400:288|400:288|360:264|288:264,1,210.000008010865,0|4,0:0|0:0,0:0:0:0:
192,264,155719,1,2,0:0:0:0:
120,112,156052,6,0,B|152:96|152:96|176:80|176:80|208:96|240:96|248:80|264:64|312:80|328:80,1,210.000008010865
288,192,157052,1,0,0:0:0:0:
176,216,157385,2,0,P|216:280|256:304,2,105.000004005432
168,112,158719,2,0,P|216:72|264:64,1,105.000004005432
368,64,159385,2,0,P|424:80|464:128,1,105.000004005432
376,200,160052,2,0,B|328:224|328:224|320:256|320:256|288:288|288:288|240:272|240:272|224:232|224:232,1,210.000008010865
208,136,161052,1,8,0:0:0:0:
320,112,161385,6,0,P|384:96|424:104,2,105.000004005432
208,136,162385,1,8,0:0:0:0:
128,216,162719,2,0,P|96:264|32:280,2,105.000004005432
176,112,163719,1,8,0:0:0:0:
288,120,164052,2,8,L|344:120,2,52.5000020027161
208,200,164719,1,0,0:0:0:0:
296,280,165052,1,0,0:0:0:0:
376,200,165385,1,0,0:0:0:0:
336,88,165719,6,2,P|288:72|224:80,1,105.000004005432
128,128,166385,2,2,P|160:168|216:184,1,105.000004005432,2|6,0:0|0:0,0:0:0:0:
120,88,169385,6,2,P|96:144|88:208,1,105.000004005432
232,176,170052,1,0,0:0:0:0:
352,176,170385,1,0,0:0:0:0:
480,240,170719,2,2,P|432:296|384:312,1,105.000004005432
320,240,171385,2,0,B|296:200|296:200|328:176|328:176|312:136,1,105.000004005432
216,112,172052,5,8,0:0:0:0:
152,232,172385,1,8,0:0:0:0:
272,216,172719,1,8,0:0:0:0:
304,104,173052,2,0,P|360:152|384:200,1,105.000004005432
296,272,173719,1,0,0:0:0:0:
176,304,174052,1,0,0:0:0:0:
200,176,174385,1,4,0:0:0:0:
231,87,174719,6,2,B|231:143|231:143|199:151|199:183,1,105.000004005432
208,296,175385,1,4,0:0:0:0:
368,248,175719,1,4,0:0:0:0:
328,136,176052,2,2,B|280:80|280:80|240:80,1,105.000004005432
112,96,176719,1,0,0:0:0:0:
176,216,177052,1,0,0:0:0:0:
296,144,177385,2,8,P|352:96|400:80,2,105.000004005432
440,216,178385,2,2,B|400:216|400:216|368:248|368:248|336:248,1,105.000004005432
240,312,179052,2,2,P|208:256|232:208,1,105.000004005432,2|4,0:0|0:0,0:0:0:0:
116,67,179719,6,0,B|196:67|196:67|220:83|220:83|260:83,1,140
360,136,180385,2,8,L|432:120,2,70
264,240,181052,1,0,0:0:0:0:
160,144,181385,2,2,B|208:120|208:120|216:88|216:88|280:72,1,140
256,248,182052,1,8,0:1:0:0:
160,144,182385,2,8,L|96:104,2,70
320,88,183052,2,2,P|360:152|312:184,1,140
144,128,183719,1,12,0:0:0:0:
64,264,184052,6,4,B|136:304|136:304|168:288|168:256|200:240|248:232|248:232|264:248|304:264,1,280
384,208,185052,1,8,0:0:0:0:
344,112,185385,2,0,P|272:72|200:64,1,140
104,128,186052,1,8,0:0:0:0:
80,240,186385,2,0,B|128:264|128:264|136:248|176:240|208:256,1,140
320,312,187052,1,8,0:0:0:0:
440,264,187385,2,0,P|448:216|448:184,2,70
352,184,188052,6,2,P|296:64|160:96,1,280
248,168,189052,1,4,0:0:0:0:
144,152,189385,2,2,P|200:272|336:240,1,280
264,104,190385,1,0,0:0:0:0:
144,96,190719,2,0,B|112:168|112:168|128:192|128:192|120:224,1,140
184,296,191385,2,0,P|232:312|264:312,2,70
224,176,192052,5,8,0:0:0:0:
336,56,192385,1,8,0:0:0:0:
432,208,192719,1,8,0:0:0:0:
