osu file format v14

[General]
AudioFilename: Danshi.mp3
AudioLeadIn: 0
PreviewTime: 56053
Countdown: 0
SampleSet: Normal
StackLeniency: 0.7
Mode: 0
LetterboxInBreaks: 1
EpilepsyWarning: 1
WidescreenStoryboard: 1

[Editor]
DistanceSpacing: 1.3
BeatDivisor: 4
GridSize: 8
TimelineZoom: 1

[Metadata]
Title:+Danshi
TitleUnicode:+♂
Artist:Reol
ArtistUnicode:れをる
Creator:Sognux
Version:Hard OLD
Source:
Tags:Kagamine Len Vocaloid Cover Giga GigaP Giga-P Sirade Prophecy hydrosilver agu Razorflamekun Negri_sk plus boy male
BeatmapID:442080
BeatmapSetID:180906

[Difficulty]
HPDrainRate:5.3
CircleSize:4
OverallDifficulty:5
ApproachRate:8
SliderMultiplier:1.4
SliderTickRate:2

[Events]
//Background and Video events
Video,0,"pipipi.avi"
0,0,"+danishxd.png",0,0
//Break Periods
2,48586,56136
2,78919,80136
2,102919,112136
2,134919,144636
2,165419,167469
//Storyboard Layer 0 (Background)
//Storyboard Layer 1 (Fail)
//Storyboard Layer 2 (Pass)
//Storyboard Layer 3 (Foreground)
//Storyboard Sound Samples

[TimingPoints]
13386,333.333333333333,4,1,0,100,1,0
57385,-66.6666666666667,4,1,0,100,0,1
78885,-66.6666666666667,4,1,0,100,0,0
102041,-200,4,1,0,100,0,0
102957,-66.6666666666667,4,1,0,100,0,0
112885,-66.6666666666667,4,1,0,100,0,1
134719,-66.6666666666667,4,1,0,100,0,0
145374,-86.9565217391304,4,1,0,100,0,0
156053,-66.6666666666667,4,1,0,100,0,0
169385,-66.6666666666667,4,1,0,100,0,1
179374,-57.1428571428571,4,1,0,100,0,1
179702,-66.6666666666667,4,1,0,100,0,1
192719,-66.6666666666667,4,1,0,100,0,0

[Colours]
Combo1 : 255,255,0
Combo2 : 0,191,244
Combo3 : 40,255,30
Combo4 : 255,0,0

[HitObjects]
240,40,13386,6,8,B|176:40|152:48|128:72|112:96,1,140
88,136,13886,1,0,0:0:0:0:
160,160,14052,2,0,P|168:208|168:240,2,70
192,96,14719,1,8,0:0:0:0:
240,80,14886,1,8,0:0:0:0:
280,64,15053,1,12,0:0:0:0:
432,104,15386,2,0,P|424:152|400:176,1,70
296,232,15886,1,0,0:0:0:0:
248,232,16053,6,2,B|192:224|160:192|144:136,2,140
328,232,16886,1,0,0:0:0:0:
400,208,17052,2,0,P|432:176|432:144,1,70
392,88,17386,2,8,B|360:48|328:48|288:48|256:64|248:64,1,140
192,88,17886,1,0,0:0:0:0:
120,112,18052,6,0,P|80:104|48:104,2,70
160,184,18553,1,0,0:0:0:0:
160,184,18636,1,0,0:0:0:0:
160,184,18719,1,0,0:0:0:0:
184,256,18886,2,0,P|208:296|232:312,1,70
304,296,19219,1,0,0:0:0:0:
360,240,19386,1,0,0:0:0:0:
400,176,19552,1,0,0:0:0:0:
448,112,19719,2,0,P|464:80|464:40,1,70
392,32,20053,6,8,P|352:24|248:40,1,140
144,136,20719,1,0,0:0:0:0:
160,184,20886,1,0,0:0:0:0:
176,232,21053,1,0,0:0:0:0:
272,232,21386,2,2,B|336:232|360:208|392:192|416:152,3,140
448,96,22719,1,0,0:0:0:0:
400,96,22886,1,0,0:0:0:0:
352,96,23053,1,0,0:0:0:0:
256,192,23219,12,0,24052,0:0:0:0:
152,96,24219,6,0,P|112:64|88:48,2,70
216,136,24719,1,0,0:0:0:0:
288,160,24886,2,0,L|320:112|336:88,2,70
240,224,25386,6,2,P|192:240|96:216,1,140
48,88,26053,1,0,0:0:0:0:
136,64,26219,2,0,P|168:40|216:24,2,70
120,152,26719,1,0,0:0:0:0:
200,192,26886,1,0,0:0:0:0:
264,128,27052,2,0,P|296:96|392:72,1,140
456,128,27552,1,0,0:0:0:0:
408,208,27719,1,0,0:0:0:0:
360,280,27885,6,0,P|416:312|440:320,2,70
296,216,28385,2,0,P|240:200|200:192,1,70
176,120,28719,1,0,0:0:0:0:
88,120,28885,1,0,0:0:0:0:
88,208,29052,1,0,0:0:0:0:
128,288,29219,2,0,P|168:312|192:312,2,70
168,208,29719,2,0,P|240:240|296:264,1,140
384,240,30219,1,0,0:0:0:0:
424,160,30385,2,0,P|400:120|376:96,1,70
304,56,30719,6,0,P|224:56|104:136,1,210
176,192,31385,1,0,0:0:0:0:
264,160,31552,2,0,P|304:128|344:128,1,70
392,184,31885,2,0,L|432:208,2,35
328,248,32219,1,0,0:0:0:0:
248,280,32385,1,0,0:0:0:0:
160,256,32552,2,0,P|128:232|120:192,1,70
136,112,32885,1,0,0:0:0:0:
136,24,33052,1,0,0:0:0:0:
224,48,33219,6,0,P|272:64|272:96,1,70
240,160,33552,2,0,P|288:160|296:200,1,70
272,264,33885,2,0,P|312:272|312:304,1,70
408,280,34219,2,0,P|424:240|424:208,1,70
376,136,34552,1,0,0:0:0:0:
408,48,34719,1,0,0:0:0:0:
320,80,34885,2,0,P|280:88|248:80,1,70
168,48,35219,2,0,P|112:48|96:64,1,70
64,136,35552,2,0,L|24:152,2,35
144,184,35885,1,0,0:0:0:0:
200,312,36052,5,0,0:0:0:0:
112,280,36219,2,0,P|80:256|64:232,1,70
144,184,36552,2,0,P|192:160|200:128,1,70
160,64,36885,1,0,0:0:0:0:
248,40,37052,2,0,P|304:40|328:56,1,70
408,56,37385,2,0,B|448:40|464:-8|464:-8,2,70
328,104,37885,1,0,0:0:0:0:
392,168,38052,2,0,P|408:208|392:256,1,70
368,320,38385,1,0,0:0:0:0:
280,344,38552,2,0,P|232:352|192:336,1,70
184,256,38885,2,0,P|192:216|184:184,2,70
120,320,39385,2,0,P|80:304|56:264,1,70
56,192,39719,1,0,0:0:0:0:
96,112,39885,1,0,0:0:0:0:
160,48,40052,1,0,0:0:0:0:
248,64,40219,2,0,P|280:24|288:8,2,70
200,136,40719,2,0,P|176:168|176:216,1,70
232,264,41052,6,0,P|208:296|168:320,2,70
264,176,41552,2,0,P|280:144|304:104,1,70
368,56,41885,1,0,0:0:0:0:
424,128,42052,2,0,P|416:184|368:256,1,140
296,304,42552,2,0,P|264:328|224:336,1,70
144,320,42885,1,0,0:0:0:0:
72,264,43052,1,0,0:0:0:0:
40,176,43219,2,0,P|40:128|48:96,1,70
136,88,43552,2,0,P|144:40|136:0,2,70
176,168,44052,1,0,0:0:0:0:
264,144,44219,2,0,P|264:88|256:48,2,70
232,232,44719,6,0,P|192:256|128:336,1,140
224,336,45219,1,0,0:0:0:0:
312,336,45385,1,0,0:0:0:0:
400,336,45552,1,0,0:0:0:0:
464,272,45719,2,0,P|464:224|384:144,1,140
328,112,46219,1,0,0:0:0:0:
208,96,46385,1,0,0:0:0:0:
256,192,46553,12,0,48386,0:0:0:0:
208,72,56886,5,4,0:0:0:0:
272,72,57053,1,4,0:0:0:0:
336,72,57219,1,4,0:0:0:0:
416,128,57385,2,2,B|384:192|344:216|288:224|248:256,1,210.000008010865
168,296,57886,1,8,0:0:0:0:
88,240,58053,2,2,B|40:184|40:144|24:80|112:56,1,210.000008010865
184,32,58553,5,8,0:0:0:0:
272,56,58719,2,2,B|328:80|352:112|336:176|304:216|264:248,1,210.000008010865
208,280,59219,1,0,0:0:0:0:
120,240,59386,1,0,0:0:0:0:
56,168,59553,2,8,B|72:112|112:80|192:88|224:64,1,210.000008010865
312,32,60053,2,2,P|384:24|416:64,2,105.000004005432
312,128,60553,2,8,P|288:192|216:232,1,105.000004005432
192,280,60886,5,0,0:0:0:0:
120,216,61053,1,0,0:0:0:0:
144,128,61219,2,8,P|144:72|224:48,1,105.000004005432
272,56,61553,2,2,P|360:56|416:72,3,105.000004005432
456,104,62219,1,12,0:0:0:0:
424,192,62386,1,12,0:0:0:0:
344,248,62553,1,12,0:0:0:0:
264,304,62719,6,10,P|208:328|152:320,1,105.000004005432
80,280,63053,2,10,P|40:216|32:176,1,105.000004005432
40,96,63386,2,10,P|128:88|136:128,1,105.000004005432
184,160,63719,2,10,P|232:200|288:192,1,105.000004005432
312,112,64053,2,10,P|320:48|384:16,2,105.000004005432
400,136,64553,2,10,B|352:200|424:248|336:240|288:320,1,210.000008010865
200,304,65053,1,4,0:0:0:0:
152,224,65219,5,0,0:0:0:0:
176,136,65386,2,4,L|176:24|176:24,2,105.000004005432
264,176,65886,2,4,L|264:64,2,105.000004005432
360,200,66386,2,4,L|360:80,2,105.000004005432
448,232,66886,2,4,L|448:96,2,105.000004005432
384,304,67385,2,2,B|328:368|304:376|240:392|184:376|168:344,1,210.000008010865
128,312,67886,1,0,0:0:0:0:
88,224,68053,6,2,B|96:160|120:128|176:144|232:144|256:112,1,210.000008010865
336,88,68553,2,2,B|384:112|440:160|440:224|384:248|344:248,1,210.000008010865
280,272,69053,1,8,0:0:0:0:
184,272,69219,1,8,0:0:0:0:
96,248,69386,2,2,B|72:184|104:168|176:136|216:88,1,210.000008010865
288,40,69886,2,2,B|336:96|416:144|408:176|384:208,1,210.000008010865
320,272,70386,1,8,0:0:0:0:
248,328,70553,5,8,0:0:0:0:
160,288,70719,2,2,B|200:232|256:224|296:184|288:136|320:120|352:120|352:120,1,210.000008010865
368,72,71219,2,2,B|472:80|440:192|384:232|352:248,1,210.000008010865
288,256,71719,1,8,0:0:0:0:
192,240,71886,2,2,B|128:224|96:184|104:184,1,105.000004005432
48,112,72219,2,2,P|96:72|152:72,1,105.000004005432
232,72,72553,2,2,P|280:96|296:144,1,105.000004005432
288,240,72886,6,8,P|264:288|200:312,1,105.000004005432
128,312,73219,1,0,0:0:0:0:
72,232,73386,2,8,P|80:168|112:152,1,105.000004005432
200,128,73719,2,2,P|272:104|288:72,2,105.000004005432
128,304,74386,2,2,P|72:312|0:368,2,105.000004005432
216,280,74886,1,0,0:0:0:0:
296,232,75053,1,0,0:0:0:0:
352,160,75219,5,0,0:0:0:0:
416,88,75386,2,8,P|400:24|344:16,1,105.000004005432
272,24,75719,2,8,P|208:24|152:40,1,105.000004005432
88,80,76053,2,2,P|32:120|16:184,1,105.000004005432
32,248,76386,2,2,P|72:304|128:320,1,105.000004005432
200,328,76719,2,2,P|296:312|328:280,1,105.000004005432
384,264,77053,2,10,P|440:224|464:160,2,105.000004005432
304,208,77552,5,8,0:0:0:0:
224,160,77719,1,0,0:0:0:0:
144,104,77886,1,8,0:0:0:0:
48,120,78053,1,0,0:0:0:0:
40,216,78219,2,8,P|40:280|88:320,1,105.000004005432
160,304,78553,2,12,P|224:296|272:280,1,105.000004005432
192,80,80886,6,2,P|128:112|96:136,3,105.000004005432
40,200,81553,1,0,0:0:0:0:
80,256,81719,2,8,L|40:296,2,52.5000020027161
144,216,82053,2,0,P|208:184|240:184,1,105.000004005432
312,192,82385,1,0,0:0:0:0:
312,192,82469,1,0,0:0:0:0:
312,192,82552,1,0,0:0:0:0:
384,208,82719,6,0,P|392:152|368:104,1,105.000004005432
312,72,83053,1,0,0:0:0:0:
240,72,83219,1,0,0:0:0:0:
168,72,83385,2,2,B|88:64|56:136|48:184|136:224,1,210.000008010865
248,256,84053,2,8,B|320:288|344:272|368:288|376:280|416:272|424:280|416:288|424:296|456:288|456:288|448:288,1,210.000008010865
456,216,84553,1,0,0:0:0:0:
440,144,84719,2,2,P|464:88|504:80,2,105.000004005432
328,168,85219,2,0,P|288:112|280:64,1,105.000004005432
168,40,85552,1,0,0:0:0:0:
96,128,85719,1,0,0:0:0:0:
136,192,85886,2,2,P|64:224|16:216,2,105.000004005432
176,256,86386,6,0,B|136:296|144:304|144:320|168:320|184:328,1,105.000004005432
280,320,86719,1,0,0:0:0:0:
360,288,86886,2,0,B|416:264|424:256|432:240|440:224,1,105.000004005432
464,112,87219,2,2,P|464:64|400:32,2,105.000004005432
360,160,87719,1,0,0:0:0:0:
248,176,87886,2,8,B|192:176|160:200|144:232|168:256,1,105.000004005432
144,312,88219,1,0,0:0:0:0:
224,312,88386,5,0,0:0:0:0:
288,272,88553,2,8,B|328:232|328:192|352:200|368:176,1,105.000004005432
400,136,88886,2,2,B|408:80|368:72|392:72|376:80|352:80|336:80,1,105.000004005432
272,80,89219,1,0,0:0:0:0:
272,80,89303,1,0,0:0:0:0:
272,80,89386,1,0,0:0:0:0:
200,72,89553,1,0,0:0:0:0:
128,80,89719,5,0,0:0:0:0:
80,136,89886,1,0,0:0:0:0:
48,208,90053,2,10,B|72:264|80:264|96:272|104:280|120:280|136:280|152:272|160:264|168:256|184:256|184:272|192:280|192:288|200:296|232:296,1,210.000008010865
288,296,90553,2,2,B|328:248|352:256|368:248|368:248|384:232,1,105.000004005432
432,192,90886,2,8,P|456:136|424:112,1,105.000004005432
360,80,91219,2,8,P|288:72|248:96,1,105.000004005432
200,128,91553,2,8,P|152:168|128:224,1,105.000004005432
176,320,92052,6,2,B|216:360|248:336|288:328|320:328|344:312|384:288,1,210.000008010865
408,232,92553,1,0,0:0:0:0:
376,168,92719,2,8,P|384:112|440:104,2,105.000004005432
304,184,93219,1,0,0:0:0:0:
232,184,93385,1,8,0:0:0:0:
232,184,93469,1,8,0:0:0:0:
232,184,93553,1,8,0:0:0:0:
160,208,93719,6,2,B|112:240|128:272|152:304|176:304|192:304|216:288|232:320|264:304|280:296|296:280,1,210.000008010865
336,272,94219,1,8,0:0:0:0:
392,224,94386,2,2,P|440:160|440:128,2,105.000004005432,10|2|10,0:0|0:0|0:0,0:0:0:0:
328,184,94886,2,0,B|296:136|248:128|232:136,1,105.000004005432
168,112,95219,1,0,0:0:0:0:
96,136,95386,1,0,0:0:0:0:
88,208,95553,1,0,0:0:0:0:
144,256,95719,6,2,B|192:280|240:296|264:304|280:296|296:296|320:296|336:304|352:304,1,210.000008010865
408,264,96219,2,8,B|432:208|416:192|424:192|416:176|408:168|392:168,1,105.000004005432
336,136,96553,2,8,B|288:112|272:120|272:104|248:112|240:112|208:112,1,105.000004005432
160,112,96886,1,0,0:0:0:0:
104,160,97053,1,0,0:0:0:0:
136,224,97219,1,0,0:0:0:0:
200,256,97386,2,2,P|272:272|320:240,3,105.000004005432
368,232,98053,6,8,B|424:208|432:184|424:160|440:152|432:128,1,105.000004005432
432,80,98386,1,0,0:0:0:0:
432,80,98469,1,0,0:0:0:0:
432,80,98553,1,0,0:0:0:0:
360,64,98719,2,2,L|360:8,2,52.5000020027161
288,72,99053,2,2,B|216:80|176:72|152:80|144:88|136:104|136:120|128:144|136:152|136:176|128:200,1,210.000008010865
136,232,99553,1,0,0:0:0:0:
208,232,99719,6,8,P|280:232|328:240,1,105.000004005432
376,280,100053,2,2,P|424:280|448:224,2,105.000004005432
304,280,100553,1,0,0:0:0:0:
232,280,100719,1,0,0:0:0:0:
160,272,100886,6,8,B|128:256|128:216|104:200|152:168,1,105.000004005432
168,120,101219,1,8,0:0:0:0:
224,72,101386,2,2,P|320:40|344:40,1,105.000004005432
400,40,101719,2,2,P|448:64|472:112,1,105.000004005432
456,128,102052,6,2,B|440:144|440:144|432:144|424:144,1,35
400,144,102386,2,6,B|368:136|352:128|352:104|336:96|352:96,1,70
120,80,112886,5,12,0:0:0:0:
216,80,113053,1,12,0:0:0:0:
312,80,113219,1,12,0:0:0:0:
408,88,113386,2,2,B|400:144|344:176|264:128|232:200,1,210.000008010865
200,272,113886,1,8,0:0:0:0:
288,312,114053,2,2,B|344:328|360:312|384:320|392:312|384:288|416:288|400:272|432:272|400:248|424:232|432:208,1,210.000008010865
432,112,114553,1,8,0:0:0:0:
376,32,114719,6,2,B|304:48|296:56|288:72|280:88|272:96|272:104|264:112|256:120|248:128|232:144|216:144|192:136|184:136,1,210.000008010865
112,152,115219,1,0,0:0:0:0:
152,240,115386,2,2,P|208:264|264:272,1,105.000004005432
344,256,115719,2,2,P|376:208|392:160,1,105.000004005432
432,80,116053,2,8,P|456:16|512:8,2,105.000004005432
400,168,116553,1,4,0:0:0:0:
328,224,116719,1,0,0:0:0:0:
232,216,116886,6,8,B|104:160|160:120|120:136,3,105.000004005432
168,64,117553,2,2,B|224:64|256:88|304:80|344:96|384:128,1,210.000008010865
416,200,118052,2,8,P|384:256|344:280,1,105.000004005432
256,304,118386,2,8,B|184:328|160:320|136:288,1,105.000004005432
88,248,118719,2,8,P|56:176|56:128,1,105.000004005432
64,56,119053,2,8,P|120:8|160:16,1,105.000004005432
240,40,119386,2,8,P|304:72|320:104,1,105.000004005432
344,192,119719,6,8,P|352:256|320:288,1,105.000004005432
240,320,120053,2,2,P|144:344|104:336,3,105.000004005432
64,168,120886,2,2,P|72:112|120:104,2,105.000004005432
80,264,121386,2,2,B|64:328|64:328|120:360|120:360,1,105.000004005432
168,288,121719,2,2,B|224:264|224:264|184:200,1,105.000004005432
160,144,122053,2,2,B|192:88|192:88|256:112,1,105.000004005432
320,120,122386,2,2,B|352:176|352:176|424:192,1,105.000004005432
456,256,122719,6,2,B|400:280|400:280|336:280,1,105.000004005432
264,248,123053,2,2,B|256:176|256:176|288:160,1,105.000004005432
352,96,123386,2,2,L|224:32,1,105.000004005432
160,48,123719,2,8,P|176:96|248:128,1,105.000004005432
304,160,124053,2,8,P|392:184|440:176,1,105.000004005432
400,88,124386,1,0,0:0:0:0:
304,64,124553,1,0,0:0:0:0:
208,64,124719,5,0,0:0:0:0:
120,104,124886,2,2,P|168:168|224:168,2,105.000004005432
208,64,125386,2,8,P|288:32|344:40,1,105.000004005432
392,80,125719,1,0,0:0:0:0:
456,152,125886,1,0,0:0:0:0:
424,240,126053,1,0,0:0:0:0:
336,256,126219,2,4,B|336:320|304:352|264:336|240:336,1,105.000004005432
192,328,126553,6,4,B|136:328|104:296|88:280,1,105.000004005432
80,192,126886,1,0,0:0:0:0:
128,112,127053,1,0,0:0:0:0:
216,72,127219,1,8,0:0:0:0:
312,72,127386,1,0,0:0:0:0:
400,112,127553,2,8,P|432:176|408:208,1,105.000004005432
336,248,127886,1,0,0:0:0:0:
256,288,128053,6,0,B|192:304|184:280|176:264|184:240,1,105.000004005432
256,192,128386,2,8,B|288:160|336:176|328:88,1,105.000004005432
264,56,128719,2,8,B|160:80|152:104|160:128,1,105.000004005432
120,176,129053,2,8,B|136:224|120:264|184:256|200:256,1,105.000004005432
264,264,129386,2,2,B|320:280|344:256|352:240|360:232,1,105.000004005432
392,136,129719,2,0,P|456:120|472:88,2,105.000004005432
312,64,130219,1,0,0:0:0:0:
216,16,130385,2,0,P|144:40|112:72,1,105.000004005432
72,128,130719,2,2,B|32:184|80:224|80:224,1,105.000004005432
160,272,131053,6,8,L|160:344,2,52.5000020027161
256,256,131386,2,8,B|312:280|312:280|336:264|352:272|368:264|384:280|400:264,1,105.000004005432
424,208,131719,2,8,B|464:160|464:160|456:144|464:128|448:112|472:112,1,105.000004005432
376,72,132053,2,2,L|400:24,2,52.5000020027161
280,72,132386,2,2,L|264:8,2,52.5000020027161
192,112,132719,2,2,L|152:72,2,52.5000020027161
224,200,133053,1,0,0:0:0:0:
256,288,133219,5,0,0:0:0:0:
336,240,133386,2,8,B|360:192|384:192|392:168|384:152|408:144|416:136,1,105.000004005432
384,64,133719,1,0,0:0:0:0:
288,56,133886,2,0,B|208:40|208:40|184:56|184:40|200:48|192:56|176:56,1,105.000004005432
144,136,134219,2,2,P|80:112|64:80,2,105.000004005432
240,152,134719,1,12,0:0:0:0:
240,64,145386,5,0,0:0:0:0:
240,288,146053,2,2,B|192:288|160:288|160:288,2,80.5000015354157
352,288,146719,5,0,0:0:0:0:
360,120,147219,2,2,B|320:104|272:96|272:96,2,80.5000015354157
360,232,147886,5,8,0:0:0:0:
360,232,147969,1,8,0:0:0:0:
360,232,148053,1,8,0:0:0:0:
136,240,148719,2,2,B|136:288|136:328|136:328,2,80.5000015354157
192,144,149386,2,8,P|232:128|272:128,1,80.5000015354157
368,176,149886,2,2,L|416:176|416:176,2,40.2500007677078
280,248,150386,5,8,0:0:0:0:
224,248,150553,1,8,0:0:0:0:
168,248,150719,2,10,L|168:208|168:160,1,80.5000015354157
160,56,151386,2,2,L|64:56|64:56,2,80.5000015354157
272,56,152053,2,8,L|272:152,1,80.5000015354157
272,304,152719,2,8,L|184:304,1,80.5000015354157
192,136,153386,2,8,L|192:40,1,80.5000015354157
248,56,153719,2,8,L|344:56,1,80.5000015354157
384,72,154053,2,2,P|408:120|408:168,7,80.5000015354157
360,176,155386,5,8,0:0:0:0:
320,216,155553,2,12,L|208:248,1,80.5000015354157
112,200,156053,2,2,L|112:120,7,52.5000020027161
216,48,157053,6,8,L|344:48,1,105.000004005432
384,88,157386,1,0,0:0:0:0:
392,160,157553,1,0,0:0:0:0:
392,232,157719,2,2,L|160:232,1,210.000008010865
112,232,158385,1,0,0:0:0:0:
48,192,158719,6,2,B|48:64|48:64|176:64,1,210.000008010865
288,64,159386,6,2,B|400:64|400:64|400:176,1,210.000008010865
352,304,160053,5,8,0:0:0:0:
280,296,160219,2,8,B|216:288|200:264|184:248,1,105.000004005432
136,200,160553,1,8,0:0:0:0:
88,144,160719,1,8,0:0:0:0:
128,80,160886,1,8,0:0:0:0:
344,32,161386,5,8,0:0:0:0:
376,96,161553,2,2,B|408:152|408:168|408:184|392:200|376:216,1,105.000004005432
288,296,162053,6,2,P|208:320|168:312,1,105.000004005432
120,280,162386,1,8,0:0:0:0:
72,224,162553,1,8,0:0:0:0:
48,152,162719,2,2,P|104:128|160:120,1,105.000004005432
224,112,163052,1,8,0:0:0:0:
296,120,163219,1,8,0:0:0:0:
352,168,163386,5,8,0:0:0:0:
328,240,163552,2,2,P|264:248|200:224,1,105.000004005432
168,184,163885,1,0,0:0:0:0:
96,208,164053,6,8,P|40:232|24:296,2,105.000004005432
168,184,164552,1,0,0:0:0:0:
224,136,164719,5,2,0:0:0:0:
288,96,164886,1,0,0:0:0:0:
344,144,165053,2,12,P|368:200|360:256,1,105.000004005432
160,64,168219,5,0,0:0:0:0:
232,48,168386,1,0,0:0:0:0:
304,64,168553,1,0,0:0:0:0:
360,120,168719,1,0,0:0:0:0:
384,192,168886,1,0,0:0:0:0:
368,264,169053,1,0,0:0:0:0:
296,280,169219,1,0,0:0:0:0:
200,264,169386,2,2,B|120:256|88:216|88:216,2,105.000004005432
240,176,169886,1,0,0:0:0:0:
168,120,170053,2,8,P|216:64|264:88,1,105.000004005432
336,64,170386,5,0,0:0:0:0:
416,120,170553,1,0,0:0:0:0:
432,216,170719,2,8,B|352:240|312:240|280:264|264:280|232:280,1,210.000008010865
160,304,171219,1,0,0:0:0:0:
88,280,171386,2,2,P|72:224|96:176,1,105.000004005432
128,120,171719,2,2,P|160:64|200:48,1,105.000004005432
272,56,172053,6,2,P|328:56|392:16,2,105.000004005432
280,160,172553,1,0,0:0:0:0:
352,224,172719,1,0,0:0:0:0:
272,280,172886,2,8,B|208:296|192:296|176:304|160:312|152:304,1,105.000004005432
80,272,173219,2,8,B|48:184|56:168|80:152|80:144|80:128,1,105.000004005432
120,96,173553,1,0,0:0:0:0:
208,56,173719,1,0,0:0:0:0:
304,56,173886,5,0,0:0:0:0:
376,120,174053,2,0,P|408:184|392:224,1,105.000004005432
320,264,174386,1,0,0:0:0:0:
128,248,174719,6,8,P|88:184|96:144,1,105.000004005432
128,72,175053,2,8,P|160:48|232:56,1,105.000004005432
312,72,175386,2,8,B|356:79|404:111|404:111|412:119,1,105.000004005432
480,176,175719,2,8,P|504:240|472:272,1,105.000004005432
400,312,176053,2,2,P|344:328|280:320,2,105.000004005432
368,224,176553,2,2,B|288:216|264:240|224:248|200:224|152:224|136:240,1,210.000008010865
80,184,177053,1,0,0:0:0:0:
128,104,177219,5,0,0:0:0:0:
216,64,177386,2,2,P|288:24|320:24,2,105.000004005432
200,160,177886,2,2,P|248:208|288:216,2,105.000004005432
104,176,178386,2,2,P|56:232|8:240,2,105.000004005432
96,80,178886,2,2,P|32:48|-16:48,2,105.000004005432
200,112,179386,6,6,L|200:368,1,245.000002336502,2|2,0:0|0:0,0:0:0:0:
296,344,179886,5,0,0:0:0:0:
352,272,180053,6,8,B|328:232|320:200|304:192|272:168,1,105.000004005432
264,96,180386,1,2,0:0:0:0:
176,56,180553,2,8,B|88:80|80:104|72:112,1,105.000004005432
64,160,180886,2,2,P|0:160|-56:192,2,105.000004005432
120,232,181386,2,0,B|160:272|184:272|192:280|208:272|232:272,1,105.000004005432
304,264,181719,2,0,B|360:240|360:232|368:232|384:216|368:200|384:184,1,105.000004005432
344,112,182053,2,0,B|296:72|288:80|272:56|248:56|232:64,1,105.000004005432
160,32,182386,5,0,0:0:0:0:
80,88,182553,1,0,0:0:0:0:
48,176,182719,2,2,B|8:232|16:248|16:280|40:304,1,105.000004005432
104,328,183053,2,2,B|152:344|176:336|184:344|224:344|224:328,1,105.000004005432
296,320,183386,1,0,0:0:0:0:
376,272,183553,1,0,0:0:0:0:
368,176,183719,2,0,B|336:128|312:104|304:104|288:112,1,105.000004005432
200,120,184053,6,0,P|144:120|96:152,1,105.000004005432,0|2,0:0|0:0,0:0:0:0:
80,232,184386,2,2,P|128:272|176:280,1,105.000004005432
264,272,184719,2,2,P|312:232|320:184,1,105.000004005432
272,112,185053,2,4,B|192:112|192:104|184:120|176:104|168:120|160:112,1,105.000004005432
72,112,185386,2,2,B|0:112|-32:152|40:224|96:264,1,210.000008010865
168,264,185886,1,0,0:0:0:0:
264,272,186053,1,0,0:0:0:0:
360,272,186219,6,8,P|352:200|320:168,1,105.000004005432
264,112,186553,1,0,0:0:0:0:
192,56,186719,2,8,B|136:32|112:32|96:48|80:64,1,105.000004005432
48,136,187053,1,0,0:0:0:0:
72,224,187219,1,0,0:0:0:0:
144,288,187386,2,8,P|200:312|256:304,1,105.000004005432
320,248,187719,2,8,P|344:200|392:184,1,105.000004005432
480,144,188053,6,2,P|520:80|480:40,1,105.000004005432
424,16,188386,2,2,P|344:16|296:48,1,105.000004005432
240,80,188719,2,2,P|176:88|120:128,2,105.000004005432
328,120,189219,1,0,0:0:0:0:
392,184,189386,1,0,0:0:0:0:
400,280,189553,2,8,P|336:312|304:312,1,105.000004005432
216,288,189886,2,8,B|168:264|136:264|112:248,1,105.000004005432
40,192,190219,6,2,P|56:120|120:112,1,105.000004005432
168,80,190553,1,0,0:0:0:0:
280,72,190719,2,2,B|336:104|336:104|352:176,1,105.000004005432
320,256,191053,2,2,B|272:296|272:296|184:280,1,105.000004005432
168,192,191386,6,10,P|136:136|72:112,2,105.000004005432
128,296,191886,1,0,0:0:0:0:
240,312,192053,2,10,P|304:296|320:248,2,105.000004005432
152,224,192553,1,8,0:0:0:0:
72,104,192719,1,14,0:0:0:0:
