osu file format v14

[General]
AudioFilename: +Danshi.mp3
AudioLeadIn: 0
PreviewTime: 56874
Countdown: 1
SampleSet: Soft
StackLeniency: 0.6
Mode: 0
LetterboxInBreaks: 1
WidescreenStoryboard: 0

[Editor]
DistanceSpacing: 1
BeatDivisor: 4
GridSize: 4
TimelineZoom: 1.2

[Metadata]
Title:+Danshi
TitleUnicode:+♂
Artist:Reol
ArtistUnicode:れをる
Creator:Chaoslitz
Version:Chaotic
Source:
Tags:ギガ giga p giga-p okiku vocaloid
BeatmapID:674514
BeatmapSetID:300748

[Difficulty]
HPDrainRate:5
CircleSize:4
OverallDifficulty:6.9
ApproachRate:9.5
SliderMultiplier:1.6
SliderTickRate:1

[Events]
//Background and Video events
0,0,"bg.png",0,0
//Break Periods
2,145374,154707
//Storyboard Layer 0 (Background)
//Storyboard Layer 1 (Fail)
//Storyboard Layer 2 (Pass)
//Storyboard Layer 3 (Foreground)
//Storyboard Sound Samples

[TimingPoints]
41,333.333333333333,4,2,1,60,1,0
10707,-200,4,2,1,60,0,0
14374,-66.6666666666667,4,2,1,60,0,0
25374,-83.3333333333333,4,2,1,60,0,0
33207,-111.111111111111,4,2,1,60,0,0
33540,-83.3333333333333,4,2,1,60,0,0
33874,-55.5555555555556,4,2,1,60,0,0
34207,-83.3333333333333,4,2,1,60,0,0
39707,-66.6666666666667,4,2,1,60,0,0
40374,-62.5,4,2,1,60,0,0
40707,-55.5555555555556,4,2,1,60,0,0
41040,-66.6666666666667,4,2,1,60,0,0
41374,-83.3333333333333,4,2,1,60,0,0
46707,-200,4,2,1,60,0,0
56874,-55.5555555555556,4,2,1,70,0,1
78707,-55.5555555555556,4,2,1,60,0,0
81374,-83.3333333333333,4,2,1,60,0,0
86374,-66.6666666666667,4,2,1,60,0,0
86707,-83.3333333333333,4,2,1,60,0,0
90040,-66.6666666666667,4,2,1,60,0,0
90457,-83.3333333333333,4,2,1,60,0,0
94374,-66.6666666666667,4,2,1,60,0,0
94707,-83.3333333333333,4,2,1,60,0,0
96040,-66.6666666666667,4,2,1,60,0,0
96374,-55.5555555555556,4,2,1,60,0,0
97374,-83.3333333333333,4,2,1,60,0,0
99707,-66.6666666666667,4,2,1,60,0,0
102707,-111.111111111111,4,2,1,60,0,0
103040,-111.111111111111,4,2,0,60,0,0
113374,-55.5555555555556,4,2,1,70,0,1
134707,-111.111111111111,4,2,0,60,0,0
144707,-50,4,2,1,60,0,0
145040,-100,4,2,1,60,0,0
156040,-55.5555555555556,4,2,1,60,0,0
168040,-55.5555555555556,4,2,1,20,0,0
168374,-55.5555555555556,4,2,1,30,0,0
168707,-55.5555555555556,4,2,1,40,0,0
169040,-55.5555555555556,4,2,1,50,0,0
169374,-55.5555555555556,4,2,1,70,0,1
190707,-55.5555555555556,4,2,1,60,0,0
193374,-55.5555555555556,4,2,1,70,0,1
213374,-55.5555555555556,4,2,1,60,0,0

[Colours]
Combo1 : 248,7,170
Combo2 : 255,149,98
Combo3 : 255,102,255
Combo4 : 173,82,184

[HitObjects]
409,223,707,5,0,0:0:0:0:
379,287,1374,1,0,0:0:0:0:
324,330,2040,1,0,0:0:0:0:
256,346,2707,1,0,0:0:0:0:
188,331,3374,2,0,P|56:349|114:223,1,320
133,287,4707,2,0,P|5:239|121:162,1,320
133,91,6041,5,0,0:0:0:0:
187,47,6707,1,0,0:0:0:0:
256,32,7373,1,0,0:0:0:0:
324,47,8041,1,0,0:0:0:0:
379,90,8707,6,0,P|475:46|393:139,1,320
379,90,10040,1,0,0:0:0:0:
409,152,10707,6,0,P|196:179|391:275,1,560
409,152,13374,5,8,0:0:0:0:
378,287,13540,1,0,0:0:0:0:
378,287,13624,1,0,0:0:0:0:
378,287,13707,1,8,0:0:0:0:
324,47,13874,1,0,0:0:0:0:
324,47,13957,1,0,0:0:0:0:
324,47,14040,1,8,0:0:0:0:
102,154,14207,1,8,0:0:0:0:
187,47,14374,6,0,P|122:55|105:158,1,180.000006866455,4|0,0:0|0:0,0:0:0:0:
133,91,14707,6,0,B|108:69|74:66|74:66|108:69|201:43,1,180.000006866455,4|0,1:0|0:0,0:0:0:0:
256,32,15040,1,2,0:0:0:0:
102,224,15207,1,0,0:0:0:0:
324,47,15374,2,0,P|298:0|257:43,1,120.000004577637
324,330,15707,1,2,0:0:0:0:
379,90,15874,1,0,0:0:0:0:
188,331,16041,5,0,0:0:0:0:
256,346,16124,1,0,0:0:0:0:
324,330,16208,1,0,0:0:0:0:
379,287,16291,1,0,0:0:0:0:
409,223,16374,1,2,0:0:0:0:
379,90,16540,1,0,0:0:0:0:
379,287,16707,2,0,B|389:199|389:199|417:231,1,120.000004577637
324,330,17040,2,0,B|347:257|347:257|385:292,1,120.000004577637,2|0,0:0|0:0,0:0:0:0:
324,330,17290,1,0,0:0:0:0:
256,346,17374,6,0,P|278:246|382:301,1,240.000009155274,0|2,0:0|0:0,0:0:0:0:
256,346,17874,1,0,0:0:0:0:
103,154,18040,2,0,B|77:240|77:240|105:222,1,120.000004577637
186,46,18374,1,2,0:0:0:0:
102,224,18540,1,0,0:0:0:0:
324,47,18707,6,0,B|407:85|407:85|375:89,1,120.000004577637,0|2,0:0|0:0,0:0:0:0:
186,46,19040,1,0,0:0:0:0:
379,89,19207,1,0,0:0:0:0:
103,154,19373,1,2,0:0:0:0:
133,91,19457,1,0,0:0:0:0:
186,46,19540,1,0,0:0:0:0:
256,32,19624,1,0,0:0:0:0:
324,47,19707,1,2,0:0:0:0:
102,224,19874,5,2,0:0:0:0:
133,287,19957,1,0,0:0:0:0:
188,331,20040,2,0,P|223:272|96:232,1,240.000009155274,4|2,0:0|0:0,0:0:0:0:
256,346,20540,1,0,0:0:0:0:
133,287,20707,2,0,B|99:304|99:304|81:274|108:208,1,120.000004577637
186,46,21040,1,2,0:0:0:0:
188,331,21207,1,0,0:0:0:0:
133,91,21374,5,0,0:0:0:0:
256,346,21540,1,0,0:0:0:0:
256,346,21624,1,0,0:0:0:0:
256,346,21707,1,2,0:0:0:0:
103,154,21874,1,0,0:0:0:0:
324,47,22040,2,0,B|275:86|275:86|254:26,1,120.000004577637
379,89,22374,2,0,B|351:144|351:144|430:155,1,120.000004577637,2|0,0:0|0:0,0:0:0:0:
379,89,22624,1,0,0:0:0:0:
324,47,22707,6,0,B|216:18|156:26|156:26|134:53|133:91,1,240.000009155274,0|2,0:0|0:0,0:0:0:0:
133,287,23207,1,0,0:0:0:0:
103,154,23374,2,0,B|79:124|76:100|76:100|98:85|145:92,1,120.000004577637,0|2,0:0|0:0,0:0:0:0:
103,154,23707,1,8,3:0:0:0:
133,91,23790,1,8,3:0:0:0:
185,46,23874,1,8,3:0:0:0:
256,32,23957,1,8,3:0:0:0:
324,47,24040,5,4,3:0:0:0:
409,152,24374,1,4,3:0:0:0:
379,287,24707,1,4,3:0:0:0:
379,90,24874,5,2,3:0:0:0:
409,223,25040,1,2,3:0:0:0:
324,330,25207,1,2,3:0:0:0:
188,331,25374,6,0,P|227:311|252:363,1,95.9999970703126,4|0,0:0|0:0,0:0:0:0:
324,330,25707,2,0,P|275:314|257:355,1,95.9999970703126,2|0,0:0|0:0,0:0:0:0:
409,223,26040,1,0,0:0:0:0:
256,345,26207,1,0,0:0:0:0:
379,90,26374,1,2,0:0:0:0:
379,287,26540,1,0,0:0:0:0:
324,47,26707,6,0,B|291:14|252:17|252:17|259:43,1,95.9999970703126
379,287,27040,2,0,B|388:299|388:299|413:267|409:223,1,95.9999970703126,2|0,0:0|0:0,0:0:0:0:
379,90,27374,1,0,0:0:0:0:
133,287,27540,1,0,0:0:0:0:
409,223,27707,1,2,0:0:0:0:
103,154,27874,1,0,0:0:0:0:
256,345,28040,6,0,B|332:348|332:348|320:321,1,95.9999970703126
185,46,28374,1,2,0:0:0:0:
133,287,28540,1,0,0:0:0:0:
379,90,28707,1,0,0:0:0:0:
103,154,28874,1,0,0:0:0:0:
256,345,29040,1,2,0:0:0:0:
409,152,29207,1,0,0:0:0:0:
133,287,29374,5,0,0:0:0:0:
256,32,29540,1,0,0:0:0:0:
379,287,29707,1,2,0:0:0:0:
103,154,29874,1,0,0:0:0:0:
409,152,30040,1,0,0:0:0:0:
256,345,30207,1,0,0:0:0:0:
185,46,30374,1,2,0:0:0:0:
324,47,30540,1,2,3:0:0:0:
256,32,30624,1,2,3:0:0:0:
185,46,30707,6,0,P|232:63|256:28,1,95.9999970703126
324,47,31040,2,0,P|279:65|256:27,1,95.9999970703126,2|0,0:0|0:0,0:0:0:0:
256,345,31374,1,0,0:0:0:0:
133,91,31540,1,0,0:0:0:0:
133,91,31624,1,0,0:0:0:0:
133,91,31707,2,0,B|112:92|106:87|106:87|94:121|103:154,1,95.9999970703126,2|0,0:0|0:0,0:0:0:0:
133,287,32040,5,0,0:0:0:0:
324,330,32207,1,0,0:0:0:0:
188,331,32374,1,2,0:0:0:0:
379,287,32540,1,0,0:0:0:0:
256,345,32707,1,0,0:0:0:0:
409,223,32874,1,0,0:0:0:0:
324,330,33040,1,2,0:0:0:0:
103,154,33207,6,0,P|96:190|108:238,1,71.9999978027344,4|0,0:0|0:0,0:0:0:0:
188,331,33540,6,0,P|174:285|128:291,1,95.9999970703126,4|2,0:0|0:0,0:0:0:0:
256,345,33874,6,0,P|232:288|188:331,1,143.999995605469,4|0,0:0|0:0,0:0:0:0:
324,330,34207,5,0,0:0:0:0:
133,287,34374,1,2,0:0:0:0:
133,287,34457,1,0,0:0:0:0:
133,287,34540,1,0,0:0:0:0:
409,223,34707,5,0,0:0:0:0:
409,152,34790,1,0,0:0:0:0:
379,90,34874,1,0,0:0:0:0:
324,47,34957,1,0,0:0:0:0:
256,32,35040,1,2,0:0:0:0:
103,154,35207,1,0,0:0:0:0:
379,287,35374,5,0,0:0:0:0:
324,47,35540,1,0,0:0:0:0:
324,47,35624,1,0,0:0:0:0:
324,47,35707,1,2,0:0:0:0:
256,345,35874,1,0,0:0:0:0:
131,89,36040,6,0,B|87:109|87:109|105:159,1,95.9999970703126,4|0,0:0|0:0,0:0:0:0:
379,90,36374,2,0,B|426:110|426:110|407:157,1,95.9999970703126,2|0,0:0|0:0,0:0:0:0:
133,286,36707,2,0,P|141:243|101:223,1,95.9999970703126
379,287,37040,2,0,P|369:244|409:223,1,95.9999970703126,2|0,0:0|0:0,0:0:0:0:
188,331,37374,5,0,0:0:0:0:
324,330,37540,1,0,0:0:0:0:
185,46,37707,1,2,0:0:0:0:
324,47,37874,1,0,0:0:0:0:
103,154,38040,1,0,0:0:0:0:
409,152,38207,1,0,0:0:0:0:
102,224,38374,1,2,0:0:0:0:
409,223,38540,1,0,0:0:0:0:
188,331,38707,6,0,P|229:311|256:348,1,95.9999970703126
103,154,39040,1,2,0:0:0:0:
133,287,39207,1,0,0:0:0:0:
409,152,39374,1,0,0:0:0:0:
409,152,39457,1,0,0:0:0:0:
409,152,39540,1,0,0:0:0:0:
185,46,39707,2,0,P|172:142|103:154,1,180.000006866455,2|0,0:0|0:0,0:0:0:0:
131,89,40040,5,4,0:0:0:0:
185,46,40124,1,0,0:0:0:0:
256,32,40207,1,0,0:0:0:0:
324,47,40290,1,0,0:0:0:0:
379,90,40374,2,0,B|331:114|298:71|298:71|335:37,1,128,2|0,0:0|0:0,0:0:0:0:
409,152,40707,2,0,P|342:101|324:34,1,143.999995605469
409,152,41040,2,0,B|377:141|360:121|360:121|352:103|366:79|366:79|389:98,1,120.000004577637,2|0,0:0|0:0,0:0:0:0:
409,223,41374,6,0,P|379:292|318:332,1,143.999995605469,4|2,0:0|0:0,0:0:0:0:
324,330,41707,1,0,0:0:0:0:
103,154,41874,1,0,0:0:0:0:
324,47,42040,1,0,0:0:0:0:
131,89,42207,1,0,0:0:0:0:
379,90,42374,1,2,0:0:0:0:
185,46,42540,1,0,0:0:0:0:
409,152,42707,6,0,P|411:223|376:291,1,143.999995605469,0|2,0:0|0:0,0:0:0:0:
379,287,43040,1,0,0:0:0:0:
102,224,43207,1,0,0:0:0:0:
324,47,43374,1,0,0:0:0:0:
409,152,43540,1,0,0:0:0:0:
379,90,43707,1,2,0:0:0:0:
409,223,43874,1,0,0:0:0:0:
409,152,44040,5,0,0:0:0:0:
409,223,44124,1,0,0:0:0:0:
379,287,44207,1,0,0:0:0:0:
324,330,44290,1,0,0:0:0:0:
256,345,44374,1,2,0:0:0:0:
188,331,44457,1,0,0:0:0:0:
133,287,44540,1,0,0:0:0:0:
133,287,44707,5,0,0:0:0:0:
188,331,44790,1,0,0:0:0:0:
256,345,44873,1,0,0:0:0:0:
324,330,44957,1,0,0:0:0:0:
379,287,45040,1,2,0:0:0:0:
409,223,45123,1,0,0:0:0:0:
409,152,45207,1,0,0:0:0:0:
324,47,45374,5,0,0:0:0:0:
256,32,45457,1,0,0:0:0:0:
185,46,45540,1,0,0:0:0:0:
131,89,45624,1,0,0:0:0:0:
103,154,45707,1,2,0:0:0:0:
102,224,45790,1,0,0:0:0:0:
133,287,45874,1,0,0:0:0:0:
188,331,45957,1,0,0:0:0:0:
256,345,46040,5,0,0:0:0:0:
324,330,46124,1,0,0:0:0:0:
379,287,46207,1,0,0:0:0:0:
409,223,46290,1,0,0:0:0:0:
409,152,46374,1,2,0:0:0:0:
379,90,46457,1,0,0:0:0:0:
324,47,46540,1,0,0:0:0:0:
256,32,46624,1,0,0:0:0:0:
185,46,46707,6,0,P|259:160|319:38,1,320,4|0,1:0|0:0,0:0:0:0:
324,47,48374,1,0,0:0:0:0:
256,32,48707,1,0,0:0:0:0:
185,46,49040,1,0,0:0:0:0:
185,46,49374,6,0,P|259:160|319:38,1,320,4|0,1:0|0:0,0:0:0:0:
256,32,51040,1,0,0:0:0:0:
185,46,51374,1,0,0:0:0:0:
131,89,51707,1,0,0:0:0:0:
103,154,52040,6,0,P|17:66|132:94,1,320,4|0,1:0|0:0,0:0:0:0:
103,154,53707,1,0,0:0:0:0:
102,224,54040,1,0,0:0:0:0:
133,287,54374,1,0,0:0:0:0:
188,331,54707,6,0,B|256:312|296:332|296:356|344:356|384:356|417:340|432:322|432:322|409:291|369:285,1,320,4|0,1:0|0:0,0:0:0:0:
379,287,56874,5,2,0:0:0:0:
324,330,57040,1,2,0:0:0:0:
256,345,57207,1,2,0:0:0:0:
188,331,57374,6,0,P|257:229|312:350,1,287.999991210938,4|2,0:0|0:0,0:0:0:0:
188,331,57874,1,0,0:0:0:0:
133,287,58040,2,0,B|177:286|177:286|215:302|242:323|261:353,1,143.999995605469
188,331,58290,1,0,0:0:0:0:
133,287,58374,2,0,B|138:256|144:246|144:246|188:265|189:344,1,143.999995605469,2|0,0:0|0:0,0:0:0:0:
102,224,58707,6,0,P|67:92|191:48,1,287.999991210938,0|2,0:0|0:0,0:0:0:0:
133,287,59207,1,0,0:0:0:0:
103,154,59374,2,0,P|115:113|133:87,1,71.9999978027344
185,46,59540,2,0,P|226:37|266:31,1,71.9999978027344
324,47,59707,2,0,P|231:61|183:44,1,143.999995605469,2|0,0:0|0:0,0:0:0:0:
255,32,59957,1,0,0:0:0:0:
324,47,60040,6,0,P|355:62|381:94,1,71.9999978027344
131,89,60207,2,0,P|157:57|194:45,1,71.9999978027344
409,152,60374,2,0,P|414:189|405:236,1,71.9999978027344,2|0,0:0|0:0,0:0:0:0:
102,224,60540,2,0,P|95:195|103:154,1,71.9999978027344
255,32,60707,2,0,P|168:88|124:88,1,143.999995605469
409,152,61040,1,2,0:0:0:0:
188,331,61207,6,0,P|255:226|381:293,1,287.999991210938
256,345,61707,1,2,0:0:0:0:
409,152,61874,1,0,0:0:0:0:
324,330,62040,1,0,0:0:0:0:
379,90,62207,1,0,0:0:0:0:
188,331,62374,2,0,P|242:292|251:351,1,143.999995605469,2|0,0:0|0:0,0:0:0:0:
188,331,62624,1,0,0:0:0:0:
133,287,62707,5,0,0:0:0:0:
103,154,62874,1,0,0:0:0:0:
188,331,63040,1,2,0:0:0:0:
131,89,63207,1,0,0:0:0:0:
256,345,63374,1,0,0:0:0:0:
185,46,63540,1,0,0:0:0:0:
324,330,63707,1,2,0:0:0:0:
255,32,63874,1,0,0:0:0:0:
379,287,64040,6,0,P|313:340|244:343,1,143.999995605469
409,152,64374,1,2,0:0:0:0:
379,287,64540,2,0,P|256:351|130:283,1,287.999991210938
379,90,65040,2,0,P|411:143|405:232,1,143.999995605469,2|0,0:0|0:0,0:0:0:0:
188,331,65374,5,4,0:0:0:0:
185,46,65540,1,0,0:0:0:0:
409,223,65707,1,0,0:0:0:0:
133,287,65874,5,4,0:0:0:0:
255,32,66040,1,0,0:0:0:0:
379,287,66207,1,0,0:0:0:0:
102,224,66374,5,4,0:0:0:0:
324,47,66540,1,0,0:0:0:0:
324,330,66707,1,0,0:0:0:0:
103,154,66874,5,4,0:0:0:0:
379,90,67040,1,0,0:0:0:0:
256,345,67207,1,0,0:0:0:0:
131,89,67374,6,0,B|191:120|183:199|183:199|149:219|76:228,1,215.999993408203,6|0,0:0|0:0,0:0:0:0:
103,154,67707,2,0,B|111:113|129:87|129:87|167:111|210:97|210:97|182:76|185:33,1,215.999993408203,2|0,0:0|0:0,0:0:0:0:
255,32,68040,6,0,P|233:117|126:73,1,215.999993408203,4|0,0:0|0:0,0:0:0:0:
185,46,68374,1,2,0:0:0:0:
324,47,68540,2,0,P|249:153|131:88,1,287.999991210938
379,287,69040,2,0,P|376:219|410:151,1,143.999995605469,2|0,0:0|0:0,0:0:0:0:
133,287,69374,6,0,P|216:250|250:355,1,215.999993408203,4|0,0:0|0:0,0:0:0:0:
188,331,69707,1,2,0:0:0:0:
102,224,69874,2,0,P|211:202|255:346,1,287.999991210938
379,89,70374,2,0,P|309:78|255:32,1,143.999995605469,2|0,0:0|0:0,0:0:0:0:
379,287,70707,6,0,B|331:261|320:197|320:197|344:152|421:152,1,215.999993408203,4|0,0:0|0:0,0:0:0:0:
409,223,71040,1,2,0:0:0:0:
324,330,71207,2,0,B|275:247|280:189|280:189|342:140|420:154,1,287.999991210938
185,46,71707,2,0,B|161:117|161:117|90:162,1,143.999995605469,2|0,0:0|0:0,0:0:0:0:
324,47,72040,5,0,0:0:0:0:
188,331,72207,1,0,0:0:0:0:
131,89,72374,1,2,0:0:0:0:
379,287,72540,1,0,0:0:0:0:
102,224,72707,6,0,P|184:221|186:333,1,215.999993408203
133,287,73040,2,0,B|178:253|251:257|251:257|229:303|262:355,1,215.999993408203,2|0,0:0|0:0,0:0:0:0:
324,330,73374,6,0,B|315:319|315:319|255:305|188:331,1,143.999995605469,4|0,0:0|0:0,0:0:0:0:
188,331,73624,1,0,0:0:0:0:
188,331,73707,1,2,0:0:0:0:
255,32,73874,1,0,0:0:0:0:
409,223,74040,6,0,P|374:159|381:85,1,143.999995605469
379,90,74290,1,0,0:0:0:0:
379,90,74374,1,2,0:0:0:0:
102,224,74540,1,0,0:0:0:0:
255,32,74707,6,0,P|197:81|126:88,1,143.999995605469
131,88,74957,1,0,0:0:0:0:
131,89,75040,1,2,0:0:0:0:
409,152,75207,1,0,0:0:0:0:
185,46,75374,5,0,0:0:0:0:
379,90,75540,1,0,0:0:0:0:
102,224,75707,1,2,0:0:0:0:
379,287,75874,1,0,0:0:0:0:
255,32,76040,5,0,0:0:0:0:
133,287,76207,1,2,0:0:0:0:
255,32,76374,1,0,0:0:0:0:
379,287,76540,1,2,0:0:0:0:
131,89,76707,1,2,0:0:0:0:
379,90,76874,1,0,0:0:0:0:
256,345,77040,1,2,0:0:0:0:
255,32,77207,6,0,P|142:73|109:242,1,287.999991210938
256,345,77707,1,2,0:0:0:0:
409,223,77874,1,0,0:0:0:0:
255,32,78040,2,0,P|308:78|404:84,1,143.999995605469
255,32,78374,2,0,P|177:47|130:91,1,143.999995605469,2|0,0:0|0:0,0:0:0:0:
256,345,78707,5,8,0:0:0:0:
379,287,79040,1,8,0:0:0:0:
409,223,79374,5,2,3:0:0:0:
409,152,79540,1,2,3:0:0:0:
379,90,79707,1,4,0:0:0:0:
379,287,79874,1,2,3:0:0:0:
324,47,80040,5,8,0:0:0:0:
379,287,80207,1,0,0:0:0:0:
379,287,80290,1,0,0:0:0:0:
379,287,80374,1,8,0:0:0:0:
255,32,80540,1,8,0:0:0:0:
379,287,80707,1,8,0:0:0:0:
185,46,80874,5,2,3:0:0:0:
131,89,81040,1,2,3:0:0:0:
103,154,81207,1,2,3:0:0:0:
102,224,81374,6,0,P|91:263|140:285,1,95.9999970703126,4|0,0:0|0:0,0:0:0:0:
133,287,81624,1,0,0:0:0:0:
133,287,81707,1,2,0:0:0:0:
409,152,81874,1,0,0:0:0:0:
324,330,82040,1,0,0:0:0:0:
324,330,82124,2,0,B|313:306|313:306|354:304|388:281,1,95.9999970703126
409,223,82374,1,2,0:0:0:0:
409,152,82457,1,0,0:0:0:0:
379,90,82540,1,0,0:0:0:0:
324,47,82624,1,0,0:0:0:0:
254,30,82707,6,0,P|172:48|123:104,1,143.999995605469
103,154,83040,2,0,P|101:234|143:296,1,143.999995605469,2|0,0:0|0:0,0:0:0:0:
133,286,83374,2,0,P|137:215|103:154,1,143.999995605469
131,89,83707,2,0,P|201:78|254:30,1,143.999995605469,2|0,0:0|0:0,0:0:0:0:
324,47,84040,6,0,B|305:17|277:7|277:7|254:31,1,95.9999970703126
254,30,84290,1,0,0:0:0:0:
254,30,84374,1,2,0:0:0:0:
133,287,84540,1,0,0:0:0:0:
188,331,84624,1,0,0:0:0:0:
256,345,84707,2,0,P|306:342|381:284,1,143.999995605469
409,222,85040,2,0,P|348:235|381:288,1,143.999995605469,2|0,0:0|0:0,0:0:0:0:
409,223,85374,5,0,0:0:0:0:
409,152,85457,1,0,0:0:0:0:
379,90,85540,1,0,0:0:0:0:
324,47,85624,1,0,0:0:0:0:
254,30,85707,1,2,0:0:0:0:
185,46,85790,1,0,0:0:0:0:
131,89,85874,1,0,0:0:0:0:
103,154,85957,1,0,0:0:0:0:
102,224,86040,6,0,P|130:185|99:153,1,95.9999970703126
102,224,86374,2,0,P|165:161|121:84,1,180.000006866455,2|0,0:0|0:0,0:0:0:0:
103,154,86707,2,0,P|76:183|111:226,1,95.9999970703126,4|0,0:0|0:0,0:0:0:0:
379,287,87040,5,2,0:0:0:0:
409,223,87124,1,0,0:0:0:0:
409,152,87207,1,0,0:0:0:0:
324,330,87374,1,0,0:0:0:0:
256,345,87457,1,0,0:0:0:0:
188,331,87540,1,0,0:0:0:0:
133,287,87624,1,0,0:0:0:0:
102,224,87707,2,0,P|98:161|141:78,1,143.999995605469,2|0,0:0|0:0,0:0:0:0:
185,46,88040,6,0,B|199:89|175:128|175:128|127:85,1,143.999995605469
185,46,88374,2,0,P|245:30|331:51,1,143.999995605469,2|0,0:0|0:0,0:0:0:0:
379,90,88707,1,0,0:0:0:0:
324,330,88874,1,0,0:0:0:0:
324,330,88957,1,0,0:0:0:0:
324,330,89040,1,2,0:0:0:0:
409,223,89207,1,0,0:0:0:0:
188,331,89374,5,2,0:0:0:0:
102,224,89485,1,2,0:0:0:0:
131,89,89596,1,0,0:0:0:0:
254,30,89707,1,0,0:0:0:0:
379,90,89818,1,2,0:0:0:0:
409,223,89929,1,0,0:0:0:0:
324,330,90040,6,0,P|326:278|379:287,1,120.000004577637
324,330,90374,1,2,0:0:0:0:
324,330,90457,2,0,P|217:345|172:319,1,143.999995605469
133,287,90790,5,0,0:0:0:0:
102,224,90874,1,0,0:0:0:0:
131,89,91040,2,0,B|152:123|133:151|133:151|95:155,1,95.9999970703126,2|0,0:0|0:0,0:0:0:0:
131,89,91374,2,0,P|172:145|95:224,1,191.999994140625,0|2,0:0|0:0,0:0:0:0:
185,46,91874,1,0,0:0:0:0:
379,90,92040,6,0,P|332:87|324:43,1,95.9999970703126,4|0,0:0|0:0,0:0:0:0:
323,46,92290,1,0,0:0:0:0:
323,46,92374,1,2,0:0:0:0:
409,223,92540,1,0,0:0:0:0:
409,223,92624,1,0,0:0:0:0:
409,223,92707,2,0,P|374:160|379:90,1,143.999995605469
323,46,93040,2,0,P|335:90|379:90,1,95.9999970703126,2|0,0:0|0:0,0:0:0:0:
185,46,93374,5,0,0:0:0:0:
131,89,93457,1,0,0:0:0:0:
103,154,93540,1,0,0:0:0:0:
102,224,93624,1,0,0:0:0:0:
133,287,93707,2,0,P|134:203|93:145,1,143.999995605469,2|0,0:0|0:0,0:0:0:0:
102,224,94040,2,0,B|71:182|71:182|82:161|106:153,1,95.9999970703126
188,331,94374,2,0,P|136:340|139:282,1,120.000004577637,2|0,0:0|0:0,0:0:0:0:
324,330,94707,6,0,P|256:351|178:324,1,143.999995605469
133,287,95040,1,2,0:0:0:0:
185,46,95207,1,0,0:0:0:0:
185,46,95290,1,0,0:0:0:0:
185,46,95374,1,0,0:0:0:0:
409,152,95540,1,0,0:0:0:0:
409,223,95707,2,0,P|382:185|414:151,1,95.9999970703126,2|0,0:0|0:0,0:0:0:0:
379,287,96040,6,0,P|358:239|421:235,1,120.000004577637,4|0,0:0|0:0,0:0:0:0:
379,287,96374,2,0,P|377:218|414:146,1,143.999995605469,2|0,0:0|0:0,0:0:0:0:
409,152,96624,1,0,0:0:0:0:
409,152,96707,1,0,0:0:0:0:
102,224,96874,1,0,0:0:0:0:
103,154,96957,1,0,0:0:0:0:
131,89,97040,2,0,P|131:168|100:227,1,143.999995605469,2|0,0:0|0:0,0:0:0:0:
254,30,97374,5,4,0:0:0:0:
188,331,97540,1,0,0:0:0:0:
409,223,97707,2,0,P|378:293|313:334,1,143.999995605469,2|0,0:0|0:0,0:0:0:0:
256,345,98040,1,0,0:0:0:0:
133,287,98207,2,0,P|175:286|184:338,1,95.9999970703126,0|2,0:0|0:0,0:0:0:0:
102,224,98540,1,0,0:0:0:0:
379,90,98707,5,0,0:0:0:0:
188,331,98874,1,0,0:0:0:0:
133,287,98957,1,0,0:0:0:0:
102,224,99040,1,2,0:0:0:0:
379,90,99207,1,0,0:0:0:0:
103,154,99374,1,0,0:0:0:0:
131,89,99457,1,0,0:0:0:0:
185,46,99540,1,0,0:0:0:0:
409,152,99707,2,0,P|365:148|380:89,1,120.000004577637,2|0,0:0|0:0,0:0:0:0:
409,223,100040,5,0,0:0:0:0:
379,287,100124,1,0,0:0:0:0:
324,330,100207,1,0,0:0:0:0:
256,345,100290,1,0,0:0:0:0:
188,331,100374,2,0,B|170:271|170:271|225:283|262:356,1,180.000006866455,2|0,0:0|0:0,0:0:0:0:
188,331,100707,2,0,B|260:289|335:305|335:305|320:340,1,180.000006866455
256,345,101040,2,0,B|265:289|265:289|318:247|380:288,1,180.000006866455,2|0,0:0|0:0,0:0:0:0:
379,287,101374,5,4,0:0:0:0:
324,329,101707,1,4,0:0:0:0:
409,223,102040,1,4,0:0:0:0:
256,345,102374,1,4,0:0:0:0:
409,152,102707,6,0,P|381:83|298:43,1,143.999995605469,4|8,0:0|0:0,0:0:0:0:
131,89,103290,1,0,0:0:0:0:
131,89,103374,1,0,0:0:0:0:
379,287,103624,1,0,0:0:0:0:
379,287,103707,1,8,0:0:0:0:
133,287,103957,1,0,0:0:0:0:
133,287,104040,1,0,0:0:0:0:
409,223,104290,5,0,0:0:0:0:
409,152,104374,1,8,0:0:0:0:
256,345,104624,1,0,0:0:0:0:
324,329,104707,1,0,0:0:0:0:
102,224,104957,1,0,0:0:0:0:
133,287,105040,1,8,0:0:0:0:
185,46,105290,5,0,0:0:0:0:
131,89,105374,2,0,P|208:74|258:23,1,143.999995605469,4|8,0:0|0:0,0:0:0:0:
102,224,105957,1,0,0:0:0:0:
103,154,106040,2,0,P|90:101|142:95,1,107.999996704102
103,154,106374,1,8,0:0:0:0:
185,46,106624,5,0,0:0:0:0:
254,30,106707,1,0,0:0:0:0:
324,47,106790,1,0,0:0:0:0:
379,90,106874,1,0,0:0:0:0:
409,152,106957,1,0,0:0:0:0:
379,90,107041,1,8,0:0:0:0:
324,47,107124,1,0,0:0:0:0:
254,30,107207,1,0,0:0:0:0:
185,46,107290,1,0,0:0:0:0:
131,89,107374,2,0,P|179:95|174:37,1,107.999996704102,0|8,0:0|0:0,0:0:0:0:
133,287,107957,5,8,0:0:0:0:
102,224,108040,2,0,P|155:260|188:332,1,143.999995605469,4|8,0:0|0:0,0:0:0:0:
409,152,108624,1,0,0:0:0:0:
409,152,108707,1,0,0:0:0:0:
256,345,108957,1,0,0:0:0:0:
256,345,109040,1,8,0:0:0:0:
324,47,109290,1,0,0:0:0:0:
324,47,109374,1,0,0:0:0:0:
103,154,109624,5,0,0:0:0:0:
131,89,109707,1,8,0:0:0:0:
379,90,109957,1,0,0:0:0:0:
409,152,110040,1,0,0:0:0:0:
256,345,110290,1,0,0:0:0:0:
188,331,110374,1,8,0:0:0:0:
409,223,110624,5,0,0:0:0:0:
379,287,110707,2,0,P|381:201|414:147,1,143.999995605469,4|8,0:0|0:0,0:0:0:0:
185,46,111290,1,0,0:0:0:0:
185,46,111374,1,0,0:0:0:0:
379,90,111624,1,0,0:0:0:0:
379,90,111707,1,8,0:0:0:0:
131,89,111957,1,0,0:0:0:0:
131,89,112040,1,8,3:0:0:0:
131,89,112707,1,8,3:0:0:0:
103,154,112873,5,2,0:0:0:0:
102,224,113040,1,2,0:0:0:0:
133,287,113207,1,2,0:0:0:0:
188,331,113374,6,0,B|151:188|221:188|181:29,1,287.999991210938,4|2,0:0|0:0,0:0:0:0:
103,154,113874,1,0,0:0:0:0:
324,47,114040,2,0,P|243:31|163:59,1,143.999995605469
131,89,114290,1,0,0:0:0:0:
103,154,114374,2,0,P|131:83|195:43,1,143.999995605469,2|0,0:0|0:0,0:0:0:0:
324,47,114707,6,0,P|400:114|409:223,1,215.999993408203
379,287,115040,1,2,0:0:0:0:
188,331,115207,1,0,0:0:0:0:
379,90,115374,2,0,P|401:115|408:158,1,71.9999978027344
379,287,115540,2,0,P|400:254|410:215,1,71.9999978027344
254,30,115707,2,0,P|291:38|332:49,1,71.9999978027344,2|0,0:0|0:0,0:0:0:0:
256,345,115874,2,0,P|290:344|325:328,1,71.9999978027344
185,46,116040,6,0,P|142:70|127:106,1,71.9999978027344
185,46,116207,2,0,P|223:42|257:28,1,71.9999978027344
131,89,116374,2,0,P|106:134|103:158,1,71.9999978027344,2|0,0:0|0:0,0:0:0:0:
254,30,116540,2,0,P|291:38|332:49,1,71.9999978027344
379,90,116707,2,0,P|325:111|332:43,1,143.999995605469
409,152,117040,1,2,0:0:0:0:
324,46,117207,6,0,P|275:139|411:148,1,287.999991210938
324,329,117707,2,0,P|393:274|409:218,1,143.999995605469,2|0,0:0|0:0,0:0:0:0:
379,90,118040,1,0,0:0:0:0:
133,287,118207,1,0,0:0:0:0:
379,90,118374,1,2,0:0:0:0:
185,46,118540,1,0,0:0:0:0:
379,287,118707,5,0,0:0:0:0:
256,345,118874,1,0,0:0:0:0:
409,223,119040,1,2,0:0:0:0:
188,331,119207,1,0,0:0:0:0:
409,152,119374,1,0,0:0:0:0:
133,287,119540,1,0,0:0:0:0:
379,90,119707,1,2,0:0:0:0:
102,224,119874,1,0,0:0:0:0:
324,47,120040,6,0,P|244:30|171:54,1,143.999995605469
409,223,120374,1,2,0:0:0:0:
324,47,120540,2,0,P|278:137|413:222,1,287.999991210938
324,47,121040,2,0,P|386:90|410:157,1,143.999995605469,2|0,0:0|0:0,0:0:0:0:
256,345,121374,5,4,0:0:0:0:
131,89,121540,1,0,0:0:0:0:
409,152,121707,1,0,0:0:0:0:
188,331,121874,5,4,0:0:0:0:
185,46,122040,1,0,0:0:0:0:
409,223,122207,1,0,0:0:0:0:
133,287,122374,5,4,0:0:0:0:
255,32,122540,1,0,0:0:0:0:
379,287,122707,1,0,0:0:0:0:
102,224,122874,5,4,0:0:0:0:
324,47,123040,1,0,0:0:0:0:
324,330,123207,1,0,0:0:0:0:
103,154,123374,6,0,P|185:203|119:288,1,215.999993408203,6|0,0:0|0:0,0:0:0:0:
102,224,123707,2,0,P|201:252|257:355,1,215.999993408203,2|0,0:0|0:0,0:0:0:0:
188,331,124040,6,0,B|247:273|247:273|316:271|397:291,1,215.999993408203,4|0,0:0|0:0,0:0:0:0:
324,330,124374,1,2,0:0:0:0:
409,223,124540,2,0,P|451:333|321:323,1,287.999991210938
255,32,125040,2,0,B|285:30|321:39|321:39|383:93,1,143.999995605469,2|0,0:0|0:0,0:0:0:0:
324,330,125374,6,0,B|217:344|217:344|148:338|131:281,1,215.999993408203,4|0,0:0|0:0,0:0:0:0:
188,331,125707,1,2,0:0:0:0:
103,154,125874,2,0,P|230:219|186:333,1,287.999991210938
185,46,126374,2,0,P|249:30|328:49,1,143.999995605469,2|0,0:0|0:0,0:0:0:0:
379,287,126707,6,0,B|337:195|337:195|339:136|382:87,1,215.999993408203,4|0,0:0|0:0,0:0:0:0:
409,152,127040,1,2,0:0:0:0:
185,46,127207,2,0,P|329:45|411:166,1,287.999991210938
188,331,127707,2,0,P|119:272|100:205,1,143.999995605469,2|0,0:0|0:0,0:0:0:0:
255,32,128040,5,0,0:0:0:0:
324,330,128207,1,0,0:0:0:0:
103,154,128374,1,2,0:0:0:0:
409,152,128540,1,0,0:0:0:0:
188,331,128707,6,0,B|154:307|161:260|161:260|209:274|253:298|256:351,1,215.999993408203
188,331,129040,2,0,B|269:298|358:305|358:305|321:332,1,215.999993408203,4|0,0:0|0:0,0:0:0:0:
255,345,129374,6,0,P|322:293|381:287,1,143.999995605469,4|0,0:0|0:0,0:0:0:0:
379,287,129624,1,0,0:0:0:0:
379,287,129707,1,2,0:0:0:0:
185,46,129874,1,0,0:0:0:0:
409,223,130040,6,0,B|447:130|447:130|406:154,1,143.999995605469
409,152,130290,1,0,0:0:0:0:
409,152,130374,1,2,0:0:0:0:
133,287,130540,1,0,0:0:0:0:
324,330,130707,6,0,P|249:310|180:337,1,143.999995605469
188,331,130957,1,0,0:0:0:0:
188,331,131040,1,2,0:0:0:0:
324,47,131207,1,0,0:0:0:0:
379,287,131374,5,0,0:0:0:0:
185,46,131540,1,0,0:0:0:0:
379,90,131707,1,2,0:0:0:0:
102,224,131874,1,0,0:0:0:0:
379,287,132040,5,0,0:0:0:0:
185,46,132207,1,2,0:0:0:0:
255,344,132374,1,0,0:0:0:0:
324,47,132540,1,2,0:0:0:0:
103,154,132707,1,2,0:0:0:0:
409,152,132874,1,0,0:0:0:0:
133,287,133040,1,2,0:0:0:0:
379,287,133207,6,0,P|414:155|315:43,1,287.999991210938
379,287,133707,1,2,0:0:0:0:
185,46,133874,1,0,0:0:0:0:
324,330,134040,2,0,P|393:271|410:208,1,143.999995605469
185,46,134374,2,0,P|125:91|104:176,1,143.999995605469,2|0,0:0|0:0,0:0:0:0:
133,287,134707,5,4,0:0:0:0:
324,330,135040,2,0,P|353:317|383:278,1,71.9999978027344
409,152,135374,2,0,P|395:265|367:298,1,143.999995605469,8|0,0:0|0:0,0:0:0:0:
131,89,136040,5,0,0:0:0:0:
324,47,136374,2,0,P|365:70|386:108,1,71.9999978027344
409,222,136707,1,8,0:0:0:0:
409,152,136874,1,0,0:0:0:0:
379,90,137040,1,8,0:0:0:0:
324,47,137207,1,0,0:0:0:0:
255,32,137374,6,0,P|201:36|125:100,1,143.999995605469
103,154,137874,1,0,0:0:0:0:
102,224,138040,1,8,0:0:0:0:
324,330,138374,2,0,P|353:317|383:278,1,71.9999978027344
409,223,138707,6,0,P|327:220|328:333,1,215.999993408203,4|0,0:0|0:0,0:0:0:0:
324,329,139374,2,0,P|380:291|410:217,1,143.999995605469,12|0,0:0|0:0,0:0:0:0:
185,46,140040,5,4,0:0:0:0:
324,47,140374,2,0,P|292:34|248:33,1,71.9999978027344
185,46,140707,2,0,P|261:31|324:47,1,143.999995605469,8|0,0:0|0:0,0:0:0:0:
103,154,141374,5,0,0:0:0:0:
185,46,141707,2,0,P|147:65|128:98,1,71.9999978027344
103,154,142040,1,8,0:0:0:0:
131,89,142207,1,0,0:0:0:0:
185,46,142374,1,8,0:0:0:0:
255,32,142540,1,0,0:0:0:0:
324,47,142707,6,0,P|374:76|409:153,1,143.999995605469
409,223,143207,1,0,0:0:0:0:
409,152,143374,2,0,P|384:86|325:47,1,143.999995605469,8|0,0:0|0:0,0:0:0:0:
255,32,143874,1,0,0:0:0:0:
185,46,144040,5,0,0:0:0:0:
131,89,144124,1,0,0:0:0:0:
103,154,144207,1,0,0:0:0:0:
102,224,144290,1,0,0:0:0:0:
133,287,144374,1,8,0:0:0:0:
188,331,144457,1,0,0:0:0:0:
255,344,144540,1,0,0:0:0:0:
324,330,144624,1,0,0:0:0:0:
379,287,144707,2,0,P|300:133|179:43,1,320,4|0,0:0|0:0,0:0:0:0:
133,287,156040,5,2,3:0:0:0:
255,344,156207,1,2,3:0:0:0:
324,330,156290,1,2,3:0:0:0:
379,287,156374,1,2,3:0:0:0:
409,222,156456,1,2,3:0:0:0:
409,152,156540,1,2,3:0:0:0:
379,90,156623,1,2,3:0:0:0:
324,47,156707,2,0,P|352:115|409:152,1,143.999995605469
255,32,157040,2,0,P|187:42|129:92,1,143.999995605469,2|0,0:0|0:0,0:0:0:0:
102,224,157374,5,0,0:0:0:0:
409,222,157540,1,0,0:0:0:0:
185,46,157707,1,2,0:0:0:0:
255,344,157874,1,0,0:0:0:0:
324,47,158040,2,0,P|258:30|178:50,1,143.999995605469
188,331,158374,2,0,P|271:350|331:325,1,143.999995605469,2|0,0:0|0:0,0:0:0:0:
409,222,158707,6,0,P|314:192|341:333,1,287.999991210938,0|2,0:0|0:0,0:0:0:0:
379,287,159207,1,0,0:0:0:0:
409,152,159374,2,0,B|375:84|375:84|339:140|344:230|386:299,1,287.999991210938,0|2,0:0|0:0,0:0:0:0:
409,222,159874,1,0,0:0:0:0:
185,46,160040,5,0,0:0:0:0:
255,344,160206,1,0,0:0:0:0:
324,47,160373,1,2,0:0:0:0:
102,224,160540,1,0,0:0:0:0:
409,222,160707,2,0,P|414:148|376:87,1,143.999995605469
103,154,161040,2,0,P|98:222|136:290,1,143.999995605469,2|0,0:0|0:0,0:0:0:0:
255,344,161374,5,0,0:0:0:0:
324,47,161540,1,0,0:0:0:0:
255,344,161707,1,2,0:0:0:0:
131,89,161874,1,0,0:0:0:0:
324,47,162040,2,0,P|403:121|378:288,1,287.999991210938,0|2,0:0|0:0,0:0:0:0:
188,331,162540,1,0,0:0:0:0:
379,286,162707,6,0,P|336:327|241:342,1,143.999995605469
255,32,163040,1,2,0:0:0:0:
379,286,163207,1,0,0:0:0:0:
131,89,163374,2,0,P|196:38|259:32,1,143.999995605469
324,47,163707,2,0,P|255:72|258:28,1,143.999995605469,2|0,0:0|0:0,0:0:0:0:
324,47,164040,6,0,P|390:95|407:180,1,143.999995605469,4|0,0:0|0:0,0:0:0:0:
379,286,164374,1,2,0:0:0:0:
102,224,164540,1,0,0:0:0:0:
131,89,164707,2,0,P|196:38|259:32,1,143.999995605469
409,152,165040,2,0,P|384:86|315:45,1,143.999995605469,2|0,0:0|0:0,0:0:0:0:
185,46,165374,5,4,3:0:0:0:
102,224,165707,1,4,3:0:0:0:
255,344,166040,1,4,3:0:0:0:
409,222,166374,1,4,3:0:0:0:
188,331,166707,5,2,0:0:0:0:
255,344,167040,1,0,0:0:0:0:
324,330,167374,1,2,0:0:0:0:
379,286,167707,1,0,0:0:0:0:
255,344,168040,5,2,0:0:0:0:
324,330,168207,1,2,0:0:0:0:
379,286,168374,1,2,0:0:0:0:
409,222,168540,1,2,0:0:0:0:
379,90,168707,1,2,0:0:0:0:
255,32,168874,1,2,0:0:0:0:
131,89,169040,1,2,0:0:0:0:
102,224,169207,1,2,0:0:0:0:
188,331,169374,6,0,B|192:168|62:185|62:185|72:220|120:229,1,287.999991210938,4|2,0:0|0:0,0:0:0:0:
131,89,169874,1,0,0:0:0:0:
102,224,170040,2,0,P|137:128|123:68,1,143.999995605469
103,154,170290,1,0,0:0:0:0:
102,224,170374,2,0,P|101:143|142:78,1,143.999995605469,2|0,0:0|0:0,0:0:0:0:
255,32,170707,6,0,P|369:72|409:154,1,215.999993408203
409,222,171040,1,2,0:0:0:0:
103,154,171207,1,0,0:0:0:0:
188,331,171374,2,0,P|151:310|129:278,1,71.9999978027344
324,330,171540,2,0,P|296:342|248:343,1,71.9999978027344
131,89,171707,2,0,P|178:46|259:32,1,143.999995605469,2|0,0:0|0:0,0:0:0:0:
324,47,171957,1,0,0:0:0:0:
379,90,172040,6,0,P|356:62|321:46,1,71.9999978027344
379,286,172207,2,0,P|353:316|309:333,1,71.9999978027344
131,89,172374,2,0,P|152:60|201:46,1,71.9999978027344,2|0,0:0|0:0,0:0:0:0:
133,287,172540,2,0,P|156:314|188:330,1,71.9999978027344
409,152,172707,2,0,P|407:241|368:297,1,143.999995605469
379,90,173040,1,2,0:0:0:0:
131,89,173207,6,0,P|256:27|385:99,1,287.999991210938
255,32,173707,2,0,P|181:86|126:88,1,143.999995605469,2|0,0:0|0:0,0:0:0:0:
324,47,174040,1,0,0:0:0:0:
133,287,174207,5,0,0:0:0:0:
409,222,174374,1,2,0:0:0:0:
131,89,174540,1,0,0:0:0:0:
255,344,174707,5,0,0:0:0:0:
133,287,174874,1,0,0:0:0:0:
324,330,175040,1,2,0:0:0:0:
102,224,175207,1,0,0:0:0:0:
379,286,175374,1,0,0:0:0:0:
103,154,175540,1,0,0:0:0:0:
409,222,175707,1,2,0:0:0:0:
131,89,175874,1,0,0:0:0:0:
409,152,176040,6,0,P|381:83|311:44,1,143.999995605469
255,344,176374,1,2,0:0:0:0:
185,46,176540,2,0,P|105:128|138:293,1,287.999991210938
379,286,177040,2,0,P|408:238|407:146,1,143.999995605469,2|0,0:0|0:0,0:0:0:0:
255,32,177374,5,4,0:0:0:0:
379,287,177541,1,0,0:0:0:0:
102,224,177707,1,0,0:0:0:0:
324,47,177874,5,4,0:0:0:0:
324,330,178040,1,0,0:0:0:0:
103,154,178207,1,0,0:0:0:0:
379,90,178374,5,4,0:0:0:0:
256,345,178540,1,0,0:0:0:0:
131,89,178707,1,0,0:0:0:0:
409,152,178874,5,4,0:0:0:0:
188,331,179040,1,0,0:0:0:0:
185,46,179207,1,0,0:0:0:0:
409,222,179374,6,0,B|370:271|308:262|308:262|306:318|238:356,1,215.999993408203,6|0,0:0|0:0,0:0:0:0:
188,331,179707,2,0,B|199:302|185:271|185:271|236:310|270:330|342:331,1,215.999993408203,2|0,0:0|0:0,0:0:0:0:
256,345,180040,6,0,B|251:289|301:236|358:241|358:241|383:295,1,215.999993408203,4|0,0:0|0:0,0:0:0:0:
324,330,180374,1,2,0:0:0:0:
409,152,180540,2,0,P|450:268|315:326,1,287.999991210938
131,89,181040,2,0,P|176:47|265:34,1,143.999995605469,2|0,0:0|0:0,0:0:0:0:
409,152,181374,6,0,B|341:184|341:184|305:103|328:30,1,215.999993408203,4|0,0:0|0:0,0:0:0:0:
379,90,181707,1,2,0:0:0:0:
324,330,181874,2,0,P|293:182|401:83,1,287.999991210938
188,331,182374,2,0,P|142:302|101:214,1,143.999995605469,2|0,0:0|0:0,0:0:0:0:
379,90,182707,6,0,B|271:109|271:109|182:44,1,215.999993408203,4|0,0:0|0:0,0:0:0:0:
255,32,183040,1,2,0:0:0:0:
409,222,183207,2,0,P|394:103|241:33,1,287.999991210938
102,223,183707,2,0,P|130:289|188:331,1,143.999995605469,2|0,0:0|0:0,0:0:0:0:
379,287,184040,5,0,0:0:0:0:
131,89,184207,1,0,0:0:0:0:
188,331,184374,1,2,0:0:0:0:
324,47,184540,1,0,0:0:0:0:
131,89,184707,2,0,B|193:34|193:34|254:22|327:48,1,215.999993408203
379,89,185040,2,0,B|320:142|248:104|248:104|237:57|265:13,1,215.999993408203,2|0,0:0|0:0,0:0:0:0:
324,47,185374,6,0,P|258:63|180:43,1,143.999995605469,4|0,0:0|0:0,0:0:0:0:
185,46,185624,1,0,0:0:0:0:
185,46,185707,1,2,0:0:0:0:
255,344,185874,1,0,0:0:0:0:
409,152,186040,6,0,P|410:227|378:288,1,143.999995605469
379,287,186290,1,0,0:0:0:0:
379,287,186374,1,2,0:0:0:0:
103,154,186540,1,0,0:0:0:0:
324,47,186707,6,0,P|256:30|182:47,1,143.999995605469
185,46,186957,1,0,0:0:0:0:
185,46,187040,1,2,0:0:0:0:
255,344,187207,1,0,0:0:0:0:
255,32,187374,5,0,0:0:0:0:
255,344,187540,1,0,0:0:0:0:
103,154,187707,1,2,0:0:0:0:
409,152,187874,1,0,0:0:0:0:
133,287,188040,5,0,0:0:0:0:
324,47,188207,1,2,0:0:0:0:
103,154,188374,1,0,0:0:0:0:
409,222,188540,1,2,0:0:0:0:
185,46,188707,1,2,0:0:0:0:
255,344,188874,1,0,0:0:0:0:
324,47,189040,1,2,0:0:0:0:
255,344,189207,6,0,P|264:238|413:152,1,287.999991210938
255,344,189707,2,0,P|327:332|386:275,1,143.999995605469,2|0,0:0|0:0,0:0:0:0:
409,152,190040,1,0,0:0:0:0:
255,344,190207,1,0,0:0:0:0:
409,151,190374,2,0,P|376:218|381:291,1,143.999995605469,2|0,0:0|0:0,0:0:0:0:
324,47,190707,5,8,0:0:0:0:
255,32,190874,1,8,0:0:0:0:
379,90,191040,1,8,0:0:0:0:
185,46,191374,5,2,3:0:0:0:
409,152,191541,1,2,3:0:0:0:
185,46,191707,1,0,3:0:0:0:
409,222,191874,1,2,3:0:0:0:
409,222,191957,1,2,3:0:0:0:
409,222,192040,5,8,0:0:0:0:
131,89,192207,1,8,0:0:0:0:
379,287,192374,1,8,0:0:0:0:
103,154,192540,1,8,0:0:0:0:
324,330,192707,1,8,0:0:0:0:
102,224,192874,5,2,3:0:0:0:
133,287,193040,1,2,3:0:0:0:
188,331,193207,1,2,3:0:0:0:
255,344,193374,6,0,P|206:247|132:290,1,215.999993408203,4|0,0:0|0:0,0:0:0:0:
133,287,193707,1,2,0:0:0:0:
324,330,193874,1,0,0:0:0:0:
188,331,194040,2,0,P|251:350|327:328,1,143.999995605469
409,152,194374,1,2,0:0:0:0:
379,287,194540,1,0,0:0:0:0:
377,89,194707,5,0,0:0:0:0:
322,46,194790,1,0,0:0:0:0:
253,31,194873,1,0,0:0:0:0:
183,45,194957,1,0,0:0:0:0:
129,88,195040,1,2,0:0:0:0:
379,287,195207,1,0,0:0:0:0:
103,154,195374,2,0,P|101:233|141:295,1,143.999995605469
324,330,195707,2,0,P|390:274|411:199,1,143.999995605469,2|0,0:0|0:0,0:0:0:0:
409,152,195957,1,0,0:0:0:0:
377,88,196040,6,0,P|253:25|129:88,1,287.999991210938,0|2,0:0|0:0,0:0:0:0:
255,344,196540,1,0,0:0:0:0:
253,31,196707,2,0,P|331:47|381:95,1,143.999995605469
129,88,197040,2,0,P|188:82|257:25,1,143.999995605469,2|0,0:0|0:0,0:0:0:0:
377,89,197374,6,0,P|301:74|252:30,1,143.999995605469,0|2,0:0|0:0,0:0:0:0:
409,222,197707,1,0,0:0:0:0:
102,224,197874,1,0,0:0:0:0:
253,31,198040,1,2,0:0:0:0:
322,46,198123,1,0,0:0:0:0:
377,89,198206,1,0,0:0:0:0:
409,152,198290,1,0,0:0:0:0:
409,222,198374,1,2,0:0:0:0:
183,45,198540,1,2,0:0:0:0:
129,88,198623,1,2,0:0:0:0:
103,154,198707,6,0,P|110:262|264:343,1,287.999991210938,4|2,0:0|0:0,0:0:0:0:
409,152,199207,1,0,0:0:0:0:
103,154,199374,2,0,P|133:78|192:42,1,143.999995605469
324,330,199707,1,2,0:0:0:0:
183,45,199874,1,0,0:0:0:0:
409,222,200040,5,0,0:0:0:0:
103,154,200207,1,0,0:0:0:0:
103,154,200290,1,0,0:0:0:0:
103,154,200374,1,2,0:0:0:0:
377,89,200540,1,0,0:0:0:0:
324,330,200707,2,0,P|392:272|410:208,1,143.999995605469
324,330,201040,2,0,P|368:247|416:220,1,143.999995605469,2|0,0:0|0:0,0:0:0:0:
379,287,201290,1,0,0:0:0:0:
324,330,201374,6,0,P|291:187|383:87,1,287.999991210938,0|2,0:0|0:0,0:0:0:0:
324,330,201874,1,0,0:0:0:0:
253,31,202040,2,0,P|323:43|381:94,1,143.999995605469
409,222,202374,2,0,P|381:287|324:329,1,143.999995605469,2|0,0:0|0:0,0:0:0:0:
133,287,202707,5,2,0:0:0:0:
102,224,202790,1,0,0:0:0:0:
103,154,202874,1,0,0:0:0:0:
129,88,202957,1,0,0:0:0:0:
183,45,203040,1,2,0:0:0:0:
409,152,203207,1,0,0:0:0:0:
133,287,203374,2,0,P|108:248|101:208,1,71.9999978027344,4|0,0:0|0:0,0:0:0:0:
103,154,203540,2,0,P|130:81|196:41,1,143.999995605469,2|0,0:0|0:0,0:0:0:0:
133,287,203874,1,2,0:0:0:0:
183,45,204040,6,0,P|110:112|111:244,1,215.999993408203,4|0,0:0|0:0,0:0:0:0:
133,287,204374,1,2,0:0:0:0:
255,344,204540,1,0,0:0:0:0:
133,287,204707,2,0,P|208:298|259:352,1,143.999995605469
409,152,205040,1,2,0:0:0:0:
255,344,205207,1,0,0:0:0:0:
379,287,205374,5,0,0:0:0:0:
409,222,205456,1,0,0:0:0:0:
409,152,205540,1,0,0:0:0:0:
377,89,205624,1,0,0:0:0:0:
322,46,205707,1,2,0:0:0:0:
255,344,205874,1,0,0:0:0:0:
183,45,206040,2,0,P|125:87|103:154,1,143.999995605469
322,46,206374,2,0,P|387:95|410:167,1,143.999995605469,2|0,0:0|0:0,0:0:0:0:
409,222,206624,1,0,0:0:0:0:
379,287,206707,6,0,B|311:186|387:85|387:85|413:163,1,287.999991210938,0|2,0:0|0:0,0:0:0:0:
324,330,207207,1,0,0:0:0:0:
188,331,207374,2,0,P|251:350|327:328,1,143.999995605469
188,331,207707,2,0,P|257:310|328:333,1,143.999995605469,2|0,0:0|0:0,0:0:0:0:
255,344,207957,1,0,0:0:0:0:
188,331,208040,6,0,P|117:268|101:218,1,143.999995605469,0|2,0:0|0:0,0:0:0:0:
379,287,208374,1,0,0:0:0:0:
129,88,208540,1,0,0:0:0:0:
379,287,208707,1,2,0:0:0:0:
409,222,208790,1,0,0:0:0:0:
409,152,208873,1,0,0:0:0:0:
377,89,208957,1,0,0:0:0:0:
322,46,209040,1,2,0:0:0:0:
324,330,209207,1,2,0:0:0:0:
255,344,209290,1,2,0:0:0:0:
188,331,209374,6,0,P|266:222|409:222,1,287.999991210938,4|2,0:0|0:0,0:0:0:0:
188,331,209874,1,0,0:0:0:0:
377,89,210040,2,0,P|415:166|406:231,1,143.999995605469
103,154,210374,1,2,0:0:0:0:
409,222,210540,1,0,0:0:0:0:
183,45,210707,5,0,0:0:0:0:
324,330,210874,1,0,0:0:0:0:
324,330,210957,1,0,0:0:0:0:
324,330,211040,1,2,0:0:0:0:
377,89,211207,1,0,0:0:0:0:
188,331,211374,2,0,P|117:268|101:218,1,143.999995605469
188,331,211707,2,0,P|151:257|100:223,1,143.999995605469,2|0,0:0|0:0,0:0:0:0:
133,287,211957,1,0,0:0:0:0:
188,331,212040,6,0,P|151:257|100:223,1,143.999995605469,4|0,0:0|0:0,0:0:0:0:
188,331,212374,2,0,P|188:244|96:152,1,215.999993408203,2|0,0:0|0:0,0:0:0:0:
188,331,212707,2,0,P|151:257|100:223,1,143.999995605469
188,331,213040,2,0,P|117:268|101:218,1,143.999995605469,2|0,0:0|0:0,0:0:0:0:
183,45,213374,5,4,0:0:0:0:
129,88,213540,1,2,0:0:0:0:
183,45,213707,1,8,3:0:0:0:
253,31,213874,1,8,3:0:0:0:
322,46,214040,1,8,3:0:0:0:
183,45,214374,5,4,3:0:0:0:
