osu file format v14

[General]
AudioFilename: audio.mp3
AudioLeadIn: 0
PreviewTime: 244032
Countdown: 0
SampleSet: None
StackLeniency: 0.7
Mode: 3
LetterboxInBreaks: 0
SpecialStyle: 0
WidescreenStoryboard: 1

[Editor]
Bookmarks: 27305,38941,50578,62214,73850,85487,114578,126214,137850,149487,161123,184396,195987,219305,226578,238214,251305,276032,300760
DistanceSpacing: 1.3
BeatDivisor: 8
GridSize: 4
TimelineZoom: 1.100001

[Metadata]
Title:Remote Control
TitleUnicode:Remote Control
Artist:Reol & Kradness
ArtistUnicode:Reol & Kradness
Creator:Percyqaz
Version:Cut Ver.
Source:
Tags:jack jacks longjack vibro
BeatmapID:2224062
BeatmapSetID:689475

[Difficulty]
HPDrainRate:8
CircleSize:4
OverallDifficulty:8
ApproachRate:5
SliderMultiplier:1.4
SliderTickRate:1

[Events]
//Background and Video events
0,0,"316812.jpg",0,0
//Break Periods
//Storyboard Layer 0 (Background)
//Storyboard Layer 1 (Fail)
//Storyboard Layer 2 (Pass)
//Storyboard Layer 3 (Foreground)
//Storyboard Layer 4 (Overlay)
//Storyboard Sound Samples

[TimingPoints]
4062.7552528457,363.636363636364,4,2,0,45,1,0

[HitObjects]
64,192,4054,5,0,0:0:0:0:
192,192,4054,1,0,0:0:0:0:
448,192,4054,1,0,0:0:0:0:
64,192,4426,1,0,0:0:0:0:
320,192,4426,1,0,0:0:0:0:
448,192,4426,1,0,0:0:0:0:
64,192,4790,1,0,0:0:0:0:
192,192,4790,1,0,0:0:0:0:
448,192,4790,1,0,0:0:0:0:
320,192,5153,1,0,0:0:0:0:
448,192,5153,1,0,0:0:0:0:
64,192,5153,1,0,0:0:0:0:
64,192,5517,1,0,0:0:0:0:
192,192,5517,1,0,0:0:0:0:
320,192,5517,1,0,0:0:0:0:
448,192,5517,1,0,0:0:0:0:
192,192,5880,1,0,0:0:0:0:
320,192,5880,1,0,0:0:0:0:
64,192,6244,1,0,0:0:0:0:
448,192,6244,1,0,0:0:0:0:
192,192,6244,1,0,0:0:0:0:
64,192,6608,1,0,0:0:0:0:
320,192,6608,1,0,0:0:0:0:
448,192,6608,1,0,0:0:0:0:
64,192,6971,1,0,0:0:0:0:
448,192,6971,1,0,0:0:0:0:
448,192,7335,1,0,0:0:0:0:
192,192,7335,1,0,0:0:0:0:
320,192,7335,1,0,0:0:0:0:
64,192,7699,1,0,0:0:0:0:
192,192,7699,1,0,0:0:0:0:
320,192,7699,1,0,0:0:0:0:
320,192,8062,1,0,0:0:0:0:
448,192,8062,1,0,0:0:0:0:
64,192,8062,1,0,0:0:0:0:
320,192,8426,1,0,0:0:0:0:
448,192,8426,1,0,0:0:0:0:
192,192,8426,1,0,0:0:0:0:
64,192,8790,1,0,0:0:0:0:
192,192,8790,1,0,0:0:0:0:
448,192,8790,1,0,0:0:0:0:
320,192,9153,1,0,0:0:0:0:
448,192,9153,1,0,0:0:0:0:
64,192,9153,1,0,0:0:0:0:
64,192,9517,1,0,0:0:0:0:
192,192,9517,1,0,0:0:0:0:
320,192,9517,1,0,0:0:0:0:
448,192,9517,1,0,0:0:0:0:
192,192,9880,1,0,0:0:0:0:
448,192,9880,1,0,0:0:0:0:
64,192,9880,1,0,0:0:0:0:
448,192,10244,1,0,0:0:0:0:
320,192,10244,1,0,0:0:0:0:
64,192,10244,1,0,0:0:0:0:
448,192,10608,1,0,0:0:0:0:
192,192,10608,1,0,0:0:0:0:
64,192,10608,1,0,0:0:0:0:
64,192,10971,1,0,0:0:0:0:
448,192,10971,1,0,0:0:0:0:
320,192,10971,1,0,0:0:0:0:
320,192,11335,1,0,0:0:0:0:
448,192,11335,1,0,0:0:0:0:
64,192,11335,1,0,0:0:0:0:
192,192,11335,1,0,0:0:0:0:
320,192,11699,1,0,0:0:0:0:
192,192,11699,1,0,0:0:0:0:
192,192,12062,1,0,0:0:0:0:
448,192,12062,1,0,0:0:0:0:
64,192,12062,1,0,0:0:0:0:
448,192,12426,1,0,0:0:0:0:
320,192,12426,1,0,0:0:0:0:
64,192,12426,1,0,0:0:0:0:
448,192,12790,1,0,0:0:0:0:
64,192,12790,1,0,0:0:0:0:
320,192,13153,1,0,0:0:0:0:
192,192,13153,1,0,0:0:0:0:
448,192,13153,1,0,0:0:0:0:
320,192,13517,1,0,0:0:0:0:
192,192,13517,1,0,0:0:0:0:
64,192,13517,1,0,0:0:0:0:
64,192,13880,1,0,0:0:0:0:
448,192,13880,1,0,0:0:0:0:
320,192,13880,1,0,0:0:0:0:
192,192,14244,1,0,0:0:0:0:
448,192,14244,1,0,0:0:0:0:
320,192,14244,1,0,0:0:0:0:
448,192,14608,1,0,0:0:0:0:
192,192,14608,1,0,0:0:0:0:
64,192,14608,1,0,0:0:0:0:
64,192,14971,1,0,0:0:0:0:
448,192,14971,1,0,0:0:0:0:
320,192,14971,1,0,0:0:0:0:
320,192,15335,1,0,0:0:0:0:
448,192,15335,1,0,0:0:0:0:
64,192,15335,1,0,0:0:0:0:
192,192,15335,1,0,0:0:0:0:
64,192,15699,1,0,0:0:0:0:
448,192,15699,1,0,0:0:0:0:
192,192,15699,1,0,0:0:0:0:
192,192,15880,1,0,0:0:0:0:
320,192,15971,1,0,0:0:0:0:
64,192,16062,1,0,0:0:0:0:
320,192,16062,1,0,0:0:0:0:
448,192,16062,1,0,0:0:0:0:
448,192,16153,1,0,0:0:0:0:
192,192,16335,1,0,0:0:0:0:
64,192,16426,1,0,0:0:0:0:
192,192,16426,1,0,0:0:0:0:
448,192,16426,1,0,0:0:0:0:
448,192,16608,1,0,0:0:0:0:
192,192,16608,1,0,0:0:0:0:
320,192,16790,1,0,0:0:0:0:
448,192,16790,1,0,0:0:0:0:
64,192,16790,1,0,0:0:0:0:
64,192,17153,1,0,0:0:0:0:
192,192,17153,1,0,0:0:0:0:
320,192,17153,1,0,0:0:0:0:
448,192,17153,1,0,0:0:0:0:
64,192,17335,1,0,0:0:0:0:
320,192,17426,1,0,0:0:0:0:
192,192,17517,1,0,0:0:0:0:
320,192,17517,1,0,0:0:0:0:
320,192,17790,1,0,0:0:0:0:
64,192,17880,1,0,0:0:0:0:
448,192,17880,1,0,0:0:0:0:
192,192,17880,1,0,0:0:0:0:
64,192,18244,1,0,0:0:0:0:
320,192,18244,1,0,0:0:0:0:
448,192,18244,1,0,0:0:0:0:
64,192,18608,1,0,0:0:0:0:
448,192,18608,1,0,0:0:0:0:
192,192,18790,1,0,0:0:0:0:
64,192,18880,1,0,0:0:0:0:
448,192,18971,1,0,0:0:0:0:
192,192,18971,1,0,0:0:0:0:
320,192,18971,1,0,0:0:0:0:
448,192,19244,1,0,0:0:0:0:
64,192,19335,1,0,0:0:0:0:
192,192,19335,1,0,0:0:0:0:
320,192,19335,1,0,0:0:0:0:
320,192,19699,1,0,0:0:0:0:
448,192,19699,1,0,0:0:0:0:
64,192,19699,1,0,0:0:0:0:
320,192,20062,1,0,0:0:0:0:
448,192,20062,1,0,0:0:0:0:
192,192,20062,1,0,0:0:0:0:
320,192,20244,1,0,0:0:0:0:
192,192,20335,1,0,0:0:0:0:
64,192,20426,1,0,0:0:0:0:
192,192,20426,1,0,0:0:0:0:
448,192,20426,1,0,0:0:0:0:
192,192,20699,1,0,0:0:0:0:
320,192,20790,1,0,0:0:0:0:
448,192,20790,1,0,0:0:0:0:
64,192,20790,1,0,0:0:0:0:
192,192,20971,1,0,0:0:0:0:
64,192,21153,1,0,0:0:0:0:
192,192,21153,1,0,0:0:0:0:
320,192,21153,1,0,0:0:0:0:
448,192,21153,1,0,0:0:0:0:
192,192,21517,1,0,0:0:0:0:
448,192,21517,1,0,0:0:0:0:
64,192,21517,1,0,0:0:0:0:
64,192,21699,1,0,0:0:0:0:
192,192,21699,1,0,0:0:0:0:
448,192,21880,1,0,0:0:0:0:
320,192,21880,1,0,0:0:0:0:
64,192,21880,1,0,0:0:0:0:
192,192,21971,1,0,0:0:0:0:
448,192,21971,1,0,0:0:0:0:
320,192,22153,1,0,0:0:0:0:
448,192,22244,1,0,0:0:0:0:
192,192,22244,1,0,0:0:0:0:
64,192,22244,1,0,0:0:0:0:
448,192,22426,1,0,0:0:0:0:
192,192,22426,1,0,0:0:0:0:
64,192,22608,1,0,0:0:0:0:
448,192,22608,1,0,0:0:0:0:
320,192,22608,1,0,0:0:0:0:
192,192,22699,1,0,0:0:0:0:
320,192,22880,1,0,0:0:0:0:
320,192,22971,1,0,0:0:0:0:
448,192,22971,1,0,0:0:0:0:
64,192,22971,1,0,0:0:0:0:
192,192,22971,1,0,0:0:0:0:
448,192,23153,1,0,0:0:0:0:
320,192,23244,1,0,0:0:0:0:
64,192,23244,1,0,0:0:0:0:
320,192,23335,1,0,0:0:0:0:
192,192,23335,1,0,0:0:0:0:
320,192,23608,1,0,0:0:0:0:
192,192,23699,1,0,0:0:0:0:
448,192,23699,1,0,0:0:0:0:
64,192,23699,1,0,0:0:0:0:
448,192,24062,1,0,0:0:0:0:
320,192,24062,1,0,0:0:0:0:
64,192,24062,1,0,0:0:0:0:
64,192,24244,1,0,0:0:0:0:
448,192,24426,1,0,0:0:0:0:
64,192,24426,1,0,0:0:0:0:
192,192,24608,1,0,0:0:0:0:
64,192,24699,1,0,0:0:0:0:
320,192,24790,1,0,0:0:0:0:
192,192,24790,1,0,0:0:0:0:
448,192,24790,1,0,0:0:0:0:
448,192,25062,1,0,0:0:0:0:
320,192,25153,1,0,0:0:0:0:
192,192,25153,1,0,0:0:0:0:
64,192,25153,1,0,0:0:0:0:
192,192,25335,1,0,0:0:0:0:
64,192,25517,1,0,0:0:0:0:
448,192,25517,1,0,0:0:0:0:
320,192,25517,1,0,0:0:0:0:
192,192,25880,1,0,0:0:0:0:
448,192,25880,1,0,0:0:0:0:
320,192,25880,1,0,0:0:0:0:
320,192,26153,1,0,0:0:0:0:
448,192,26244,1,0,0:0:0:0:
192,192,26244,1,0,0:0:0:0:
64,192,26244,1,0,0:0:0:0:
64,192,26608,1,0,0:0:0:0:
448,192,26608,1,0,0:0:0:0:
320,192,26608,1,0,0:0:0:0:
320,192,26971,1,0,0:0:0:0:
192,192,26971,1,0,0:0:0:0:
64,192,27335,1,0,0:0:0:0:
320,192,27335,1,0,0:0:0:0:
448,192,27335,1,0,0:0:0:0:
320,192,27426,1,0,0:0:0:0:
448,192,27517,1,0,0:0:0:0:
192,192,27517,1,0,0:0:0:0:
320,192,27608,1,0,0:0:0:0:
64,192,27608,1,0,0:0:0:0:
192,192,27699,1,0,0:0:0:0:
320,192,27699,1,0,0:0:0:0:
64,192,27790,1,0,0:0:0:0:
448,192,27880,1,0,0:0:0:0:
192,192,27880,1,0,0:0:0:0:
448,192,27971,1,0,0:0:0:0:
192,192,27971,1,0,0:0:0:0:
64,192,28062,1,0,0:0:0:0:
448,192,28062,1,0,0:0:0:0:
192,192,28062,1,0,0:0:0:0:
320,192,28062,1,0,0:0:0:0:
320,192,28153,1,0,0:0:0:0:
448,192,28244,1,0,0:0:0:0:
192,192,28244,1,0,0:0:0:0:
64,192,28244,1,0,0:0:0:0:
192,192,28426,1,0,0:0:0:0:
320,192,28426,1,0,0:0:0:0:
448,192,28426,1,0,0:0:0:0:
192,192,28517,1,0,0:0:0:0:
192,192,28608,1,0,0:0:0:0:
448,192,28608,1,0,0:0:0:0:
192,192,28699,1,0,0:0:0:0:
320,192,28699,1,0,0:0:0:0:
64,192,28790,1,0,0:0:0:0:
448,192,28790,1,0,0:0:0:0:
320,192,28790,1,0,0:0:0:0:
320,192,28880,1,0,0:0:0:0:
192,192,28971,1,0,0:0:0:0:
448,192,28971,1,0,0:0:0:0:
448,192,29062,1,0,0:0:0:0:
64,192,29153,1,0,0:0:0:0:
320,192,29153,1,0,0:0:0:0:
64,192,29244,1,0,0:0:0:0:
192,192,29335,1,0,0:0:0:0:
320,192,29335,1,0,0:0:0:0:
448,192,29335,1,0,0:0:0:0:
320,192,29426,1,0,0:0:0:0:
64,192,29517,1,0,0:0:0:0:
192,192,29517,1,0,0:0:0:0:
320,192,29517,1,0,0:0:0:0:
448,192,29517,1,0,0:0:0:0:
192,192,29699,1,0,0:0:0:0:
192,192,29790,1,0,0:0:0:0:
64,192,29790,1,0,0:0:0:0:
64,192,29880,1,0,0:0:0:0:
320,192,29880,1,0,0:0:0:0:
448,192,29880,1,0,0:0:0:0:
192,192,29971,1,0,0:0:0:0:
192,192,30062,1,0,0:0:0:0:
320,192,30062,1,0,0:0:0:0:
320,192,30153,1,0,0:0:0:0:
448,192,30153,1,0,0:0:0:0:
64,192,30244,1,0,0:0:0:0:
192,192,30244,1,0,0:0:0:0:
448,192,30244,1,0,0:0:0:0:
192,192,30335,1,0,0:0:0:0:
64,192,30426,1,0,0:0:0:0:
320,192,30426,1,0,0:0:0:0:
320,192,30517,1,0,0:0:0:0:
192,192,30608,1,0,0:0:0:0:
64,192,30608,1,0,0:0:0:0:
448,192,30699,1,0,0:0:0:0:
320,192,30790,1,0,0:0:0:0:
192,192,30790,1,0,0:0:0:0:
64,192,30790,1,0,0:0:0:0:
192,192,30880,1,0,0:0:0:0:
448,192,30880,1,0,0:0:0:0:
64,192,30971,1,0,0:0:0:0:
192,192,30971,1,0,0:0:0:0:
448,192,30971,1,0,0:0:0:0:
320,192,30971,1,0,0:0:0:0:
192,192,31153,1,0,0:0:0:0:
320,192,31153,1,0,0:0:0:0:
64,192,31335,1,0,0:0:0:0:
320,192,31335,1,0,0:0:0:0:
320,192,31426,1,0,0:0:0:0:
320,192,31517,1,0,0:0:0:0:
320,192,31608,1,0,0:0:0:0:
192,192,31699,1,0,0:0:0:0:
64,192,31699,1,0,0:0:0:0:
448,192,31699,1,0,0:0:0:0:
192,192,31790,1,0,0:0:0:0:
320,192,31880,1,0,0:0:0:0:
448,192,31880,1,0,0:0:0:0:
320,192,31971,1,0,0:0:0:0:
448,192,32062,1,0,0:0:0:0:
64,192,32062,1,0,0:0:0:0:
448,192,32153,1,0,0:0:0:0:
64,192,32244,1,0,0:0:0:0:
320,192,32244,1,0,0:0:0:0:
320,192,32335,1,0,0:0:0:0:
448,192,32335,1,0,0:0:0:0:
64,192,32426,1,0,0:0:0:0:
192,192,32426,1,0,0:0:0:0:
448,192,32426,1,0,0:0:0:0:
192,192,32517,1,0,0:0:0:0:
64,192,32608,1,0,0:0:0:0:
448,192,32608,1,0,0:0:0:0:
320,192,32608,1,0,0:0:0:0:
320,192,32699,1,0,0:0:0:0:
64,192,32790,1,0,0:0:0:0:
448,192,32790,1,0,0:0:0:0:
192,192,32880,1,0,0:0:0:0:
320,192,32971,1,0,0:0:0:0:
64,192,32971,1,0,0:0:0:0:
192,192,33062,1,0,0:0:0:0:
448,192,33062,1,0,0:0:0:0:
448,192,33153,1,0,0:0:0:0:
320,192,33153,1,0,0:0:0:0:
64,192,33153,1,0,0:0:0:0:
192,192,33244,1,0,0:0:0:0:
320,192,33335,1,0,0:0:0:0:
448,192,33335,1,0,0:0:0:0:
192,192,33426,1,0,0:0:0:0:
448,192,33517,1,0,0:0:0:0:
320,192,33517,1,0,0:0:0:0:
64,192,33517,1,0,0:0:0:0:
64,192,33608,1,0,0:0:0:0:
64,192,33699,1,0,0:0:0:0:
64,192,33790,1,0,0:0:0:0:
64,192,33880,1,0,0:0:0:0:
192,192,33880,1,0,0:0:0:0:
320,192,33880,1,0,0:0:0:0:
448,192,33880,1,0,0:0:0:0:
320,192,33971,1,0,0:0:0:0:
192,192,34062,1,0,0:0:0:0:
448,192,34062,1,0,0:0:0:0:
320,192,34153,1,0,0:0:0:0:
64,192,34244,1,0,0:0:0:0:
448,192,34244,1,0,0:0:0:0:
192,192,34244,1,0,0:0:0:0:
448,192,34335,1,0,0:0:0:0:
448,192,34426,1,0,0:0:0:0:
448,192,34517,1,0,0:0:0:0:
448,192,34608,1,0,0:0:0:0:
320,192,34608,1,0,0:0:0:0:
192,192,34608,1,0,0:0:0:0:
64,192,34608,1,0,0:0:0:0:
192,192,34699,1,0,0:0:0:0:
320,192,34790,1,0,0:0:0:0:
448,192,34790,1,0,0:0:0:0:
320,192,34880,1,0,0:0:0:0:
64,192,34971,1,0,0:0:0:0:
192,192,34971,1,0,0:0:0:0:
448,192,34971,1,0,0:0:0:0:
64,192,35062,1,0,0:0:0:0:
320,192,35153,1,0,0:0:0:0:
448,192,35153,1,0,0:0:0:0:
448,192,35244,1,0,0:0:0:0:
64,192,35335,1,0,0:0:0:0:
320,192,35335,1,0,0:0:0:0:
192,192,35335,1,0,0:0:0:0:
448,192,35426,1,0,0:0:0:0:
192,192,35517,1,0,0:0:0:0:
192,192,35608,1,0,0:0:0:0:
64,192,35699,1,0,0:0:0:0:
320,192,35699,1,0,0:0:0:0:
448,192,35699,1,0,0:0:0:0:
448,192,35790,1,0,0:0:0:0:
320,192,35880,1,0,0:0:0:0:
192,192,35880,1,0,0:0:0:0:
64,192,35971,1,0,0:0:0:0:
64,192,36062,1,0,0:0:0:0:
192,192,36062,1,0,0:0:0:0:
448,192,36062,1,0,0:0:0:0:
192,192,36244,1,0,0:0:0:0:
320,192,36244,1,0,0:0:0:0:
192,192,36335,1,0,0:0:0:0:
64,192,36426,1,0,0:0:0:0:
320,192,36426,1,0,0:0:0:0:
448,192,36426,1,0,0:0:0:0:
320,192,36517,1,0,0:0:0:0:
320,192,36608,1,0,0:0:0:0:
192,192,36699,1,0,0:0:0:0:
64,192,36790,1,0,0:0:0:0:
448,192,36790,1,0,0:0:0:0:
320,192,36790,1,0,0:0:0:0:
192,192,36880,1,0,0:0:0:0:
64,192,36880,1,0,0:0:0:0:
320,192,36971,1,0,0:0:0:0:
448,192,37062,1,0,0:0:0:0:
192,192,37062,1,0,0:0:0:0:
320,192,37153,1,0,0:0:0:0:
448,192,37153,1,0,0:0:0:0:
64,192,37153,1,0,0:0:0:0:
192,192,37244,1,0,0:0:0:0:
192,192,37335,1,0,0:0:0:0:
192,192,37426,1,0,0:0:0:0:
64,192,37517,1,0,0:0:0:0:
448,192,37517,1,0,0:0:0:0:
320,192,37608,1,0,0:0:0:0:
64,192,37699,1,0,0:0:0:0:
64,192,37790,1,0,0:0:0:0:
448,192,37880,1,0,0:0:0:0:
448,192,37971,1,0,0:0:0:0:
320,192,38062,1,0,0:0:0:0:
320,192,38153,1,0,0:0:0:0:
192,192,38244,1,0,0:0:0:0:
192,192,38335,1,0,0:0:0:0:
64,192,38426,1,0,0:0:0:0:
64,192,38517,1,0,0:0:0:0:
64,192,38608,1,0,0:0:0:0:
192,192,38630,1,0,0:0:0:0:
320,192,38653,1,0,0:0:0:0:
448,192,38676,1,0,0:0:0:0:
64,192,38790,1,0,0:0:0:0:
192,192,38812,1,0,0:0:0:0:
320,192,38835,1,0,0:0:0:0:
448,192,38858,1,0,0:0:0:0:
64,192,38971,1,0,0:0:0:0:
448,192,38971,1,0,0:0:0:0:
192,192,38971,1,0,0:0:0:0:
448,192,39062,1,0,0:0:0:0:
64,192,39153,1,0,0:0:0:0:
192,192,39153,1,0,0:0:0:0:
192,192,39244,1,0,0:0:0:0:
320,192,39335,1,0,0:0:0:0:
448,192,39335,1,0,0:0:0:0:
64,192,39335,1,0,0:0:0:0:
448,192,39426,1,0,0:0:0:0:
320,192,39517,1,0,0:0:0:0:
320,192,39608,1,0,0:0:0:0:
192,192,39699,1,0,0:0:0:0:
64,192,39699,1,0,0:0:0:0:
448,192,39699,1,0,0:0:0:0:
64,192,39790,1,0,0:0:0:0:
448,192,39880,1,0,0:0:0:0:
192,192,39880,1,0,0:0:0:0:
192,192,39971,1,0,0:0:0:0:
64,192,40062,1,0,0:0:0:0:
320,192,40062,1,0,0:0:0:0:
448,192,40062,1,0,0:0:0:0:
320,192,40153,1,0,0:0:0:0:
320,192,40244,1,0,0:0:0:0:
320,192,40335,1,0,0:0:0:0:
64,192,40426,1,0,0:0:0:0:
192,192,40426,1,0,0:0:0:0:
448,192,40426,1,0,0:0:0:0:
192,192,40517,1,0,0:0:0:0:
448,192,40608,1,0,0:0:0:0:
320,192,40608,1,0,0:0:0:0:
320,192,40699,1,0,0:0:0:0:
448,192,40790,1,0,0:0:0:0:
192,192,40790,1,0,0:0:0:0:
64,192,40790,1,0,0:0:0:0:
64,192,40880,1,0,0:0:0:0:
192,192,40971,1,0,0:0:0:0:
320,192,40971,1,0,0:0:0:0:
192,192,41062,1,0,0:0:0:0:
320,192,41153,1,0,0:0:0:0:
448,192,41153,1,0,0:0:0:0:
64,192,41153,1,0,0:0:0:0:
448,192,41244,1,0,0:0:0:0:
320,192,41244,1,0,0:0:0:0:
64,192,41335,1,0,0:0:0:0:
64,192,41426,1,0,0:0:0:0:
192,192,41517,1,0,0:0:0:0:
320,192,41517,1,0,0:0:0:0:
448,192,41517,1,0,0:0:0:0:
192,192,41608,1,0,0:0:0:0:
320,192,41699,1,0,0:0:0:0:
448,192,41699,1,0,0:0:0:0:
448,192,41790,1,0,0:0:0:0:
320,192,41790,1,0,0:0:0:0:
64,192,41880,1,0,0:0:0:0:
448,192,41880,1,0,0:0:0:0:
320,192,41880,1,0,0:0:0:0:
192,192,41971,1,0,0:0:0:0:
192,192,42062,1,0,0:0:0:0:
320,192,42153,1,0,0:0:0:0:
64,192,42244,1,0,0:0:0:0:
192,192,42244,1,0,0:0:0:0:
448,192,42244,1,0,0:0:0:0:
192,192,42335,1,0,0:0:0:0:
192,192,42426,1,0,0:0:0:0:
192,192,42517,1,0,0:0:0:0:
64,192,42608,1,0,0:0:0:0:
320,192,42608,1,0,0:0:0:0:
448,192,42608,1,0,0:0:0:0:
320,192,42699,1,0,0:0:0:0:
64,192,42790,1,0,0:0:0:0:
192,192,42790,1,0,0:0:0:0:
192,192,42880,1,0,0:0:0:0:
64,192,42971,1,0,0:0:0:0:
448,192,42971,1,0,0:0:0:0:
320,192,42971,1,0,0:0:0:0:
448,192,43062,1,0,0:0:0:0:
448,192,43153,1,0,0:0:0:0:
448,192,43244,1,0,0:0:0:0:
448,192,43335,1,0,0:0:0:0:
320,192,43335,1,0,0:0:0:0:
64,192,43335,1,0,0:0:0:0:
320,192,43426,1,0,0:0:0:0:
64,192,43517,1,0,0:0:0:0:
448,192,43517,1,0,0:0:0:0:
64,192,43608,1,0,0:0:0:0:
192,192,43699,1,0,0:0:0:0:
320,192,43699,1,0,0:0:0:0:
448,192,43699,1,0,0:0:0:0:
192,192,43790,1,0,0:0:0:0:
320,192,43880,1,0,0:0:0:0:
448,192,43880,1,0,0:0:0:0:
448,192,43971,1,0,0:0:0:0:
320,192,44062,1,0,0:0:0:0:
192,192,44062,1,0,0:0:0:0:
64,192,44062,1,0,0:0:0:0:
64,192,44153,1,0,0:0:0:0:
192,192,44244,1,0,0:0:0:0:
320,192,44244,1,0,0:0:0:0:
320,192,44335,1,0,0:0:0:0:
64,192,44426,1,0,0:0:0:0:
192,192,44426,1,0,0:0:0:0:
448,192,44426,1,0,0:0:0:0:
192,192,44517,1,0,0:0:0:0:
64,192,44517,1,0,0:0:0:0:
320,192,44608,1,0,0:0:0:0:
448,192,44699,1,0,0:0:0:0:
192,192,44699,1,0,0:0:0:0:
448,192,44790,1,0,0:0:0:0:
64,192,44790,1,0,0:0:0:0:
320,192,44790,1,0,0:0:0:0:
64,192,44880,1,0,0:0:0:0:
448,192,44971,1,0,0:0:0:0:
320,192,44971,1,0,0:0:0:0:
320,192,45062,1,0,0:0:0:0:
192,192,45153,1,0,0:0:0:0:
64,192,45153,1,0,0:0:0:0:
448,192,45153,1,0,0:0:0:0:
64,192,45244,1,0,0:0:0:0:
192,192,45335,1,0,0:0:0:0:
192,192,45426,1,0,0:0:0:0:
320,192,45517,1,0,0:0:0:0:
448,192,45517,1,0,0:0:0:0:
64,192,45517,1,0,0:0:0:0:
448,192,45608,1,0,0:0:0:0:
64,192,45699,1,0,0:0:0:0:
320,192,45699,1,0,0:0:0:0:
320,192,45790,1,0,0:0:0:0:
448,192,45880,1,0,0:0:0:0:
192,192,45880,1,0,0:0:0:0:
64,192,45880,1,0,0:0:0:0:
192,192,45971,1,0,0:0:0:0:
192,192,46062,1,0,0:0:0:0:
192,192,46153,1,0,0:0:0:0:
448,192,46244,1,0,0:0:0:0:
320,192,46244,1,0,0:0:0:0:
64,192,46244,1,0,0:0:0:0:
320,192,46335,1,0,0:0:0:0:
64,192,46426,1,0,0:0:0:0:
192,192,46426,1,0,0:0:0:0:
192,192,46517,1,0,0:0:0:0:
64,192,46608,1,0,0:0:0:0:
320,192,46608,1,0,0:0:0:0:
448,192,46608,1,0,0:0:0:0:
448,192,46699,1,0,0:0:0:0:
320,192,46790,1,0,0:0:0:0:
192,192,46790,1,0,0:0:0:0:
320,192,46880,1,0,0:0:0:0:
192,192,46971,1,0,0:0:0:0:
64,192,46971,1,0,0:0:0:0:
448,192,46971,1,0,0:0:0:0:
64,192,47062,1,0,0:0:0:0:
192,192,47062,1,0,0:0:0:0:
448,192,47153,1,0,0:0:0:0:
448,192,47244,1,0,0:0:0:0:
320,192,47335,1,0,0:0:0:0:
192,192,47335,1,0,0:0:0:0:
64,192,47335,1,0,0:0:0:0:
320,192,47426,1,0,0:0:0:0:
192,192,47517,1,0,0:0:0:0:
64,192,47517,1,0,0:0:0:0:
64,192,47608,1,0,0:0:0:0:
192,192,47608,1,0,0:0:0:0:
448,192,47699,1,0,0:0:0:0:
64,192,47699,1,0,0:0:0:0:
192,192,47699,1,0,0:0:0:0:
320,192,47790,1,0,0:0:0:0:
320,192,47880,1,0,0:0:0:0:
192,192,47971,1,0,0:0:0:0:
448,192,48062,1,0,0:0:0:0:
320,192,48062,1,0,0:0:0:0:
64,192,48062,1,0,0:0:0:0:
320,192,48153,1,0,0:0:0:0:
320,192,48244,1,0,0:0:0:0:
320,192,48335,1,0,0:0:0:0:
448,192,48426,1,0,0:0:0:0:
192,192,48426,1,0,0:0:0:0:
64,192,48426,1,0,0:0:0:0:
192,192,48517,1,0,0:0:0:0:
448,192,48608,1,0,0:0:0:0:
320,192,48608,1,0,0:0:0:0:
320,192,48699,1,0,0:0:0:0:
448,192,48790,1,0,0:0:0:0:
64,192,48790,1,0,0:0:0:0:
192,192,48790,1,0,0:0:0:0:
64,192,48880,1,0,0:0:0:0:
64,192,48971,1,0,0:0:0:0:
64,192,49062,1,0,0:0:0:0:
192,192,49153,1,0,0:0:0:0:
448,192,49153,1,0,0:0:0:0:
192,192,49244,1,0,0:0:0:0:
448,192,49335,1,0,0:0:0:0:
320,192,49335,1,0,0:0:0:0:
448,192,49426,1,0,0:0:0:0:
320,192,49517,1,0,0:0:0:0:
64,192,49517,1,0,0:0:0:0:
320,192,49608,1,0,0:0:0:0:
192,192,49699,1,0,0:0:0:0:
64,192,49699,1,0,0:0:0:0:
64,192,49790,1,0,0:0:0:0:
320,192,49880,1,0,0:0:0:0:
448,192,49880,1,0,0:0:0:0:
320,192,49971,1,0,0:0:0:0:
192,192,50062,1,0,0:0:0:0:
64,192,50062,1,0,0:0:0:0:
448,192,50062,1,0,0:0:0:0:
192,192,50153,1,0,0:0:0:0:
448,192,50244,1,0,0:0:0:0:
320,192,50244,1,0,0:0:0:0:
64,192,50244,1,0,0:0:0:0:
448,192,50335,1,0,0:0:0:0:
192,192,50426,1,0,0:0:0:0:
64,192,50426,1,0,0:0:0:0:
320,192,50426,1,0,0:0:0:0:
64,192,50517,1,0,0:0:0:0:
192,192,50608,1,0,0:0:0:0:
320,192,50608,1,0,0:0:0:0:
448,192,50608,1,0,0:0:0:0:
448,192,50699,1,0,0:0:0:0:
192,192,50790,1,0,0:0:0:0:
320,192,50790,1,0,0:0:0:0:
192,192,50880,1,0,0:0:0:0:
64,192,50971,1,0,0:0:0:0:
320,192,50971,1,0,0:0:0:0:
448,192,50971,1,0,0:0:0:0:
192,192,51153,1,0,0:0:0:0:
320,192,51153,1,0,0:0:0:0:
320,192,51244,1,0,0:0:0:0:
64,192,51335,1,0,0:0:0:0:
192,192,51335,1,0,0:0:0:0:
448,192,51335,1,0,0:0:0:0:
448,192,51426,1,0,0:0:0:0:
320,192,51517,1,0,0:0:0:0:
192,192,51608,1,0,0:0:0:0:
64,192,51699,1,0,0:0:0:0:
320,192,51699,1,0,0:0:0:0:
448,192,51699,1,0,0:0:0:0:
64,192,51880,1,0,0:0:0:0:
192,192,51880,1,0,0:0:0:0:
64,192,52062,1,0,0:0:0:0:
320,192,52062,1,0,0:0:0:0:
448,192,52062,1,0,0:0:0:0:
64,192,52153,1,0,0:0:0:0:
320,192,52244,1,0,0:0:0:0:
448,192,52244,1,0,0:0:0:0:
320,192,52335,1,0,0:0:0:0:
448,192,52426,1,0,0:0:0:0:
192,192,52426,1,0,0:0:0:0:
64,192,52426,1,0,0:0:0:0:
320,192,52608,1,0,0:0:0:0:
448,192,52608,1,0,0:0:0:0:
192,192,52699,1,0,0:0:0:0:
448,192,52699,1,0,0:0:0:0:
64,192,52790,1,0,0:0:0:0:
192,192,52790,1,0,0:0:0:0:
320,192,52790,1,0,0:0:0:0:
64,192,52880,1,0,0:0:0:0:
320,192,52971,1,0,0:0:0:0:
448,192,52971,1,0,0:0:0:0:
192,192,53062,1,0,0:0:0:0:
64,192,53153,1,0,0:0:0:0:
448,192,53153,1,0,0:0:0:0:
192,192,53153,1,0,0:0:0:0:
320,192,53335,1,0,0:0:0:0:
192,192,53335,1,0,0:0:0:0:
192,192,53426,1,0,0:0:0:0:
320,192,53517,1,0,0:0:0:0:
448,192,53517,1,0,0:0:0:0:
64,192,53517,1,0,0:0:0:0:
448,192,53608,1,0,0:0:0:0:
64,192,53699,1,0,0:0:0:0:
192,192,53699,1,0,0:0:0:0:
64,192,53790,1,0,0:0:0:0:
192,192,53880,1,0,0:0:0:0:
320,192,53880,1,0,0:0:0:0:
448,192,53880,1,0,0:0:0:0:
448,192,54062,1,0,0:0:0:0:
64,192,54062,1,0,0:0:0:0:
64,192,54153,1,0,0:0:0:0:
192,192,54244,1,0,0:0:0:0:
320,192,54244,1,0,0:0:0:0:
448,192,54244,1,0,0:0:0:0:
320,192,54335,1,0,0:0:0:0:
192,192,54426,1,0,0:0:0:0:
64,192,54426,1,0,0:0:0:0:
192,192,54517,1,0,0:0:0:0:
64,192,54608,1,0,0:0:0:0:
320,192,54608,1,0,0:0:0:0:
448,192,54608,1,0,0:0:0:0:
192,192,54790,1,0,0:0:0:0:
448,192,54790,1,0,0:0:0:0:
448,192,54880,1,0,0:0:0:0:
320,192,54971,1,0,0:0:0:0:
192,192,54971,1,0,0:0:0:0:
64,192,54971,1,0,0:0:0:0:
192,192,55062,1,0,0:0:0:0:
320,192,55153,1,0,0:0:0:0:
448,192,55153,1,0,0:0:0:0:
320,192,55244,1,0,0:0:0:0:
448,192,55335,1,0,0:0:0:0:
192,192,55335,1,0,0:0:0:0:
64,192,55335,1,0,0:0:0:0:
192,192,55517,1,0,0:0:0:0:
320,192,55517,1,0,0:0:0:0:
320,192,55608,1,0,0:0:0:0:
448,192,55699,1,0,0:0:0:0:
192,192,55699,1,0,0:0:0:0:
64,192,55699,1,0,0:0:0:0:
192,192,55790,1,0,0:0:0:0:
64,192,55880,1,0,0:0:0:0:
320,192,55880,1,0,0:0:0:0:
64,192,55971,1,0,0:0:0:0:
192,192,56062,1,0,0:0:0:0:
320,192,56062,1,0,0:0:0:0:
448,192,56062,1,0,0:0:0:0:
64,192,56244,1,0,0:0:0:0:
192,192,56244,1,0,0:0:0:0:
64,192,56335,1,0,0:0:0:0:
192,192,56426,1,0,0:0:0:0:
320,192,56426,1,0,0:0:0:0:
448,192,56426,1,0,0:0:0:0:
448,192,56517,1,0,0:0:0:0:
192,192,56608,1,0,0:0:0:0:
320,192,56608,1,0,0:0:0:0:
192,192,56699,1,0,0:0:0:0:
64,192,56790,1,0,0:0:0:0:
320,192,56790,1,0,0:0:0:0:
448,192,56790,1,0,0:0:0:0:
64,192,56971,1,0,0:0:0:0:
192,192,56971,1,0,0:0:0:0:
64,192,57062,1,0,0:0:0:0:
192,192,57153,1,0,0:0:0:0:
320,192,57153,1,0,0:0:0:0:
448,192,57153,1,0,0:0:0:0:
320,192,57244,1,0,0:0:0:0:
448,192,57335,1,0,0:0:0:0:
64,192,57335,1,0,0:0:0:0:
448,192,57426,1,0,0:0:0:0:
320,192,57517,1,0,0:0:0:0:
192,192,57517,1,0,0:0:0:0:
64,192,57517,1,0,0:0:0:0:
320,192,57699,1,0,0:0:0:0:
448,192,57699,1,0,0:0:0:0:
320,192,57790,1,0,0:0:0:0:
448,192,57880,1,0,0:0:0:0:
192,192,57880,1,0,0:0:0:0:
64,192,57880,1,0,0:0:0:0:
192,192,57971,1,0,0:0:0:0:
448,192,58062,1,0,0:0:0:0:
320,192,58062,1,0,0:0:0:0:
320,192,58153,1,0,0:0:0:0:
448,192,58244,1,0,0:0:0:0:
192,192,58244,1,0,0:0:0:0:
64,192,58244,1,0,0:0:0:0:
320,192,58426,1,0,0:0:0:0:
192,192,58426,1,0,0:0:0:0:
192,192,58517,1,0,0:0:0:0:
64,192,58608,1,0,0:0:0:0:
320,192,58608,1,0,0:0:0:0:
448,192,58608,1,0,0:0:0:0:
448,192,58699,1,0,0:0:0:0:
192,192,58790,1,0,0:0:0:0:
64,192,58790,1,0,0:0:0:0:
64,192,58880,1,0,0:0:0:0:
192,192,58971,1,0,0:0:0:0:
320,192,58971,1,0,0:0:0:0:
448,192,58971,1,0,0:0:0:0:
192,192,59153,1,0,0:0:0:0:
64,192,59153,1,0,0:0:0:0:
192,192,59244,1,0,0:0:0:0:
64,192,59335,1,0,0:0:0:0:
320,192,59335,1,0,0:0:0:0:
448,192,59335,1,0,0:0:0:0:
448,192,59426,1,0,0:0:0:0:
320,192,59517,1,0,0:0:0:0:
192,192,59517,1,0,0:0:0:0:
320,192,59608,1,0,0:0:0:0:
448,192,59699,1,0,0:0:0:0:
192,192,59699,1,0,0:0:0:0:
64,192,59699,1,0,0:0:0:0:
64,192,59880,1,0,0:0:0:0:
448,192,59880,1,0,0:0:0:0:
64,192,59971,1,0,0:0:0:0:
192,192,60062,1,0,0:0:0:0:
320,192,60062,1,0,0:0:0:0:
448,192,60062,1,0,0:0:0:0:
320,192,60153,1,0,0:0:0:0:
64,192,60244,1,0,0:0:0:0:
448,192,60244,1,0,0:0:0:0:
448,192,60335,1,0,0:0:0:0:
320,192,60426,1,0,0:0:0:0:
192,192,60426,1,0,0:0:0:0:
64,192,60426,1,0,0:0:0:0:
448,192,60608,1,0,0:0:0:0:
192,192,60608,1,0,0:0:0:0:
192,192,60699,1,0,0:0:0:0:
64,192,60790,1,0,0:0:0:0:
320,192,60790,1,0,0:0:0:0:
448,192,60790,1,0,0:0:0:0:
64,192,60880,1,0,0:0:0:0:
192,192,60971,1,0,0:0:0:0:
320,192,60971,1,0,0:0:0:0:
320,192,61062,1,0,0:0:0:0:
448,192,61153,1,0,0:0:0:0:
192,192,61153,1,0,0:0:0:0:
64,192,61153,1,0,0:0:0:0:
320,192,61335,1,0,0:0:0:0:
448,192,61335,1,0,0:0:0:0:
448,192,61426,1,0,0:0:0:0:
192,192,61517,1,0,0:0:0:0:
64,192,61517,1,0,0:0:0:0:
64,192,61608,1,0,0:0:0:0:
192,192,61699,1,0,0:0:0:0:
448,192,61699,1,0,0:0:0:0:
320,192,61699,1,0,0:0:0:0:
192,192,61790,1,0,0:0:0:0:
320,192,61880,1,0,0:0:0:0:
448,192,61880,1,0,0:0:0:0:
64,192,61880,1,0,0:0:0:0:
320,192,61971,1,0,0:0:0:0:
64,192,62062,1,0,0:0:0:0:
448,192,62062,1,0,0:0:0:0:
192,192,62062,1,0,0:0:0:0:
448,192,62153,1,0,0:0:0:0:
64,192,62244,1,0,0:0:0:0:
320,192,62244,1,0,0:0:0:0:
192,192,62244,1,0,0:0:0:0:
320,192,62335,1,0,0:0:0:0:
64,192,62426,1,0,0:0:0:0:
192,192,62426,1,0,0:0:0:0:
192,192,62517,1,0,0:0:0:0:
320,192,62608,1,0,0:0:0:0:
448,192,62608,1,0,0:0:0:0:
64,192,62608,1,0,0:0:0:0:
448,192,62699,1,0,0:0:0:0:
320,192,62790,1,0,0:0:0:0:
320,192,62880,1,0,0:0:0:0:
192,192,62971,1,0,0:0:0:0:
64,192,62971,1,0,0:0:0:0:
448,192,62971,1,0,0:0:0:0:
192,192,63062,1,0,0:0:0:0:
448,192,63153,1,0,0:0:0:0:
320,192,63153,1,0,0:0:0:0:
320,192,63244,1,0,0:0:0:0:
64,192,63335,1,0,0:0:0:0:
192,192,63335,1,0,0:0:0:0:
448,192,63335,1,0,0:0:0:0:
192,192,63426,1,0,0:0:0:0:
192,192,63517,1,0,0:0:0:0:
192,192,63608,1,0,0:0:0:0:
64,192,63699,1,0,0:0:0:0:
320,192,63699,1,0,0:0:0:0:
448,192,63699,1,0,0:0:0:0:
320,192,63790,1,0,0:0:0:0:
64,192,63880,1,0,0:0:0:0:
192,192,63880,1,0,0:0:0:0:
192,192,63971,1,0,0:0:0:0:
448,192,64062,1,0,0:0:0:0:
320,192,64062,1,0,0:0:0:0:
64,192,64062,1,0,0:0:0:0:
448,192,64153,1,0,0:0:0:0:
192,192,64244,1,0,0:0:0:0:
320,192,64244,1,0,0:0:0:0:
320,192,64335,1,0,0:0:0:0:
192,192,64426,1,0,0:0:0:0:
448,192,64426,1,0,0:0:0:0:
64,192,64426,1,0,0:0:0:0:
64,192,64517,1,0,0:0:0:0:
192,192,64517,1,0,0:0:0:0:
320,192,64608,1,0,0:0:0:0:
320,192,64699,1,0,0:0:0:0:
192,192,64790,1,0,0:0:0:0:
64,192,64790,1,0,0:0:0:0:
448,192,64790,1,0,0:0:0:0:
320,192,64880,1,0,0:0:0:0:
64,192,64971,1,0,0:0:0:0:
192,192,64971,1,0,0:0:0:0:
192,192,65062,1,0,0:0:0:0:
64,192,65062,1,0,0:0:0:0:
64,192,65153,1,0,0:0:0:0:
448,192,65153,1,0,0:0:0:0:
320,192,65153,1,0,0:0:0:0:
320,192,65244,1,0,0:0:0:0:
320,192,65335,1,0,0:0:0:0:
192,192,65426,1,0,0:0:0:0:
64,192,65517,1,0,0:0:0:0:
320,192,65517,1,0,0:0:0:0:
448,192,65517,1,0,0:0:0:0:
320,192,65608,1,0,0:0:0:0:
320,192,65699,1,0,0:0:0:0:
320,192,65790,1,0,0:0:0:0:
64,192,65880,1,0,0:0:0:0:
192,192,65880,1,0,0:0:0:0:
448,192,65880,1,0,0:0:0:0:
320,192,65971,1,0,0:0:0:0:
64,192,66062,1,0,0:0:0:0:
192,192,66062,1,0,0:0:0:0:
192,192,66153,1,0,0:0:0:0:
64,192,66244,1,0,0:0:0:0:
448,192,66244,1,0,0:0:0:0:
320,192,66244,1,0,0:0:0:0:
448,192,66335,1,0,0:0:0:0:
448,192,66426,1,0,0:0:0:0:
448,192,66517,1,0,0:0:0:0:
64,192,66608,1,0,0:0:0:0:
320,192,66608,1,0,0:0:0:0:
192,192,66608,1,0,0:0:0:0:
320,192,66699,1,0,0:0:0:0:
64,192,66790,1,0,0:0:0:0:
448,192,66790,1,0,0:0:0:0:
64,192,66880,1,0,0:0:0:0:
192,192,66971,1,0,0:0:0:0:
320,192,66971,1,0,0:0:0:0:
448,192,66971,1,0,0:0:0:0:
192,192,67062,1,0,0:0:0:0:
320,192,67153,1,0,0:0:0:0:
448,192,67153,1,0,0:0:0:0:
448,192,67244,1,0,0:0:0:0:
320,192,67335,1,0,0:0:0:0:
192,192,67335,1,0,0:0:0:0:
64,192,67335,1,0,0:0:0:0:
64,192,67426,1,0,0:0:0:0:
192,192,67517,1,0,0:0:0:0:
320,192,67517,1,0,0:0:0:0:
320,192,67608,1,0,0:0:0:0:
64,192,67699,1,0,0:0:0:0:
192,192,67699,1,0,0:0:0:0:
448,192,67699,1,0,0:0:0:0:
192,192,67790,1,0,0:0:0:0:
64,192,67790,1,0,0:0:0:0:
320,192,67880,1,0,0:0:0:0:
64,192,67971,1,0,0:0:0:0:
448,192,68062,1,0,0:0:0:0:
192,192,68062,1,0,0:0:0:0:
320,192,68062,1,0,0:0:0:0:
192,192,68153,1,0,0:0:0:0:
448,192,68244,1,0,0:0:0:0:
320,192,68244,1,0,0:0:0:0:
320,192,68335,1,0,0:0:0:0:
192,192,68426,1,0,0:0:0:0:
64,192,68426,1,0,0:0:0:0:
448,192,68426,1,0,0:0:0:0:
64,192,68517,1,0,0:0:0:0:
192,192,68608,1,0,0:0:0:0:
192,192,68699,1,0,0:0:0:0:
320,192,68790,1,0,0:0:0:0:
448,192,68790,1,0,0:0:0:0:
64,192,68790,1,0,0:0:0:0:
320,192,68880,1,0,0:0:0:0:
64,192,68971,1,0,0:0:0:0:
192,192,68971,1,0,0:0:0:0:
192,192,69062,1,0,0:0:0:0:
448,192,69153,1,0,0:0:0:0:
320,192,69153,1,0,0:0:0:0:
64,192,69153,1,0,0:0:0:0:
320,192,69244,1,0,0:0:0:0:
320,192,69335,1,0,0:0:0:0:
320,192,69426,1,0,0:0:0:0:
448,192,69517,1,0,0:0:0:0:
192,192,69517,1,0,0:0:0:0:
64,192,69517,1,0,0:0:0:0:
192,192,69608,1,0,0:0:0:0:
448,192,69699,1,0,0:0:0:0:
320,192,69699,1,0,0:0:0:0:
320,192,69790,1,0,0:0:0:0:
64,192,69880,1,0,0:0:0:0:
192,192,69880,1,0,0:0:0:0:
448,192,69880,1,0,0:0:0:0:
64,192,69971,1,0,0:0:0:0:
320,192,70062,1,0,0:0:0:0:
192,192,70062,1,0,0:0:0:0:
192,192,70153,1,0,0:0:0:0:
320,192,70244,1,0,0:0:0:0:
64,192,70244,1,0,0:0:0:0:
448,192,70244,1,0,0:0:0:0:
448,192,70335,1,0,0:0:0:0:
320,192,70335,1,0,0:0:0:0:
192,192,70426,1,0,0:0:0:0:
192,192,70517,1,0,0:0:0:0:
320,192,70608,1,0,0:0:0:0:
448,192,70608,1,0,0:0:0:0:
64,192,70608,1,0,0:0:0:0:
192,192,70699,1,0,0:0:0:0:
448,192,70790,1,0,0:0:0:0:
320,192,70790,1,0,0:0:0:0:
320,192,70880,1,0,0:0:0:0:
448,192,70880,1,0,0:0:0:0:
448,192,70971,1,0,0:0:0:0:
64,192,70971,1,0,0:0:0:0:
192,192,70971,1,0,0:0:0:0:
192,192,71062,1,0,0:0:0:0:
192,192,71153,1,0,0:0:0:0:
320,192,71244,1,0,0:0:0:0:
448,192,71335,1,0,0:0:0:0:
192,192,71335,1,0,0:0:0:0:
64,192,71335,1,0,0:0:0:0:
192,192,71426,1,0,0:0:0:0:
192,192,71517,1,0,0:0:0:0:
192,192,71608,1,0,0:0:0:0:
448,192,71699,1,0,0:0:0:0:
320,192,71699,1,0,0:0:0:0:
64,192,71699,1,0,0:0:0:0:
192,192,71790,1,0,0:0:0:0:
448,192,71880,1,0,0:0:0:0:
320,192,71880,1,0,0:0:0:0:
320,192,71971,1,0,0:0:0:0:
448,192,72062,1,0,0:0:0:0:
64,192,72062,1,0,0:0:0:0:
192,192,72062,1,0,0:0:0:0:
64,192,72153,1,0,0:0:0:0:
64,192,72244,1,0,0:0:0:0:
64,192,72335,1,0,0:0:0:0:
448,192,72426,1,0,0:0:0:0:
192,192,72426,1,0,0:0:0:0:
320,192,72426,1,0,0:0:0:0:
192,192,72517,1,0,0:0:0:0:
448,192,72608,1,0,0:0:0:0:
64,192,72608,1,0,0:0:0:0:
448,192,72699,1,0,0:0:0:0:
320,192,72790,1,0,0:0:0:0:
192,192,72790,1,0,0:0:0:0:
320,192,72880,1,0,0:0:0:0:
192,192,72971,1,0,0:0:0:0:
64,192,72971,1,0,0:0:0:0:
64,192,73062,1,0,0:0:0:0:
320,192,73153,1,0,0:0:0:0:
448,192,73153,1,0,0:0:0:0:
448,192,73244,1,0,0:0:0:0:
320,192,73335,1,0,0:0:0:0:
192,192,73335,1,0,0:0:0:0:
64,192,73335,1,0,0:0:0:0:
192,192,73426,1,0,0:0:0:0:
448,192,73517,1,0,0:0:0:0:
320,192,73517,1,0,0:0:0:0:
64,192,73517,1,0,0:0:0:0:
320,192,73608,1,0,0:0:0:0:
448,192,73699,1,0,0:0:0:0:
64,192,73699,1,0,0:0:0:0:
192,192,73699,1,0,0:0:0:0:
192,192,73790,1,0,0:0:0:0:
64,192,73880,1,0,0:0:0:0:
320,192,73880,1,0,0:0:0:0:
448,192,73880,1,0,0:0:0:0:
320,192,73971,1,0,0:0:0:0:
64,192,74062,1,0,0:0:0:0:
192,192,74062,1,0,0:0:0:0:
64,192,74153,1,0,0:0:0:0:
192,192,74244,1,0,0:0:0:0:
320,192,74244,1,0,0:0:0:0:
448,192,74244,1,0,0:0:0:0:
448,192,74335,1,0,0:0:0:0:
448,192,74426,1,0,0:0:0:0:
448,192,74517,1,0,0:0:0:0:
320,192,74608,1,0,0:0:0:0:
192,192,74608,1,0,0:0:0:0:
64,192,74608,1,0,0:0:0:0:
64,192,74699,1,0,0:0:0:0:
64,192,74790,1,0,0:0:0:0:
64,192,74880,1,0,0:0:0:0:
192,192,74971,1,0,0:0:0:0:
320,192,74971,1,0,0:0:0:0:
448,192,74971,1,0,0:0:0:0:
64,192,75153,1,0,0:0:0:0:
192,192,75153,1,0,0:0:0:0:
192,192,75244,1,0,0:0:0:0:
64,192,75335,1,0,0:0:0:0:
320,192,75335,1,0,0:0:0:0:
448,192,75335,1,0,0:0:0:0:
448,192,75426,1,0,0:0:0:0:
320,192,75517,1,0,0:0:0:0:
192,192,75517,1,0,0:0:0:0:
320,192,75608,1,0,0:0:0:0:
64,192,75699,1,0,0:0:0:0:
192,192,75699,1,0,0:0:0:0:
448,192,75699,1,0,0:0:0:0:
320,192,75880,1,0,0:0:0:0:
448,192,75880,1,0,0:0:0:0:
448,192,75971,1,0,0:0:0:0:
320,192,76062,1,0,0:0:0:0:
192,192,76062,1,0,0:0:0:0:
64,192,76062,1,0,0:0:0:0:
192,192,76153,1,0,0:0:0:0:
64,192,76244,1,0,0:0:0:0:
448,192,76244,1,0,0:0:0:0:
64,192,76335,1,0,0:0:0:0:
192,192,76426,1,0,0:0:0:0:
320,192,76426,1,0,0:0:0:0:
448,192,76426,1,0,0:0:0:0:
320,192,76517,1,0,0:0:0:0:
64,192,76608,1,0,0:0:0:0:
192,192,76608,1,0,0:0:0:0:
192,192,76699,1,0,0:0:0:0:
64,192,76790,1,0,0:0:0:0:
320,192,76790,1,0,0:0:0:0:
448,192,76790,1,0,0:0:0:0:
448,192,76880,1,0,0:0:0:0:
320,192,76971,1,0,0:0:0:0:
192,192,76971,1,0,0:0:0:0:
192,192,77062,1,0,0:0:0:0:
64,192,77153,1,0,0:0:0:0:
320,192,77153,1,0,0:0:0:0:
448,192,77153,1,0,0:0:0:0:
192,192,77335,1,0,0:0:0:0:
448,192,77335,1,0,0:0:0:0:
448,192,77426,1,0,0:0:0:0:
320,192,77517,1,0,0:0:0:0:
192,192,77517,1,0,0:0:0:0:
64,192,77517,1,0,0:0:0:0:
320,192,77608,1,0,0:0:0:0:
320,192,77699,1,0,0:0:0:0:
320,192,77790,1,0,0:0:0:0:
448,192,77880,1,0,0:0:0:0:
192,192,77880,1,0,0:0:0:0:
64,192,77880,1,0,0:0:0:0:
320,192,78062,1,0,0:0:0:0:
448,192,78062,1,0,0:0:0:0:
320,192,78153,1,0,0:0:0:0:
64,192,78244,1,0,0:0:0:0:
192,192,78244,1,0,0:0:0:0:
448,192,78244,1,0,0:0:0:0:
64,192,78335,1,0,0:0:0:0:
192,192,78426,1,0,0:0:0:0:
320,192,78426,1,0,0:0:0:0:
320,192,78517,1,0,0:0:0:0:
448,192,78608,1,0,0:0:0:0:
192,192,78608,1,0,0:0:0:0:
64,192,78608,1,0,0:0:0:0:
320,192,78790,1,0,0:0:0:0:
448,192,78790,1,0,0:0:0:0:
320,192,78880,1,0,0:0:0:0:
448,192,78971,1,0,0:0:0:0:
192,192,78971,1,0,0:0:0:0:
64,192,78971,1,0,0:0:0:0:
192,192,79062,1,0,0:0:0:0:
320,192,79153,1,0,0:0:0:0:
448,192,79153,1,0,0:0:0:0:
320,192,79244,1,0,0:0:0:0:
448,192,79335,1,0,0:0:0:0:
192,192,79335,1,0,0:0:0:0:
64,192,79335,1,0,0:0:0:0:
448,192,79426,1,0,0:0:0:0:
192,192,79517,1,0,0:0:0:0:
64,192,79517,1,0,0:0:0:0:
192,192,79608,1,0,0:0:0:0:
64,192,79699,1,0,0:0:0:0:
320,192,79699,1,0,0:0:0:0:
448,192,79699,1,0,0:0:0:0:
320,192,79790,1,0,0:0:0:0:
64,192,79880,1,0,0:0:0:0:
448,192,79880,1,0,0:0:0:0:
64,192,79971,1,0,0:0:0:0:
192,192,80062,1,0,0:0:0:0:
320,192,80062,1,0,0:0:0:0:
448,192,80062,1,0,0:0:0:0:
448,192,80153,1,0,0:0:0:0:
448,192,80244,1,0,0:0:0:0:
448,192,80335,1,0,0:0:0:0:
64,192,80426,1,0,0:0:0:0:
320,192,80426,1,0,0:0:0:0:
192,192,80426,1,0,0:0:0:0:
64,192,80517,1,0,0:0:0:0:
64,192,80608,1,0,0:0:0:0:
64,192,80699,1,0,0:0:0:0:
320,192,80790,1,0,0:0:0:0:
448,192,80790,1,0,0:0:0:0:
192,192,80790,1,0,0:0:0:0:
320,192,80971,1,0,0:0:0:0:
448,192,80971,1,0,0:0:0:0:
320,192,81062,1,0,0:0:0:0:
448,192,81153,1,0,0:0:0:0:
192,192,81153,1,0,0:0:0:0:
64,192,81153,1,0,0:0:0:0:
64,192,81244,1,0,0:0:0:0:
192,192,81335,1,0,0:0:0:0:
448,192,81335,1,0,0:0:0:0:
192,192,81426,1,0,0:0:0:0:
320,192,81517,1,0,0:0:0:0:
448,192,81517,1,0,0:0:0:0:
64,192,81517,1,0,0:0:0:0:
320,192,81608,1,0,0:0:0:0:
448,192,81699,1,0,0:0:0:0:
192,192,81699,1,0,0:0:0:0:
448,192,81790,1,0,0:0:0:0:
320,192,81880,1,0,0:0:0:0:
192,192,81880,1,0,0:0:0:0:
64,192,81880,1,0,0:0:0:0:
192,192,81971,1,0,0:0:0:0:
192,192,82062,1,0,0:0:0:0:
192,192,82153,1,0,0:0:0:0:
64,192,82244,1,0,0:0:0:0:
320,192,82244,1,0,0:0:0:0:
448,192,82244,1,0,0:0:0:0:
320,192,82335,1,0,0:0:0:0:
320,192,82426,1,0,0:0:0:0:
320,192,82517,1,0,0:0:0:0:
448,192,82608,1,0,0:0:0:0:
192,192,82608,1,0,0:0:0:0:
64,192,82608,1,0,0:0:0:0:
64,192,82790,1,0,0:0:0:0:
320,192,82790,1,0,0:0:0:0:
448,192,82790,1,0,0:0:0:0:
448,192,83335,1,0,0:0:0:0:
64,192,83335,1,0,0:0:0:0:
192,192,83335,1,0,0:0:0:0:
320,192,83517,1,0,0:0:0:0:
448,192,83517,1,0,0:0:0:0:
64,192,83517,1,0,0:0:0:0:
192,192,83880,1,0,0:0:0:0:
320,192,83880,1,0,0:0:0:0:
448,192,83880,1,0,0:0:0:0:
448,192,84244,1,0,0:0:0:0:
320,192,84244,1,0,0:0:0:0:
192,192,84244,1,0,0:0:0:0:
448,192,84426,1,0,0:0:0:0:
320,192,84426,1,0,0:0:0:0:
192,192,84426,1,0,0:0:0:0:
320,192,84608,1,0,0:0:0:0:
192,192,84608,1,0,0:0:0:0:
64,192,84608,1,0,0:0:0:0:
64,192,85153,1,0,0:0:0:0:
448,192,85153,1,0,0:0:0:0:
192,192,85335,1,0,0:0:0:0:
320,192,85335,1,0,0:0:0:0:
64,192,85517,1,0,0:0:0:0:
320,192,85517,1,0,0:0:0:0:
448,192,85517,1,0,0:0:0:0:
320,192,85608,1,0,0:0:0:0:
192,192,85699,1,0,0:0:0:0:
64,192,85699,1,0,0:0:0:0:
192,192,85790,1,0,0:0:0:0:
64,192,85880,1,0,0:0:0:0:
320,192,85880,1,0,0:0:0:0:
448,192,85880,1,0,0:0:0:0:
64,192,85971,1,0,0:0:0:0:
448,192,86062,1,0,0:0:0:0:
320,192,86062,1,0,0:0:0:0:
448,192,86153,1,0,0:0:0:0:
320,192,86244,1,0,0:0:0:0:
192,192,86244,1,0,0:0:0:0:
64,192,86244,1,0,0:0:0:0:
64,192,86335,1,0,0:0:0:0:
448,192,86426,1,0,0:0:0:0:
320,192,86426,1,0,0:0:0:0:
320,192,86517,1,0,0:0:0:0:
448,192,86608,1,0,0:0:0:0:
192,192,86608,1,0,0:0:0:0:
64,192,86608,1,0,0:0:0:0:
192,192,86699,1,0,0:0:0:0:
64,192,86790,1,0,0:0:0:0:
448,192,86790,1,0,0:0:0:0:
448,192,86880,1,0,0:0:0:0:
320,192,86971,1,0,0:0:0:0:
192,192,86971,1,0,0:0:0:0:
64,192,86971,1,0,0:0:0:0:
320,192,87062,1,0,0:0:0:0:
320,192,87153,1,0,0:0:0:0:
320,192,87244,1,0,0:0:0:0:
448,192,87335,1,0,0:0:0:0:
192,192,87335,1,0,0:0:0:0:
64,192,87335,1,0,0:0:0:0:
192,192,87426,1,0,0:0:0:0:
192,192,87517,1,0,0:0:0:0:
192,192,87608,1,0,0:0:0:0:
64,192,87699,1,0,0:0:0:0:
320,192,87699,1,0,0:0:0:0:
448,192,87699,1,0,0:0:0:0:
64,192,87790,1,0,0:0:0:0:
64,192,87880,1,0,0:0:0:0:
64,192,87971,1,0,0:0:0:0:
192,192,88062,1,0,0:0:0:0:
320,192,88062,1,0,0:0:0:0:
448,192,88062,1,0,0:0:0:0:
320,192,88153,1,0,0:0:0:0:
192,192,88244,1,0,0:0:0:0:
64,192,88244,1,0,0:0:0:0:
192,192,88335,1,0,0:0:0:0:
64,192,88426,1,0,0:0:0:0:
320,192,88426,1,0,0:0:0:0:
448,192,88426,1,0,0:0:0:0:
448,192,88517,1,0,0:0:0:0:
320,192,88608,1,0,0:0:0:0:
192,192,88608,1,0,0:0:0:0:
192,192,88699,5,0,0:0:0:0:
64,192,88790,1,0,0:0:0:0:
320,192,88790,1,0,0:0:0:0:
448,192,88790,1,0,0:0:0:0:
320,192,88880,1,0,0:0:0:0:
64,192,88971,1,0,0:0:0:0:
192,192,88971,1,0,0:0:0:0:
64,192,89062,1,0,0:0:0:0:
192,192,89153,1,0,0:0:0:0:
320,192,89153,1,0,0:0:0:0:
448,192,89153,1,0,0:0:0:0:
448,192,89244,1,0,0:0:0:0:
64,192,89335,1,0,0:0:0:0:
192,192,89335,1,0,0:0:0:0:
192,192,89426,1,0,0:0:0:0:
320,192,89517,1,0,0:0:0:0:
448,192,89517,1,0,0:0:0:0:
64,192,89517,1,0,0:0:0:0:
64,192,89608,1,0,0:0:0:0:
192,192,89699,1,0,0:0:0:0:
448,192,89699,1,0,0:0:0:0:
448,192,89790,1,0,0:0:0:0:
64,192,89880,5,0,0:0:0:0:
192,192,89880,1,0,0:0:0:0:
320,192,89880,1,0,0:0:0:0:
192,192,89971,1,0,0:0:0:0:
320,192,90062,1,0,0:0:0:0:
448,192,90062,1,0,0:0:0:0:
192,192,90062,1,0,0:0:0:0:
320,192,90153,1,0,0:0:0:0:
320,192,90244,1,0,0:0:0:0:
64,192,90244,1,0,0:0:0:0:
192,192,90244,1,0,0:0:0:0:
192,192,90335,1,0,0:0:0:0:
64,192,90426,1,0,0:0:0:0:
448,192,90426,1,0,0:0:0:0:
192,192,90426,1,0,0:0:0:0:
64,192,90517,1,0,0:0:0:0:
448,192,90608,1,0,0:0:0:0:
64,192,90608,1,0,0:0:0:0:
320,192,90608,1,0,0:0:0:0:
320,192,90699,1,0,0:0:0:0:
448,192,90790,1,0,0:0:0:0:
192,192,90790,1,0,0:0:0:0:
320,192,90790,1,0,0:0:0:0:
448,192,90880,1,0,0:0:0:0:
320,192,90971,1,0,0:0:0:0:
192,192,90971,1,0,0:0:0:0:
64,192,90971,1,0,0:0:0:0:
192,192,91062,1,0,0:0:0:0:
320,192,91153,1,0,0:0:0:0:
64,192,91153,1,0,0:0:0:0:
448,192,91153,1,0,0:0:0:0:
192,192,91244,1,0,0:0:0:0:
64,192,91335,1,0,0:0:0:0:
320,192,91335,1,0,0:0:0:0:
448,192,91335,1,0,0:0:0:0:
448,192,91426,1,0,0:0:0:0:
320,192,91517,1,0,0:0:0:0:
192,192,91517,1,0,0:0:0:0:
192,192,91608,1,0,0:0:0:0:
64,192,91699,1,0,0:0:0:0:
320,192,91699,1,0,0:0:0:0:
448,192,91699,1,0,0:0:0:0:
64,192,91790,1,0,0:0:0:0:
320,192,91880,1,0,0:0:0:0:
448,192,91880,1,0,0:0:0:0:
320,192,91971,1,0,0:0:0:0:
64,192,92062,1,0,0:0:0:0:
192,192,92062,1,0,0:0:0:0:
448,192,92062,1,0,0:0:0:0:
192,192,92153,1,0,0:0:0:0:
320,192,92244,1,0,0:0:0:0:
64,192,92244,1,0,0:0:0:0:
64,192,92335,1,0,0:0:0:0:
192,192,92426,1,0,0:0:0:0:
320,192,92426,1,0,0:0:0:0:
448,192,92426,1,0,0:0:0:0:
448,192,92517,1,0,0:0:0:0:
64,192,92608,1,0,0:0:0:0:
192,192,92608,1,0,0:0:0:0:
192,192,92699,1,0,0:0:0:0:
64,192,92790,1,0,0:0:0:0:
320,192,92790,1,0,0:0:0:0:
448,192,92790,1,0,0:0:0:0:
448,192,92880,1,0,0:0:0:0:
448,192,92971,1,0,0:0:0:0:
448,192,93062,1,0,0:0:0:0:
320,192,93153,1,0,0:0:0:0:
192,192,93153,1,0,0:0:0:0:
64,192,93153,1,0,0:0:0:0:
320,192,93244,1,0,0:0:0:0:
320,192,93335,1,0,0:0:0:0:
320,192,93426,1,0,0:0:0:0:
448,192,93517,1,0,0:0:0:0:
192,192,93517,1,0,0:0:0:0:
64,192,93517,1,0,0:0:0:0:
64,192,93608,1,0,0:0:0:0:
64,192,93699,1,0,0:0:0:0:
64,192,93790,1,0,0:0:0:0:
192,192,93880,1,0,0:0:0:0:
320,192,93880,1,0,0:0:0:0:
448,192,93880,1,0,0:0:0:0:
320,192,93971,1,0,0:0:0:0:
192,192,94062,1,0,0:0:0:0:
64,192,94062,1,0,0:0:0:0:
64,192,94153,1,0,0:0:0:0:
192,192,94244,1,0,0:0:0:0:
320,192,94244,1,0,0:0:0:0:
448,192,94244,1,0,0:0:0:0:
448,192,94335,1,0,0:0:0:0:
64,192,94426,1,0,0:0:0:0:
192,192,94426,1,0,0:0:0:0:
192,192,94517,1,0,0:0:0:0:
64,192,94608,1,0,0:0:0:0:
320,192,94608,1,0,0:0:0:0:
448,192,94608,1,0,0:0:0:0:
320,192,94699,1,0,0:0:0:0:
448,192,94790,1,0,0:0:0:0:
192,192,94790,1,0,0:0:0:0:
192,192,94880,1,0,0:0:0:0:
64,192,94971,1,0,0:0:0:0:
320,192,94971,1,0,0:0:0:0:
448,192,94971,1,0,0:0:0:0:
64,192,95062,1,0,0:0:0:0:
448,192,95153,1,0,0:0:0:0:
192,192,95153,1,0,0:0:0:0:
448,192,95244,1,0,0:0:0:0:
320,192,95335,1,0,0:0:0:0:
192,192,95335,1,0,0:0:0:0:
64,192,95335,1,0,0:0:0:0:
320,192,95426,1,0,0:0:0:0:
192,192,95517,1,0,0:0:0:0:
64,192,95517,1,0,0:0:0:0:
192,192,95608,1,0,0:0:0:0:
64,192,95699,1,0,0:0:0:0:
192,192,95699,1,0,0:0:0:0:
320,192,95699,1,0,0:0:0:0:
448,192,95699,1,0,0:0:0:0:
448,192,95790,1,0,0:0:0:0:
320,192,95790,1,0,0:0:0:0:
448,192,95880,1,0,0:0:0:0:
192,192,95880,1,0,0:0:0:0:
64,192,95880,1,0,0:0:0:0:
64,192,95971,1,0,0:0:0:0:
192,192,95971,1,0,0:0:0:0:
64,192,96062,1,0,0:0:0:0:
192,192,96062,1,0,0:0:0:0:
320,192,96062,1,0,0:0:0:0:
448,192,96062,1,0,0:0:0:0:
448,192,96153,1,0,0:0:0:0:
320,192,96153,1,0,0:0:0:0:
448,192,96244,1,0,0:0:0:0:
64,192,96244,1,0,0:0:0:0:
192,192,96244,1,0,0:0:0:0:
64,192,96335,1,0,0:0:0:0:
192,192,96335,1,0,0:0:0:0:
64,192,96426,1,0,0:0:0:0:
192,192,96426,1,0,0:0:0:0:
320,192,96426,1,0,0:0:0:0:
448,192,96426,1,0,0:0:0:0:
448,192,96517,1,0,0:0:0:0:
320,192,96517,1,0,0:0:0:0:
448,192,96608,1,0,0:0:0:0:
192,192,96608,1,0,0:0:0:0:
64,192,96608,1,0,0:0:0:0:
64,192,96699,1,0,0:0:0:0:
192,192,96699,1,0,0:0:0:0:
64,192,96790,1,0,0:0:0:0:
192,192,96790,1,0,0:0:0:0:
320,192,96790,1,0,0:0:0:0:
448,192,96790,1,0,0:0:0:0:
448,192,96880,1,0,0:0:0:0:
320,192,96880,1,0,0:0:0:0:
448,192,96971,1,0,0:0:0:0:
192,192,96971,1,0,0:0:0:0:
64,192,96971,1,0,0:0:0:0:
192,192,97062,1,0,0:0:0:0:
320,192,97153,1,0,0:0:0:0:
448,192,97153,1,0,0:0:0:0:
64,192,97153,1,0,0:0:0:0:
64,192,97244,1,0,0:0:0:0:
192,192,97335,1,0,0:0:0:0:
320,192,97335,1,0,0:0:0:0:
320,192,97426,1,0,0:0:0:0:
448,192,97517,1,0,0:0:0:0:
192,192,97517,1,0,0:0:0:0:
64,192,97517,1,0,0:0:0:0:
448,192,97608,1,0,0:0:0:0:
64,192,97699,1,0,0:0:0:0:
192,192,97699,1,0,0:0:0:0:
192,192,97790,1,0,0:0:0:0:
320,192,97880,1,0,0:0:0:0:
448,192,97880,1,0,0:0:0:0:
64,192,97880,1,0,0:0:0:0:
320,192,97971,1,0,0:0:0:0:
448,192,98062,1,0,0:0:0:0:
64,192,98062,1,0,0:0:0:0:
448,192,98153,1,0,0:0:0:0:
64,192,98244,1,0,0:0:0:0:
192,192,98244,1,0,0:0:0:0:
320,192,98244,1,0,0:0:0:0:
192,192,98335,1,0,0:0:0:0:
320,192,98426,1,0,0:0:0:0:
448,192,98426,1,0,0:0:0:0:
320,192,98517,1,0,0:0:0:0:
64,192,98608,1,0,0:0:0:0:
192,192,98608,1,0,0:0:0:0:
448,192,98608,1,0,0:0:0:0:
448,192,98699,1,0,0:0:0:0:
448,192,98790,1,0,0:0:0:0:
448,192,98880,1,0,0:0:0:0:
64,192,98971,1,0,0:0:0:0:
192,192,98971,1,0,0:0:0:0:
320,192,98971,1,0,0:0:0:0:
192,192,99062,1,0,0:0:0:0:
192,192,99153,1,0,0:0:0:0:
192,192,99244,1,0,0:0:0:0:
64,192,99335,1,0,0:0:0:0:
320,192,99335,1,0,0:0:0:0:
448,192,99335,1,0,0:0:0:0:
64,192,99426,1,0,0:0:0:0:
64,192,99517,1,0,0:0:0:0:
64,192,99608,1,0,0:0:0:0:
192,192,99699,1,0,0:0:0:0:
320,192,99699,1,0,0:0:0:0:
448,192,99699,1,0,0:0:0:0:
448,192,99790,1,0,0:0:0:0:
320,192,99880,1,0,0:0:0:0:
64,192,99880,1,0,0:0:0:0:
64,192,99971,1,0,0:0:0:0:
192,192,100062,1,0,0:0:0:0:
320,192,100062,1,0,0:0:0:0:
448,192,100062,1,0,0:0:0:0:
192,192,100153,1,0,0:0:0:0:
320,192,100244,1,0,0:0:0:0:
448,192,100244,1,0,0:0:0:0:
320,192,100335,1,0,0:0:0:0:
448,192,100426,1,0,0:0:0:0:
192,192,100426,1,0,0:0:0:0:
64,192,100426,1,0,0:0:0:0:
64,192,100517,1,0,0:0:0:0:
320,192,100608,1,0,0:0:0:0:
192,192,100608,1,0,0:0:0:0:
192,192,100699,1,0,0:0:0:0:
64,192,100790,1,0,0:0:0:0:
320,192,100790,1,0,0:0:0:0:
448,192,100790,1,0,0:0:0:0:
448,192,100880,1,0,0:0:0:0:
64,192,100971,1,0,0:0:0:0:
192,192,100971,1,0,0:0:0:0:
192,192,101062,1,0,0:0:0:0:
320,192,101153,1,0,0:0:0:0:
448,192,101153,1,0,0:0:0:0:
64,192,101153,1,0,0:0:0:0:
320,192,101244,1,0,0:0:0:0:
64,192,101335,1,0,0:0:0:0:
192,192,101335,1,0,0:0:0:0:
64,192,101426,1,0,0:0:0:0:
320,192,101517,1,0,0:0:0:0:
192,192,101517,1,0,0:0:0:0:
64,192,101517,1,0,0:0:0:0:
192,192,101608,1,0,0:0:0:0:
320,192,101699,1,0,0:0:0:0:
192,192,101699,1,0,0:0:0:0:
448,192,101699,1,0,0:0:0:0:
320,192,101790,1,0,0:0:0:0:
64,192,101880,1,0,0:0:0:0:
192,192,101880,1,0,0:0:0:0:
320,192,101880,1,0,0:0:0:0:
192,192,101971,1,0,0:0:0:0:
448,192,102062,1,0,0:0:0:0:
192,192,102062,1,0,0:0:0:0:
64,192,102062,1,0,0:0:0:0:
64,192,102153,1,0,0:0:0:0:
64,192,102244,1,0,0:0:0:0:
320,192,102244,1,0,0:0:0:0:
448,192,102244,1,0,0:0:0:0:
320,192,102335,1,0,0:0:0:0:
320,192,102426,1,0,0:0:0:0:
192,192,102426,1,0,0:0:0:0:
448,192,102426,1,0,0:0:0:0:
448,192,102517,1,0,0:0:0:0:
192,192,102608,1,0,0:0:0:0:
320,192,102608,1,0,0:0:0:0:
64,192,102608,1,0,0:0:0:0:
320,192,102699,1,0,0:0:0:0:
192,192,102790,1,0,0:0:0:0:
448,192,102790,1,0,0:0:0:0:
64,192,102790,1,0,0:0:0:0:
320,192,102880,1,0,0:0:0:0:
448,192,102971,1,0,0:0:0:0:
192,192,102971,1,0,0:0:0:0:
64,192,102971,1,0,0:0:0:0:
64,192,103062,1,0,0:0:0:0:
320,192,103153,1,0,0:0:0:0:
448,192,103153,1,0,0:0:0:0:
320,192,103244,1,0,0:0:0:0:
448,192,103335,1,0,0:0:0:0:
192,192,103335,1,0,0:0:0:0:
64,192,103335,1,0,0:0:0:0:
448,192,103426,1,0,0:0:0:0:
320,192,103517,1,0,0:0:0:0:
192,192,103517,1,0,0:0:0:0:
192,192,103608,1,0,0:0:0:0:
64,192,103699,1,0,0:0:0:0:
320,192,103699,1,0,0:0:0:0:
448,192,103699,1,0,0:0:0:0:
320,192,103790,1,0,0:0:0:0:
64,192,103880,1,0,0:0:0:0:
192,192,103880,1,0,0:0:0:0:
64,192,103971,1,0,0:0:0:0:
192,192,104062,1,0,0:0:0:0:
320,192,104062,1,0,0:0:0:0:
448,192,104062,1,0,0:0:0:0:
320,192,104153,1,0,0:0:0:0:
448,192,104244,1,0,0:0:0:0:
64,192,104244,1,0,0:0:0:0:
448,192,104335,1,0,0:0:0:0:
320,192,104426,1,0,0:0:0:0:
192,192,104426,1,0,0:0:0:0:
64,192,104426,1,0,0:0:0:0:
320,192,104517,1,0,0:0:0:0:
320,192,104608,1,0,0:0:0:0:
320,192,104699,1,0,0:0:0:0:
448,192,104790,1,0,0:0:0:0:
192,192,104790,1,0,0:0:0:0:
64,192,104790,1,0,0:0:0:0:
192,192,104880,1,0,0:0:0:0:
192,192,104971,1,0,0:0:0:0:
192,192,105062,1,0,0:0:0:0:
64,192,105153,1,0,0:0:0:0:
448,192,105153,1,0,0:0:0:0:
320,192,105153,1,0,0:0:0:0:
64,192,105244,1,0,0:0:0:0:
64,192,105335,1,0,0:0:0:0:
64,192,105426,1,0,0:0:0:0:
320,192,105517,1,0,0:0:0:0:
192,192,105517,1,0,0:0:0:0:
448,192,105517,1,0,0:0:0:0:
192,192,105608,1,0,0:0:0:0:
320,192,105699,1,0,0:0:0:0:
448,192,105699,1,0,0:0:0:0:
448,192,105790,1,0,0:0:0:0:
192,192,105880,1,0,0:0:0:0:
320,192,105880,1,0,0:0:0:0:
64,192,105880,1,0,0:0:0:0:
64,192,105971,1,0,0:0:0:0:
192,192,106062,1,0,0:0:0:0:
320,192,106062,1,0,0:0:0:0:
320,192,106153,1,0,0:0:0:0:
64,192,106244,1,0,0:0:0:0:
192,192,106244,1,0,0:0:0:0:
448,192,106244,1,0,0:0:0:0:
192,192,106335,1,0,0:0:0:0:
320,192,106426,1,0,0:0:0:0:
448,192,106426,1,0,0:0:0:0:
448,192,106517,1,0,0:0:0:0:
320,192,106608,1,0,0:0:0:0:
192,192,106608,1,0,0:0:0:0:
64,192,106608,1,0,0:0:0:0:
192,192,106699,1,0,0:0:0:0:
448,192,106790,1,0,0:0:0:0:
320,192,106790,1,0,0:0:0:0:
320,192,106880,1,0,0:0:0:0:
64,192,106971,1,0,0:0:0:0:
192,192,106971,1,0,0:0:0:0:
448,192,106971,1,0,0:0:0:0:
64,192,107062,1,0,0:0:0:0:
320,192,107153,1,0,0:0:0:0:
448,192,107153,1,0,0:0:0:0:
320,192,107244,1,0,0:0:0:0:
448,192,107335,1,0,0:0:0:0:
192,192,107335,1,0,0:0:0:0:
64,192,107335,1,0,0:0:0:0:
448,192,107426,1,0,0:0:0:0:
192,192,107517,1,0,0:0:0:0:
64,192,107517,1,0,0:0:0:0:
192,192,107608,1,0,0:0:0:0:
320,192,107699,1,0,0:0:0:0:
448,192,107699,1,0,0:0:0:0:
320,192,107790,1,0,0:0:0:0:
192,192,107880,1,0,0:0:0:0:
64,192,107880,1,0,0:0:0:0:
64,192,107971,1,0,0:0:0:0:
192,192,108062,1,0,0:0:0:0:
448,192,108062,1,0,0:0:0:0:
192,192,108153,1,0,0:0:0:0:
320,192,108244,1,0,0:0:0:0:
448,192,108244,1,0,0:0:0:0:
448,192,108335,1,0,0:0:0:0:
64,192,108426,1,0,0:0:0:0:
320,192,108426,1,0,0:0:0:0:
320,192,108517,1,0,0:0:0:0:
64,192,108608,1,0,0:0:0:0:
192,192,108608,1,0,0:0:0:0:
192,192,108699,1,0,0:0:0:0:
64,192,108790,1,0,0:0:0:0:
320,192,108790,1,0,0:0:0:0:
448,192,108790,1,0,0:0:0:0:
320,192,108971,1,0,0:0:0:0:
192,192,109062,1,0,0:0:0:0:
192,192,109153,1,0,0:0:0:0:
64,192,109153,1,0,0:0:0:0:
448,192,109153,1,0,0:0:0:0:
64,192,109244,1,0,0:0:0:0:
320,192,109335,1,0,0:0:0:0:
448,192,109335,1,0,0:0:0:0:
192,192,109517,1,0,0:0:0:0:
320,192,109517,1,0,0:0:0:0:
448,192,109517,1,0,0:0:0:0:
192,192,109699,1,0,0:0:0:0:
320,192,109699,1,0,0:0:0:0:
448,192,109699,1,0,0:0:0:0:
448,192,109880,1,0,0:0:0:0:
192,192,109880,1,0,0:0:0:0:
64,192,109880,1,0,0:0:0:0:
448,192,109971,1,0,0:0:0:0:
320,192,110062,1,0,0:0:0:0:
320,192,110153,1,0,0:0:0:0:
64,192,110244,1,0,0:0:0:0:
192,192,110244,1,0,0:0:0:0:
448,192,110244,1,0,0:0:0:0:
192,192,110335,1,0,0:0:0:0:
448,192,110426,1,0,0:0:0:0:
448,192,110517,1,0,0:0:0:0:
320,192,110608,1,0,0:0:0:0:
192,192,110608,1,0,0:0:0:0:
64,192,110608,1,0,0:0:0:0:
64,192,110699,1,0,0:0:0:0:
320,192,110790,1,0,0:0:0:0:
192,192,110790,1,0,0:0:0:0:
192,192,110880,1,0,0:0:0:0:
64,192,110971,1,0,0:0:0:0:
320,192,110971,1,0,0:0:0:0:
448,192,110971,1,0,0:0:0:0:
320,192,111062,1,0,0:0:0:0:
448,192,111153,1,0,0:0:0:0:
192,192,111153,1,0,0:0:0:0:
64,192,111153,1,0,0:0:0:0:
192,192,111244,1,0,0:0:0:0:
320,192,111335,1,0,0:0:0:0:
448,192,111335,1,0,0:0:0:0:
64,192,111335,1,0,0:0:0:0:
448,192,111426,1,0,0:0:0:0:
192,192,111517,1,0,0:0:0:0:
64,192,111517,1,0,0:0:0:0:
64,192,111699,1,0,0:0:0:0:
192,192,111699,1,0,0:0:0:0:
448,192,111699,1,0,0:0:0:0:
192,192,111790,1,0,0:0:0:0:
320,192,111880,1,0,0:0:0:0:
448,192,111880,1,0,0:0:0:0:
320,192,111971,1,0,0:0:0:0:
448,192,112062,1,0,0:0:0:0:
192,192,112062,1,0,0:0:0:0:
64,192,112062,1,0,0:0:0:0:
64,192,112153,1,0,0:0:0:0:
448,192,112244,1,0,0:0:0:0:
320,192,112244,1,0,0:0:0:0:
64,192,112426,1,0,0:0:0:0:
192,192,112426,1,0,0:0:0:0:
320,192,112426,1,0,0:0:0:0:
192,192,112517,1,0,0:0:0:0:
320,192,112608,1,0,0:0:0:0:
448,192,112608,1,0,0:0:0:0:
64,192,112608,1,0,0:0:0:0:
320,192,112699,1,0,0:0:0:0:
64,192,112790,1,0,0:0:0:0:
192,192,112790,1,0,0:0:0:0:
448,192,112790,1,0,0:0:0:0:
448,192,112880,1,0,0:0:0:0:
64,192,112971,1,0,0:0:0:0:
192,192,112971,1,0,0:0:0:0:
64,192,113153,1,0,0:0:0:0:
320,192,113153,1,0,0:0:0:0:
448,192,113153,1,0,0:0:0:0:
192,192,113426,1,0,0:0:0:0:
64,192,113517,1,0,0:0:0:0:
192,192,113517,1,0,0:0:0:0:
448,192,113517,1,0,0:0:0:0:
448,192,113608,1,0,0:0:0:0:
320,192,113699,1,0,0:0:0:0:
192,192,113699,1,0,0:0:0:0:
64,192,113699,1,0,0:0:0:0:
64,192,114062,1,0,0:0:0:0:
448,192,114062,1,0,0:0:0:0:
192,192,114244,1,0,0:0:0:0:
320,192,114244,1,0,0:0:0:0:
448,192,114244,1,0,0:0:0:0:
448,192,114426,1,0,0:0:0:0:
192,192,114426,1,0,0:0:0:0:
64,192,114426,1,0,0:0:0:0:
448,192,114608,1,0,0:0:0:0:
64,192,114608,1,0,0:0:0:0:
320,192,114608,1,0,0:0:0:0:
64,192,114699,1,0,0:0:0:0:
448,192,114790,1,0,0:0:0:0:
320,192,114790,1,0,0:0:0:0:
320,192,114880,1,0,0:0:0:0:
192,192,114971,1,0,0:0:0:0:
64,192,114971,1,0,0:0:0:0:
448,192,114971,1,0,0:0:0:0:
64,192,115062,1,0,0:0:0:0:
192,192,115153,1,0,0:0:0:0:
192,192,115244,1,0,0:0:0:0:
320,192,115335,1,0,0:0:0:0:
448,192,115335,1,0,0:0:0:0:
64,192,115335,1,0,0:0:0:0:
448,192,115426,1,0,0:0:0:0:
64,192,115517,1,0,0:0:0:0:
320,192,115517,1,0,0:0:0:0:
320,192,115608,1,0,0:0:0:0:
448,192,115699,1,0,0:0:0:0:
192,192,115699,1,0,0:0:0:0:
64,192,115699,1,0,0:0:0:0:
192,192,115790,1,0,0:0:0:0:
192,192,115880,1,0,0:0:0:0:
192,192,115971,1,0,0:0:0:0:
448,192,116062,1,0,0:0:0:0:
320,192,116062,1,0,0:0:0:0:
64,192,116062,1,0,0:0:0:0:
320,192,116153,1,0,0:0:0:0:
64,192,116244,1,0,0:0:0:0:
192,192,116244,1,0,0:0:0:0:
192,192,116335,1,0,0:0:0:0:
64,192,116426,1,0,0:0:0:0:
320,192,116426,1,0,0:0:0:0:
448,192,116426,1,0,0:0:0:0:
448,192,116517,1,0,0:0:0:0:
320,192,116608,1,0,0:0:0:0:
192,192,116608,1,0,0:0:0:0:
320,192,116699,1,0,0:0:0:0:
192,192,116790,1,0,0:0:0:0:
64,192,116790,1,0,0:0:0:0:
448,192,116790,1,0,0:0:0:0:
64,192,116880,1,0,0:0:0:0:
192,192,116880,1,0,0:0:0:0:
448,192,116971,1,0,0:0:0:0:
448,192,117062,1,0,0:0:0:0:
320,192,117153,1,0,0:0:0:0:
192,192,117153,1,0,0:0:0:0:
64,192,117153,1,0,0:0:0:0:
320,192,117244,1,0,0:0:0:0:
192,192,117335,1,0,0:0:0:0:
64,192,117335,1,0,0:0:0:0:
64,192,117426,1,0,0:0:0:0:
192,192,117426,1,0,0:0:0:0:
448,192,117517,1,0,0:0:0:0:
64,192,117517,1,0,0:0:0:0:
192,192,117517,1,0,0:0:0:0:
320,192,117608,1,0,0:0:0:0:
320,192,117699,1,0,0:0:0:0:
192,192,117790,1,0,0:0:0:0:
448,192,117880,1,0,0:0:0:0:
320,192,117880,1,0,0:0:0:0:
64,192,117880,1,0,0:0:0:0:
320,192,117971,1,0,0:0:0:0:
320,192,118062,1,0,0:0:0:0:
320,192,118153,1,0,0:0:0:0:
448,192,118244,1,0,0:0:0:0:
192,192,118244,1,0,0:0:0:0:
64,192,118244,1,0,0:0:0:0:
192,192,118335,1,0,0:0:0:0:
448,192,118426,1,0,0:0:0:0:
320,192,118426,1,0,0:0:0:0:
320,192,118517,1,0,0:0:0:0:
448,192,118608,1,0,0:0:0:0:
64,192,118608,1,0,0:0:0:0:
192,192,118608,1,0,0:0:0:0:
64,192,118699,1,0,0:0:0:0:
64,192,118790,1,0,0:0:0:0:
64,192,118880,1,0,0:0:0:0:
64,192,118971,1,0,0:0:0:0:
192,192,118971,1,0,0:0:0:0:
448,192,118971,1,0,0:0:0:0:
192,192,119062,1,0,0:0:0:0:
448,192,119153,1,0,0:0:0:0:
64,192,119153,1,0,0:0:0:0:
448,192,119244,1,0,0:0:0:0:
320,192,119335,1,0,0:0:0:0:
192,192,119335,1,0,0:0:0:0:
64,192,119335,1,0,0:0:0:0:
320,192,119426,1,0,0:0:0:0:
192,192,119517,1,0,0:0:0:0:
64,192,119517,1,0,0:0:0:0:
64,192,119608,1,0,0:0:0:0:
192,192,119699,1,0,0:0:0:0:
320,192,119699,1,0,0:0:0:0:
448,192,119699,1,0,0:0:0:0:
448,192,119790,1,0,0:0:0:0:
320,192,119880,1,0,0:0:0:0:
192,192,119880,1,0,0:0:0:0:
192,192,119971,1,0,0:0:0:0:
448,192,120062,1,0,0:0:0:0:
320,192,120062,1,0,0:0:0:0:
64,192,120062,1,0,0:0:0:0:
320,192,120153,1,0,0:0:0:0:
448,192,120153,1,0,0:0:0:0:
192,192,120244,1,0,0:0:0:0:
64,192,120335,1,0,0:0:0:0:
320,192,120335,1,0,0:0:0:0:
64,192,120426,1,0,0:0:0:0:
448,192,120426,1,0,0:0:0:0:
192,192,120426,1,0,0:0:0:0:
448,192,120517,1,0,0:0:0:0:
64,192,120608,1,0,0:0:0:0:
192,192,120608,1,0,0:0:0:0:
192,192,120699,1,0,0:0:0:0:
320,192,120790,1,0,0:0:0:0:
448,192,120790,1,0,0:0:0:0:
64,192,120790,1,0,0:0:0:0:
448,192,120880,1,0,0:0:0:0:
320,192,120971,1,0,0:0:0:0:
320,192,121062,1,0,0:0:0:0:
192,192,121153,1,0,0:0:0:0:
64,192,121153,1,0,0:0:0:0:
448,192,121153,1,0,0:0:0:0:
64,192,121244,1,0,0:0:0:0:
448,192,121335,1,0,0:0:0:0:
192,192,121335,1,0,0:0:0:0:
192,192,121426,1,0,0:0:0:0:
64,192,121517,1,0,0:0:0:0:
320,192,121517,1,0,0:0:0:0:
448,192,121517,1,0,0:0:0:0:
320,192,121608,1,0,0:0:0:0:
320,192,121699,1,0,0:0:0:0:
320,192,121790,1,0,0:0:0:0:
64,192,121880,1,0,0:0:0:0:
192,192,121880,1,0,0:0:0:0:
448,192,121880,1,0,0:0:0:0:
192,192,121971,1,0,0:0:0:0:
448,192,122062,1,0,0:0:0:0:
320,192,122062,1,0,0:0:0:0:
320,192,122153,1,0,0:0:0:0:
448,192,122244,1,0,0:0:0:0:
192,192,122244,1,0,0:0:0:0:
64,192,122244,1,0,0:0:0:0:
64,192,122335,1,0,0:0:0:0:
192,192,122426,1,0,0:0:0:0:
320,192,122426,1,0,0:0:0:0:
192,192,122517,1,0,0:0:0:0:
320,192,122608,1,0,0:0:0:0:
448,192,122608,1,0,0:0:0:0:
64,192,122608,1,0,0:0:0:0:
448,192,122699,1,0,0:0:0:0:
320,192,122699,1,0,0:0:0:0:
64,192,122790,1,0,0:0:0:0:
64,192,122880,1,0,0:0:0:0:
192,192,122971,1,0,0:0:0:0:
320,192,122971,1,0,0:0:0:0:
448,192,122971,1,0,0:0:0:0:
192,192,123062,1,0,0:0:0:0:
320,192,123153,1,0,0:0:0:0:
448,192,123153,1,0,0:0:0:0:
448,192,123244,1,0,0:0:0:0:
320,192,123244,1,0,0:0:0:0:
64,192,123335,1,0,0:0:0:0:
448,192,123335,1,0,0:0:0:0:
320,192,123335,1,0,0:0:0:0:
192,192,123426,1,0,0:0:0:0:
192,192,123517,1,0,0:0:0:0:
320,192,123608,1,0,0:0:0:0:
64,192,123699,1,0,0:0:0:0:
192,192,123699,1,0,0:0:0:0:
448,192,123699,1,0,0:0:0:0:
192,192,123790,1,0,0:0:0:0:
192,192,123880,1,0,0:0:0:0:
192,192,123971,1,0,0:0:0:0:
64,192,124062,1,0,0:0:0:0:
320,192,124062,1,0,0:0:0:0:
448,192,124062,1,0,0:0:0:0:
320,192,124153,1,0,0:0:0:0:
64,192,124244,1,0,0:0:0:0:
192,192,124244,1,0,0:0:0:0:
192,192,124335,1,0,0:0:0:0:
64,192,124426,1,0,0:0:0:0:
448,192,124426,1,0,0:0:0:0:
320,192,124426,1,0,0:0:0:0:
448,192,124517,1,0,0:0:0:0:
448,192,124608,1,0,0:0:0:0:
448,192,124699,1,0,0:0:0:0:
320,192,124790,1,0,0:0:0:0:
64,192,124790,1,0,0:0:0:0:
320,192,124880,1,0,0:0:0:0:
64,192,124971,1,0,0:0:0:0:
192,192,124971,1,0,0:0:0:0:
64,192,125062,1,0,0:0:0:0:
192,192,125153,1,0,0:0:0:0:
448,192,125153,1,0,0:0:0:0:
448,192,125244,1,0,0:0:0:0:
320,192,125335,1,0,0:0:0:0:
64,192,125335,1,0,0:0:0:0:
64,192,125426,1,0,0:0:0:0:
320,192,125517,1,0,0:0:0:0:
448,192,125517,1,0,0:0:0:0:
320,192,125608,1,0,0:0:0:0:
192,192,125699,1,0,0:0:0:0:
64,192,125699,1,0,0:0:0:0:
192,192,125790,1,0,0:0:0:0:
64,192,125880,1,0,0:0:0:0:
448,192,125880,1,0,0:0:0:0:
320,192,125880,1,0,0:0:0:0:
