osu file format v14

[General]
AudioFilename: audio.MP3
AudioLeadIn: 0
PreviewTime: 52075
Countdown: 0
SampleSet: Soft
StackLeniency: 0.7
Mode: 3
LetterboxInBreaks: 0
SpecialStyle: 0
WidescreenStoryboard: 0

[Editor]
Bookmarks: -8
DistanceSpacing: 0.7
BeatDivisor: 4
GridSize: 4
TimelineZoom: 2.799998

[Metadata]
Title:forget-me-not (TV Size)
TitleUnicode:forget-me-not (TV Size)
Artist:ReoNa
ArtistUnicode:ReoNa
Creator:Paran
Version:Stay Cool
Source:ソードアート・オンライン アリシゼーション
Tags:japanese anime Sun [_lovega_] Drum-Hitnormal dudehacker sword art online sao alicization season three 3 ending ed 2 VVCL-1390
BeatmapID:2318723
BeatmapSetID:1109557

[Difficulty]
HPDrainRate:8
CircleSize:4
OverallDifficulty:8
ApproachRate:5
SliderMultiplier:1.4
SliderTickRate:1

[Events]
//Background and Video events
0,0,"Alicization.jpg",0,0
Video,-414,"video.mp4"
//Break Periods
//Storyboard Layer 0 (Background)
//Storyboard Layer 1 (Fail)
//Storyboard Layer 2 (Pass)
//Storyboard Layer 3 (Foreground)
//Storyboard Layer 4 (Overlay)
//Storyboard Sound Samples

[TimingPoints]
-414,405.405405405405,4,2,1,40,1,0
5261,416.666666666667,4,2,1,50,1,0
5261,-97.297297,4,2,1,50,0,0
6104,370.37037037037,4,2,1,65,1,0
6104,-105.405405,4,2,1,65,0,0
6658,365.853658536585,4,2,1,65,1,0
6658,-104.72973,4,2,1,65,0,0
7055,379.746835443038,4,2,1,65,1,0
7055,-104.72973,4,2,1,65,0,0
7669,454.545454545455,4,2,1,70,1,0
7669,-89.189189,4,2,1,70,0,0
7896,405.405405405405,4,2,1,70,1,0
8301,410.958904109589,4,2,1,70,1,0
8301,-98.648649,4,2,1,70,0,0
8917,405.405405405405,4,2,1,70,1,0
9322,405.405405405405,4,2,1,70,1,0
15808,397.350993377483,4,2,1,70,1,0
15808,-102.027027,4,2,1,70,0,0
17397,419.58041958042,4,2,1,70,1,0
17397,-96.621622,4,2,1,70,0,0
18236,405.405405405405,4,2,1,70,1,0
19046,405.405405405405,4,2,1,70,1,0
83910,408.163265306122,4,2,1,70,1,0
83910,-99.324324,4,2,1,70,0,0

[HitObjects]
320,192,194,5,0,0:0:0:0:
192,192,396,1,0,0:0:0:0:
320,192,599,1,0,0:0:0:0:
192,192,802,1,0,0:0:0:0:
64,192,1004,1,0,0:0:0:0:
320,192,1207,1,0,0:0:0:0:
448,192,1207,1,0,0:0:0:0:
448,192,1815,1,0,0:0:0:0:
192,192,2221,1,0,0:0:0:0:
320,192,2626,1,0,0:0:0:0:
64,192,3031,1,0,0:0:0:0:
192,192,3437,1,0,0:0:0:0:
448,192,3842,1,0,0:0:0:0:
192,192,4248,1,0,0:0:0:0:
320,192,4450,1,0,0:0:0:0:
448,192,4450,128,0,6104:0:0:0:0:
192,192,5058,1,0,0:0:0:0:
64,192,5469,1,0,0:0:0:0:
320,192,5862,1,0,0:0:0:0:
192,192,6104,1,8,0:0:0:0:
64,192,6104,1,0,0:0:0:0:
448,192,6196,1,0,0:0:0:0:
320,192,6196,1,8,0:0:0:0:
192,192,6289,1,8,0:0:0:0:
64,192,6289,1,0,0:0:0:0:
448,192,6381,1,0,0:0:0:0:
320,192,6381,1,8,0:0:0:0:
448,192,6658,1,0,0:0:0:0:
320,192,6658,1,8,0:0:0:0:
192,192,6749,1,8,0:0:0:0:
64,192,6749,1,0,0:0:0:0:
320,192,6840,1,8,0:0:0:0:
448,192,6840,1,0,0:0:0:0:
192,192,6932,1,8,0:0:0:0:
64,192,6932,1,0,0:0:0:0:
64,192,7244,1,8,0:0:0:0:
192,192,7244,1,0,0:0:0:0:
448,192,7244,1,4,0:0:0:0:
64,192,7669,1,2,0:0:0:0:
320,192,7669,1,4,0:0:0:0:
448,192,7669,128,0,8301:0:0:0:0:
192,192,7896,1,2,0:0:0:0:
320,192,8098,1,0,0:0:0:0:
64,192,8098,1,8,0:0:0:0:
192,192,8301,1,0,0:0:0:0:
64,192,8301,128,0,8917:0:0:0:0:
320,192,8403,1,8,0:0:0:0:
448,192,8403,1,0,0:0:0:0:
192,192,8506,1,0,0:0:0:0:
448,192,8711,1,2,0:0:0:0:
448,192,8917,128,0,10943:0:0:0:0:
320,192,8917,1,0,0:0:0:0:
192,192,8917,1,8,0:0:0:0:
64,192,9322,1,2,0:0:0:0:
64,192,9524,1,2,0:0:0:0:
320,192,9727,1,0,0:0:0:0:
192,192,9727,1,8,0:0:0:0:
64,192,9930,1,0,0:0:0:0:
320,192,10031,1,0,0:0:0:0:
192,192,10031,1,8,0:0:0:0:
64,192,10132,1,0,0:0:0:0:
320,192,10335,1,2,0:0:0:0:
64,192,10538,1,8,0:0:0:0:
192,192,10538,1,0,0:0:0:0:
64,192,10943,128,0,11551:0:0:0:0:
192,192,10943,1,2,0:0:0:0:
320,192,11146,1,2,0:0:0:0:
448,192,11349,1,0,0:0:0:0:
192,192,11349,1,8,0:0:0:0:
448,192,11551,128,0,12159:0:0:0:0:
320,192,11551,1,0,0:0:0:0:
64,192,11653,1,0,0:0:0:0:
192,192,11653,1,8,0:0:0:0:
320,192,11754,1,0,0:0:0:0:
64,192,11957,1,2,0:0:0:0:
64,192,12159,128,0,13781:0:0:0:0:
192,192,12159,1,8,0:0:0:0:
320,192,12159,1,0,0:0:0:0:
448,192,12565,1,2,0:0:0:0:
448,192,12767,1,2,0:0:0:0:
320,192,12970,1,0,0:0:0:0:
192,192,12970,1,8,0:0:0:0:
448,192,13173,1,0,0:0:0:0:
192,192,13274,1,0,0:0:0:0:
320,192,13274,1,8,0:0:0:0:
448,192,13376,1,0,0:0:0:0:
192,192,13578,1,2,0:0:0:0:
448,192,13781,1,0,0:0:0:0:
320,192,13781,1,8,0:0:0:0:
448,192,14186,128,4,14794:0:0:0:0:
320,192,14186,1,2,0:0:0:0:
64,192,14186,1,0,0:0:0:0:
192,192,14389,1,2,0:0:0:0:
64,192,14592,1,8,0:0:0:0:
320,192,14592,1,0,0:0:0:0:
192,192,14794,1,0,0:0:0:0:
64,192,14794,128,0,15403:0:0:0:0:
448,192,14896,1,0,0:0:0:0:
320,192,14896,1,8,0:0:0:0:
192,192,14997,1,0,0:0:0:0:
448,192,15200,1,2,0:0:0:0:
320,192,15403,1,0,0:0:0:0:
192,192,15403,1,8,0:0:0:0:
448,192,15403,128,0,17000:0:0:0:0:
64,192,15808,1,2,0:0:0:0:
64,192,16006,1,2,0:0:0:0:
192,192,16205,1,8,0:0:0:0:
320,192,16205,1,0,0:0:0:0:
64,192,16404,1,0,0:0:0:0:
192,192,16503,1,8,0:0:0:0:
320,192,16503,1,0,0:0:0:0:
64,192,16602,1,0,0:0:0:0:
320,192,16801,1,2,0:0:0:0:
192,192,17000,1,0,0:0:0:0:
64,192,17000,1,8,0:0:0:0:
64,192,17397,128,8,17816:0:0:0:0:
320,192,17397,1,4,0:0:0:0:
448,192,17397,1,0,0:0:0:0:
192,192,17816,1,2,0:0:0:0:
320,192,17816,1,0,0:0:0:0:
64,192,18026,128,0,18438:0:0:0:0:
320,192,18026,1,8,0:0:0:0:
448,192,18026,1,4,0:0:0:0:
192,192,18236,1,2,0:0:0:0:
448,192,18337,1,0,0:0:0:0:
320,192,18337,1,8,0:0:0:0:
192,192,18438,1,0,0:0:0:0:
448,192,18641,1,4,0:0:0:0:
320,192,18641,1,8,0:0:0:0:
64,192,18641,128,0,20059:0:0:0:0:
192,192,19046,1,2,0:0:0:0:
448,192,19248,1,0,0:0:0:0:
320,192,19248,1,8,0:0:0:0:
320,192,19451,1,8,0:0:0:0:
448,192,19451,1,0,0:0:0:0:
448,192,19856,1,0,0:0:0:0:
192,192,19856,1,2,0:0:0:0:
320,192,20059,1,0,0:0:0:0:
448,192,20262,1,8,0:0:0:0:
64,192,20262,1,0,0:0:0:0:
320,192,20363,1,0,0:0:0:0:
192,192,20363,1,8,0:0:0:0:
64,192,20464,1,0,0:0:0:0:
448,192,20464,1,2,0:0:0:0:
448,192,20667,1,4,0:0:0:0:
320,192,20667,1,2,0:0:0:0:
64,192,20667,1,0,0:0:0:0:
320,192,20870,1,0,0:0:0:0:
192,192,20870,1,2,0:0:0:0:
448,192,21073,1,0,0:0:0:0:
192,192,21073,1,8,0:0:0:0:
64,192,21073,1,0,0:0:0:0:
320,192,21275,1,0,0:0:0:0:
192,192,21478,1,0,0:0:0:0:
448,192,21681,1,0,0:0:0:0:
320,192,21681,1,2,0:0:0:0:
448,192,21883,1,0,0:0:0:0:
192,192,21883,1,0,0:0:0:0:
64,192,21883,1,8,0:0:0:0:
320,192,22086,1,0,0:0:0:0:
448,192,22289,1,0,0:0:0:0:
64,192,22289,1,2,0:0:0:0:
320,192,22491,1,0,0:0:0:0:
192,192,22491,1,2,0:0:0:0:
448,192,22694,1,0,0:0:0:0:
320,192,22694,1,8,0:0:0:0:
64,192,22694,1,0,0:0:0:0:
192,192,22897,1,0,0:0:0:0:
320,192,23100,1,0,0:0:0:0:
64,192,23302,1,0,0:0:0:0:
192,192,23302,1,2,0:0:0:0:
448,192,23505,1,0,0:0:0:0:
320,192,23505,1,8,0:0:0:0:
64,192,23505,1,0,0:0:0:0:
192,192,23708,1,0,0:0:0:0:
64,192,23910,1,2,0:0:0:0:
448,192,23910,1,0,0:0:0:0:
320,192,24113,1,0,0:0:0:0:
192,192,24113,1,2,0:0:0:0:
448,192,24316,1,0,0:0:0:0:
192,192,24316,1,8,0:0:0:0:
64,192,24316,1,0,0:0:0:0:
320,192,24518,1,0,0:0:0:0:
192,192,24721,1,0,0:0:0:0:
448,192,24924,1,2,0:0:0:0:
320,192,24924,1,0,0:0:0:0:
448,192,25127,1,0,0:0:0:0:
192,192,25127,1,8,0:0:0:0:
64,192,25127,1,0,0:0:0:0:
320,192,25329,1,0,0:0:0:0:
448,192,25532,1,0,0:0:0:0:
64,192,25532,1,2,0:0:0:0:
192,192,25735,1,2,0:0:0:0:
320,192,25735,1,0,0:0:0:0:
320,192,25937,1,8,0:0:0:0:
64,192,25937,1,0,0:0:0:0:
448,192,25937,1,0,0:0:0:0:
192,192,26140,128,0,26343:0:0:0:0:
448,192,26343,128,0,26545:0:0:0:0:
64,192,26545,1,2,0:0:0:0:
320,192,26545,128,0,26748:0:0:0:0:
64,192,26748,128,0,26951:0:0:0:0:
448,192,26748,1,0,0:0:0:0:
192,192,26748,1,8,0:0:0:0:
320,192,26951,1,0,0:0:0:0:
192,192,27052,1,0,0:0:0:0:
448,192,27154,1,2,0:0:0:0:
64,192,27154,128,0,27356:0:0:0:0:
448,192,27356,1,0,0:0:0:0:
320,192,27356,1,2,0:0:0:0:
448,192,27559,1,0,0:0:0:0:
192,192,27559,1,8,0:0:0:0:
64,192,27559,1,0,0:0:0:0:
320,192,27762,1,0,0:0:0:0:
192,192,27964,1,0,0:0:0:0:
320,192,28167,1,2,0:0:0:0:
64,192,28167,1,0,0:0:0:0:
448,192,28370,1,0,0:0:0:0:
192,192,28370,1,8,0:0:0:0:
64,192,28370,1,0,0:0:0:0:
320,192,28573,1,0,0:0:0:0:
192,192,28775,1,2,0:0:0:0:
64,192,28775,1,0,0:0:0:0:
448,192,28978,1,0,0:0:0:0:
320,192,28978,1,2,0:0:0:0:
448,192,29181,1,0,0:0:0:0:
192,192,29181,1,8,0:0:0:0:
64,192,29181,1,0,0:0:0:0:
320,192,29383,1,0,0:0:0:0:
192,192,29586,1,0,0:0:0:0:
320,192,29789,1,2,0:0:0:0:
64,192,29789,1,0,0:0:0:0:
448,192,29991,1,0,0:0:0:0:
64,192,29991,1,0,0:0:0:0:
192,192,29991,1,8,0:0:0:0:
320,192,30194,1,0,0:0:0:0:
192,192,30397,1,2,0:0:0:0:
64,192,30397,1,0,0:0:0:0:
448,192,30600,1,0,0:0:0:0:
320,192,30600,1,2,0:0:0:0:
64,192,30802,1,0,0:0:0:0:
448,192,30802,1,0,0:0:0:0:
192,192,30802,1,8,0:0:0:0:
320,192,31005,1,0,0:0:0:0:
192,192,31208,1,0,0:0:0:0:
64,192,31410,1,0,0:0:0:0:
320,192,31410,1,2,0:0:0:0:
448,192,31613,1,0,0:0:0:0:
192,192,31613,1,8,0:0:0:0:
64,192,31613,1,0,0:0:0:0:
320,192,31816,1,0,0:0:0:0:
64,192,32018,1,0,0:0:0:0:
192,192,32018,1,2,0:0:0:0:
448,192,32221,1,0,0:0:0:0:
320,192,32221,1,2,0:0:0:0:
448,192,32424,1,0,0:0:0:0:
192,192,32424,1,8,0:0:0:0:
64,192,32424,1,0,0:0:0:0:
320,192,32627,128,0,33032:0:0:0:0:
192,192,32829,1,0,0:0:0:0:
64,192,33032,128,0,33437:0:0:0:0:
448,192,33032,1,2,0:0:0:0:
448,192,33235,1,0,0:0:0:0:
320,192,33235,1,8,0:0:0:0:
192,192,33437,1,0,0:0:0:0:
320,192,33539,1,0,0:0:0:0:
448,192,33640,1,4,0:0:0:0:
64,192,33640,1,2,0:0:0:0:
192,192,33640,1,0,0:0:0:0:
192,192,33843,1,2,0:0:0:0:
320,192,33843,1,0,0:0:0:0:
448,192,34045,1,0,0:0:0:0:
320,192,34045,1,8,0:0:0:0:
64,192,34045,1,0,0:0:0:0:
192,192,34248,1,0,0:0:0:0:
448,192,34451,1,0,0:0:0:0:
192,192,34654,1,0,0:0:0:0:
320,192,34654,1,2,0:0:0:0:
64,192,34856,1,0,0:0:0:0:
448,192,34856,1,0,0:0:0:0:
320,192,34856,1,8,0:0:0:0:
192,192,35059,1,0,0:0:0:0:
64,192,35262,1,0,0:0:0:0:
320,192,35262,1,2,0:0:0:0:
448,192,35464,1,0,0:0:0:0:
192,192,35464,1,2,0:0:0:0:
64,192,35667,1,0,0:0:0:0:
320,192,35667,1,8,0:0:0:0:
448,192,35667,1,0,0:0:0:0:
192,192,35870,1,0,0:0:0:0:
448,192,36073,1,0,0:0:0:0:
192,192,36275,1,0,0:0:0:0:
320,192,36275,1,2,0:0:0:0:
64,192,36478,1,0,0:0:0:0:
320,192,36478,1,8,0:0:0:0:
448,192,36478,1,0,0:0:0:0:
192,192,36681,1,0,0:0:0:0:
64,192,36883,1,0,0:0:0:0:
320,192,36883,1,2,0:0:0:0:
448,192,37086,1,0,0:0:0:0:
192,192,37086,1,2,0:0:0:0:
64,192,37289,1,0,0:0:0:0:
320,192,37289,1,8,0:0:0:0:
448,192,37289,1,0,0:0:0:0:
192,192,37491,1,0,0:0:0:0:
448,192,37694,1,0,0:0:0:0:
192,192,37897,1,0,0:0:0:0:
320,192,37897,1,2,0:0:0:0:
448,192,38100,1,0,0:0:0:0:
320,192,38100,1,8,0:0:0:0:
64,192,38100,1,0,0:0:0:0:
192,192,38302,1,0,0:0:0:0:
64,192,38505,1,0,0:0:0:0:
320,192,38505,1,2,0:0:0:0:
448,192,38708,1,0,0:0:0:0:
192,192,38708,1,2,0:0:0:0:
448,192,38910,1,0,0:0:0:0:
64,192,38910,1,0,0:0:0:0:
320,192,38910,1,8,0:0:0:0:
192,192,39113,128,0,39316:0:0:0:0:
448,192,39316,128,0,39518:0:0:0:0:
64,192,39518,1,2,0:0:0:0:
320,192,39518,128,0,39721:0:0:0:0:
64,192,39721,128,0,39924:0:0:0:0:
448,192,39721,1,0,0:0:0:0:
192,192,39721,1,8,0:0:0:0:
448,192,39924,1,0,0:0:0:0:
320,192,40025,1,0,0:0:0:0:
64,192,40127,1,0,0:0:0:0:
192,192,40127,1,2,0:0:0:0:
448,192,40329,128,0,41140:0:0:0:0:
320,192,40329,1,2,0:0:0:0:
64,192,40532,1,0,0:0:0:0:
192,192,40532,1,8,0:0:0:0:
320,192,40735,1,0,0:0:0:0:
64,192,40937,1,0,0:0:0:0:
320,192,41140,1,0,0:0:0:0:
192,192,41140,1,2,0:0:0:0:
448,192,41343,1,0,0:0:0:0:
64,192,41343,1,0,0:0:0:0:
192,192,41343,1,8,0:0:0:0:
320,192,41545,1,0,0:0:0:0:
448,192,41748,1,2,0:0:0:0:
64,192,41748,1,0,0:0:0:0:
192,192,41951,1,2,0:0:0:0:
320,192,41951,1,0,0:0:0:0:
64,192,42154,1,0,0:0:0:0:
448,192,42154,1,0,0:0:0:0:
320,192,42154,1,8,0:0:0:0:
192,192,42356,1,0,0:0:0:0:
448,192,42559,1,0,0:0:0:0:
320,192,42762,1,0,0:0:0:0:
192,192,42762,1,2,0:0:0:0:
448,192,42964,1,4,0:0:0:0:
192,192,42964,1,0,0:0:0:0:
64,192,42964,1,8,0:0:0:0:
320,192,43167,1,0,0:0:0:0:
448,192,43370,1,0,0:0:0:0:
64,192,43370,1,0,0:0:0:0:
192,192,43370,1,8,0:0:0:0:
64,192,43573,1,2,0:0:0:0:
192,192,43573,1,0,0:0:0:0:
448,192,43775,1,0,0:0:0:0:
320,192,43775,1,2,0:0:0:0:
64,192,43978,1,0,0:0:0:0:
448,192,43978,1,0,0:0:0:0:
320,192,43978,1,8,0:0:0:0:
64,192,44181,1,0,0:0:0:0:
192,192,44181,1,2,0:0:0:0:
320,192,44282,1,8,0:0:0:0:
448,192,44383,1,2,0:0:0:0:
448,192,44586,1,0,0:0:0:0:
64,192,44586,1,0,0:0:0:0:
192,192,44586,1,8,0:0:0:0:
320,192,44789,1,0,0:0:0:0:
192,192,44890,1,2,0:0:0:0:
64,192,44890,1,0,0:0:0:0:
448,192,44991,1,0,0:0:0:0:
320,192,44991,1,2,0:0:0:0:
192,192,45194,1,8,0:0:0:0:
64,192,45194,1,0,0:0:0:0:
448,192,45194,1,0,0:0:0:0:
64,192,45397,1,0,0:0:0:0:
448,192,45397,1,4,0:0:0:0:
320,192,45397,1,8,0:0:0:0:
192,192,45600,1,0,0:0:0:0:
64,192,45802,1,0,0:0:0:0:
448,192,45802,1,4,0:0:0:0:
320,192,45802,1,8,0:0:0:0:
64,192,46005,1,0,0:0:0:0:
192,192,46005,1,8,0:0:0:0:
320,192,46106,1,8,0:0:0:0:
64,192,46208,1,0,0:0:0:0:
192,192,46208,1,8,0:0:0:0:
448,192,46208,1,4,0:0:0:0:
320,192,46410,1,0,0:0:0:0:
192,192,46512,1,0,0:0:0:0:
320,192,46613,1,0,0:0:0:0:
448,192,46613,1,2,0:0:0:0:
64,192,46613,1,4,0:0:0:0:
192,192,46816,1,0,0:0:0:0:
448,192,47018,1,4,0:0:0:0:
320,192,47018,1,2,0:0:0:0:
64,192,47221,1,8,0:0:0:0:
192,192,47221,1,0,0:0:0:0:
448,192,47424,1,0,0:0:0:0:
192,192,47424,1,2,0:0:0:0:
320,192,47627,1,0,0:0:0:0:
64,192,47829,1,2,0:0:0:0:
448,192,47829,1,0,0:0:0:0:
192,192,48032,1,0,0:0:0:0:
448,192,48235,1,0,0:0:0:0:
320,192,48235,1,2,0:0:0:0:
64,192,48437,1,0,0:0:0:0:
320,192,48539,1,0,0:0:0:0:
448,192,48539,1,2,0:0:0:0:
192,192,48640,1,2,0:0:0:0:
64,192,48640,1,0,0:0:0:0:
448,192,48843,1,0,0:0:0:0:
320,192,48843,1,8,0:0:0:0:
64,192,49045,1,2,0:0:0:0:
192,192,49045,1,0,0:0:0:0:
448,192,49248,1,0,0:0:0:0:
320,192,49248,1,8,0:0:0:0:
64,192,49451,1,0,0:0:0:0:
192,192,49451,1,2,0:0:0:0:
448,192,49654,1,0,0:0:0:0:
320,192,49654,1,0,0:0:0:0:
192,192,49755,1,0,0:0:0:0:
448,192,49856,1,2,0:0:0:0:
64,192,49856,128,4,52289:0:0:0:0:
192,192,51478,128,0,52289:0:0:0:0:
448,192,53100,1,4,0:0:0:0:
192,192,53100,1,0,0:0:0:0:
64,192,53100,1,2,0:0:0:0:
192,192,53302,1,0,0:0:0:0:
320,192,53302,1,2,0:0:0:0:
64,192,53505,1,0,0:0:0:0:
448,192,53505,1,0,0:0:0:0:
320,192,53505,1,8,0:0:0:0:
192,192,53708,1,0,0:0:0:0:
320,192,53809,1,0,0:0:0:0:
448,192,53910,1,0,0:0:0:0:
192,192,54113,1,0,0:0:0:0:
64,192,54113,1,2,0:0:0:0:
64,192,54316,1,0,0:0:0:0:
448,192,54316,1,0,0:0:0:0:
320,192,54316,1,8,0:0:0:0:
192,192,54518,1,0,0:0:0:0:
448,192,54721,1,2,0:0:0:0:
64,192,54721,1,0,0:0:0:0:
192,192,54924,1,0,0:0:0:0:
320,192,54924,1,2,0:0:0:0:
64,192,55127,1,0,0:0:0:0:
192,192,55127,1,8,0:0:0:0:
448,192,55127,1,0,0:0:0:0:
320,192,55329,1,0,0:0:0:0:
192,192,55431,1,0,0:0:0:0:
64,192,55532,1,0,0:0:0:0:
448,192,55735,1,0,0:0:0:0:
320,192,55735,1,2,0:0:0:0:
448,192,55937,1,0,0:0:0:0:
64,192,55937,1,0,0:0:0:0:
192,192,55937,1,8,0:0:0:0:
320,192,56140,1,0,0:0:0:0:
64,192,56343,1,2,0:0:0:0:
448,192,56343,1,0,0:0:0:0:
320,192,56545,1,0,0:0:0:0:
192,192,56545,1,2,0:0:0:0:
64,192,56748,1,0,0:0:0:0:
448,192,56748,1,0,0:0:0:0:
320,192,56748,1,8,0:0:0:0:
192,192,56951,1,0,0:0:0:0:
320,192,57052,1,0,0:0:0:0:
64,192,57154,1,0,0:0:0:0:
448,192,57356,1,0,0:0:0:0:
192,192,57356,1,2,0:0:0:0:
64,192,57559,1,0,0:0:0:0:
448,192,57559,1,0,0:0:0:0:
320,192,57559,1,8,0:0:0:0:
192,192,57762,1,0,0:0:0:0:
448,192,57964,1,0,0:0:0:0:
64,192,57964,1,2,0:0:0:0:
192,192,58167,1,0,0:0:0:0:
320,192,58167,1,2,0:0:0:0:
448,192,58370,1,0,0:0:0:0:
64,192,58370,1,0,0:0:0:0:
192,192,58370,1,8,0:0:0:0:
320,192,58573,1,0,0:0:0:0:
192,192,58674,1,0,0:0:0:0:
448,192,58775,1,0,0:0:0:0:
64,192,58978,1,2,0:0:0:0:
320,192,58978,1,0,0:0:0:0:
448,192,59181,1,0,0:0:0:0:
64,192,59181,1,0,0:0:0:0:
192,192,59181,1,8,0:0:0:0:
320,192,59383,1,0,0:0:0:0:
64,192,59586,1,0,0:0:0:0:
448,192,59586,1,2,0:0:0:0:
320,192,59789,1,0,0:0:0:0:
192,192,59789,1,2,0:0:0:0:
448,192,59991,1,0,0:0:0:0:
320,192,59991,1,8,0:0:0:0:
64,192,59991,1,0,0:0:0:0:
192,192,60194,1,0,0:0:0:0:
320,192,60295,1,0,0:0:0:0:
448,192,60397,1,0,0:0:0:0:
64,192,60600,1,0,0:0:0:0:
192,192,60600,1,2,0:0:0:0:
64,192,60802,1,0,0:0:0:0:
448,192,60802,1,0,0:0:0:0:
320,192,60802,1,8,0:0:0:0:
192,192,61005,1,0,0:0:0:0:
64,192,61208,1,0,0:0:0:0:
448,192,61208,1,2,0:0:0:0:
192,192,61410,1,0,0:0:0:0:
320,192,61410,1,2,0:0:0:0:
192,192,61613,1,8,0:0:0:0:
64,192,61613,1,0,0:0:0:0:
448,192,61613,1,0,0:0:0:0:
320,192,61816,5,0,0:0:0:0:
192,192,61917,1,0,0:0:0:0:
64,192,62018,1,0,0:0:0:0:
448,192,62221,1,0,0:0:0:0:
320,192,62221,1,2,0:0:0:0:
448,192,62424,1,0,0:0:0:0:
64,192,62424,1,0,0:0:0:0:
192,192,62424,1,8,0:0:0:0:
320,192,62627,1,0,0:0:0:0:
192,192,62829,5,4,0:0:0:0:
448,192,62829,128,8,63235:0:0:0:0:
64,192,62829,1,0,0:0:0:0:
64,192,63133,1,0,0:0:0:0:
192,192,63133,1,8,0:0:0:0:
320,192,63235,1,2,0:0:0:0:
64,192,63437,128,0,63843:0:0:0:0:
448,192,63437,1,4,0:0:0:0:
192,192,63437,1,8,0:0:0:0:
320,192,63640,1,2,0:0:0:0:
448,192,63741,1,0,0:0:0:0:
192,192,63741,1,8,0:0:0:0:
320,192,63843,1,0,0:0:0:0:
64,192,64045,1,8,0:0:0:0:
192,192,64045,1,4,0:0:0:0:
448,192,64045,128,0,65262:0:0:0:0:
192,192,64451,1,2,0:0:0:0:
64,192,64654,1,8,0:0:0:0:
320,192,64654,1,0,0:0:0:0:
64,192,64856,1,8,0:0:0:0:
320,192,64856,1,0,0:0:0:0:
192,192,65262,1,4,0:0:0:0:
64,192,65262,1,2,0:0:0:0:
448,192,65464,1,0,0:0:0:0:
320,192,65464,1,8,0:0:0:0:
64,192,65566,1,0,0:0:0:0:
192,192,65566,1,8,0:0:0:0:
320,192,65667,1,8,0:0:0:0:
448,192,65667,1,0,0:0:0:0:
64,192,65768,1,8,0:0:0:0:
320,192,65870,1,0,0:0:0:0:
192,192,65870,1,8,0:0:0:0:
448,192,65971,1,8,0:0:0:0:
64,192,66073,1,0,0:0:0:0:
192,192,66073,1,2,0:0:0:0:
192,192,66275,1,2,0:0:0:0:
64,192,66275,1,0,0:0:0:0:
64,192,66478,1,0,0:0:0:0:
320,192,66478,1,8,0:0:0:0:
448,192,66478,1,0,0:0:0:0:
320,192,66681,1,8,0:0:0:0:
64,192,66782,1,0,0:0:0:0:
448,192,66782,1,8,0:0:0:0:
192,192,66883,1,2,0:0:0:0:
64,192,67086,1,0,0:0:0:0:
320,192,67086,1,2,0:0:0:0:
64,192,67289,1,0,0:0:0:0:
192,192,67289,1,8,0:0:0:0:
448,192,67289,1,0,0:0:0:0:
320,192,67491,1,0,0:0:0:0:
192,192,67694,1,2,0:0:0:0:
448,192,67694,1,0,0:0:0:0:
192,192,67897,1,2,0:0:0:0:
448,192,67897,1,0,0:0:0:0:
64,192,68100,1,0,0:0:0:0:
320,192,68100,1,8,0:0:0:0:
448,192,68100,1,0,0:0:0:0:
320,192,68302,1,8,0:0:0:0:
64,192,68404,1,0,0:0:0:0:
192,192,68404,1,8,0:0:0:0:
448,192,68505,1,2,0:0:0:0:
192,192,68708,1,2,0:0:0:0:
320,192,68708,1,0,0:0:0:0:
320,192,68910,1,0,0:0:0:0:
448,192,68910,1,8,0:0:0:0:
64,192,68910,1,0,0:0:0:0:
192,192,69113,1,0,0:0:0:0:
64,192,69316,1,0,0:0:0:0:
320,192,69316,1,2,0:0:0:0:
64,192,69518,1,0,0:0:0:0:
320,192,69518,1,2,0:0:0:0:
448,192,69721,1,0,0:0:0:0:
64,192,69721,1,0,0:0:0:0:
192,192,69721,1,8,0:0:0:0:
192,192,69924,1,8,0:0:0:0:
448,192,70025,1,8,0:0:0:0:
320,192,70025,1,0,0:0:0:0:
64,192,70127,1,2,0:0:0:0:
320,192,70329,1,2,0:0:0:0:
192,192,70329,1,0,0:0:0:0:
448,192,70532,1,0,0:0:0:0:
192,192,70532,1,8,0:0:0:0:
64,192,70532,1,0,0:0:0:0:
320,192,70735,1,0,0:0:0:0:
448,192,70937,128,0,71140:0:0:0:0:
192,192,70937,1,2,0:0:0:0:
320,192,71140,1,2,0:0:0:0:
64,192,71140,1,0,0:0:0:0:
448,192,71343,1,0,0:0:0:0:
192,192,71343,1,8,0:0:0:0:
64,192,71343,128,0,71545:0:0:0:0:
320,192,71545,1,8,0:0:0:0:
192,192,71647,1,8,0:0:0:0:
64,192,71647,1,0,0:0:0:0:
448,192,71748,128,2,71951:0:0:0:0:
320,192,71951,1,2,0:0:0:0:
64,192,71951,1,0,0:0:0:0:
192,192,72154,1,8,0:0:0:0:
448,192,72154,1,0,0:0:0:0:
64,192,72154,128,0,72559:0:0:0:0:
320,192,72356,1,0,0:0:0:0:
192,192,72559,1,2,0:0:0:0:
448,192,72559,1,0,0:0:0:0:
320,192,72559,1,4,0:0:0:0:
64,192,72762,1,2,0:0:0:0:
448,192,72762,128,0,73167:0:0:0:0:
64,192,72964,1,8,0:0:0:0:
320,192,72964,128,0,73167:0:0:0:0:
192,192,73167,1,8,0:0:0:0:
448,192,73268,1,0,0:0:0:0:
320,192,73268,1,8,0:0:0:0:
192,192,73370,1,2,0:0:0:0:
64,192,73370,128,0,73775:0:0:0:0:
320,192,73573,1,2,0:0:0:0:
448,192,73573,128,0,73775:0:0:0:0:
192,192,73775,1,8,0:0:0:0:
320,192,73775,1,0,0:0:0:0:
448,192,73978,1,0,0:0:0:0:
64,192,74181,1,0,0:0:0:0:
192,192,74181,1,2,0:0:0:0:
448,192,74383,1,0,0:0:0:0:
320,192,74383,1,2,0:0:0:0:
64,192,74586,1,0,0:0:0:0:
192,192,74586,1,8,0:0:0:0:
448,192,74586,1,0,0:0:0:0:
320,192,74789,1,8,0:0:0:0:
64,192,74890,1,0,0:0:0:0:
448,192,74890,1,8,0:0:0:0:
192,192,74991,1,2,0:0:0:0:
64,192,75194,1,2,0:0:0:0:
448,192,75194,1,0,0:0:0:0:
64,192,75397,1,0,0:0:0:0:
448,192,75397,1,8,0:0:0:0:
192,192,75397,1,0,0:0:0:0:
320,192,75600,1,0,0:0:0:0:
448,192,75802,128,0,76410:0:0:0:0:
320,192,75802,1,4,0:0:0:0:
64,192,75802,1,8,0:0:0:0:
192,192,76005,1,0,0:0:0:0:
64,192,76106,1,8,0:0:0:0:
320,192,76106,1,0,0:0:0:0:
192,192,76208,1,2,0:0:0:0:
64,192,76410,128,0,77018:0:0:0:0:
192,192,76410,1,8,0:0:0:0:
320,192,76410,1,4,0:0:0:0:
320,192,76613,1,2,0:0:0:0:
448,192,76714,1,0,0:0:0:0:
192,192,76714,1,8,0:0:0:0:
320,192,76816,1,0,0:0:0:0:
448,192,77018,128,0,77829:0:0:0:0:
320,192,77018,1,4,0:0:0:0:
192,192,77018,1,8,0:0:0:0:
64,192,77424,1,0,0:0:0:0:
192,192,77424,1,8,0:0:0:0:
320,192,77627,1,8,0:0:0:0:
64,192,77627,1,0,0:0:0:0:
320,192,77829,1,0,0:0:0:0:
192,192,77829,1,8,0:0:0:0:
192,192,78032,1,8,0:0:0:0:
448,192,78032,1,0,0:0:0:0:
64,192,78032,1,0,0:0:0:0:
320,192,78235,1,8,0:0:0:0:
448,192,78235,1,0,0:0:0:0:
64,192,78235,1,0,0:0:0:0:
448,192,79045,128,0,79654:0:0:0:0:
64,192,79045,1,2,0:0:0:0:
320,192,79045,1,4,0:0:0:0:
192,192,79248,1,2,0:0:0:0:
64,192,79451,1,0,0:0:0:0:
320,192,79451,1,8,0:0:0:0:
64,192,79654,128,0,80262:0:0:0:0:
192,192,79654,1,0,0:0:0:0:
320,192,79755,1,0,0:0:0:0:
192,192,79856,1,0,0:0:0:0:
448,192,80059,1,0,0:0:0:0:
320,192,80059,1,2,0:0:0:0:
448,192,80262,128,0,82289:0:0:0:0:
192,192,80262,1,8,0:0:0:0:
320,192,80262,1,0,0:0:0:0:
192,192,80667,1,2,0:0:0:0:
192,192,80870,1,2,0:0:0:0:
64,192,81073,1,0,0:0:0:0:
320,192,81073,1,8,0:0:0:0:
320,192,81478,1,0,0:0:0:0:
64,192,81681,1,2,0:0:0:0:
320,192,81883,1,0,0:0:0:0:
192,192,81883,1,8,0:0:0:0:
320,192,82289,1,4,0:0:0:0:
192,192,82289,1,8,0:0:0:0:
64,192,82289,128,0,82897:0:0:0:0:
320,192,82593,1,8,0:0:0:0:
192,192,82593,1,0,0:0:0:0:
448,192,82694,1,2,0:0:0:0:
448,192,82897,128,0,83505:0:0:0:0:
320,192,82897,1,4,0:0:0:0:
192,192,82897,1,8,0:0:0:0:
64,192,83100,1,2,0:0:0:0:
320,192,83201,1,0,0:0:0:0:
192,192,83201,1,8,0:0:0:0:
320,192,83505,1,4,0:0:0:0:
192,192,83505,1,8,0:0:0:0:
64,192,83505,128,0,84522:0:0:0:0:
320,192,83910,1,2,0:0:0:0:
448,192,84114,1,0,0:0:0:0:
192,192,84114,1,8,0:0:0:0:
448,192,84318,1,0,0:0:0:0:
192,192,84318,1,8,0:0:0:0:
320,192,84522,128,0,84726:0:0:0:0:
64,192,84726,1,0,0:0:0:0:
192,192,84726,1,2,0:0:0:0:
320,192,84930,1,8,0:0:0:0:
448,192,84930,1,0,0:0:0:0:
64,192,85032,1,0,0:0:0:0:
192,192,85032,1,8,0:0:0:0:
448,192,85134,1,2,0:0:0:0:
320,192,85134,128,0,85338:0:0:0:0:
192,192,85338,1,8,0:0:0:0:
64,192,85338,1,0,0:0:0:0:
320,192,85440,1,8,0:0:0:0:
448,192,85542,1,4,0:0:0:0:
64,192,85542,1,0,0:0:0:0:
192,192,85542,1,2,0:0:0:0:
