osu file format v14

[General]
AudioFilename: audio.mp3
AudioLeadIn: 0
PreviewTime: 52110
Countdown: 0
SampleSet: Soft
StackLeniency: 0.7
Mode: 2
LetterboxInBreaks: 0
WidescreenStoryboard: 1

[Editor]
DistanceSpacing: 0.1
BeatDivisor: 4
GridSize: 8
TimelineZoom: 2.599999

[Metadata]
Title:forget-me-not (TV Size)
TitleUnicode:forget-me-not (TV Size)
Artist:ReoNa
ArtistUnicode:ReoNa
Creator:Myxo
Version:Cup
Source:ソードアート・オンライン アリシゼーション
Tags:xinely anime pop japanese sword art online sao alicization season three ending ed collab
BeatmapID:2768655
BeatmapSetID:1323850

[Difficulty]
HPDrainRate:2.5
CircleSize:2.5
OverallDifficulty:6
ApproachRate:6
SliderMultiplier:1.3
SliderTickRate:1

[Events]
//Background and Video events
0,0,"apps.30071.14538851137014143.379679b7-cc05-43a4-b79b-b4d4f5017d44.jpg",0,0
//Break Periods
//Storyboard Layer 0 (Background)
//Storyboard Layer 1 (Fail)
//Storyboard Layer 2 (Pass)
//Storyboard Layer 3 (Foreground)
//Storyboard Layer 4 (Overlay)
//Storyboard Sound Samples

[TimingPoints]
-387,405.405405405405,4,2,1,30,1,0
4477,-100,4,2,1,40,0,0
5085,408.163265306122,4,2,1,40,1,0
6120,384.615384615385,4,2,1,50,1,0
6504,352.941176470588,4,2,1,50,1,0
6680,397.350993377483,4,2,1,50,1,0
7077,387.096774193548,4,2,1,50,1,0
7270,425.531914893617,4,2,1,50,1,0
7695,465.116279069767,4,2,1,70,1,0
7927,397.350993377483,4,2,1,70,1,0
8125,408.163265306122,4,2,1,70,1,0
8329,406.779661016949,4,2,1,70,1,0
8939,405.405405405405,4,2,1,70,1,0
9344,405.405405405405,4,2,1,70,1,0
13803,400,4,2,1,70,1,0
14203,405.405405405405,4,2,1,70,1,0
14608,416.666666666667,4,2,1,70,1,0
14816,402.684563758389,4,2,1,70,1,0
15420,410.958904109589,4,2,1,70,1,0
15830,397.350993377483,4,2,1,70,1,0
16227,419.58041958042,4,2,1,70,1,0
16541,372.670807453416,4,2,1,70,1,0
16820,431.654676258993,4,2,1,70,1,0
17035,394.736842105263,4,2,1,70,1,0
17429,415.22491349481,4,2,1,70,1,0
18259,405.405405405405,4,2,1,70,1,0
19068,405.405405405405,4,2,1,70,1,0
20689,-100,4,2,1,60,0,0
43392,-100,4,2,1,70,0,0
46635,-100,4,2,1,60,0,0
49878,410.958904109589,4,2,1,60,1,0
51110,400,4,2,1,60,1,0
52110,410.958904109589,4,2,1,70,1,0
52725,397.350993377483,4,2,1,70,1,0
53122,405.405405405405,4,2,1,80,1,1
53122,-100,4,2,1,80,0,1
64676,-100,4,2,1,80,0,1
66095,-100,4,2,1,80,0,1
79067,-100,4,2,1,70,0,0
81094,416.666666666667,4,2,1,70,1,0
81719,387.096774193548,4,2,1,70,1,0
81912,400,4,2,1,70,1,0
82312,405.405405405405,4,2,1,70,1,0
83932,408.163265306122,4,2,1,70,1,0
84544,410.958904109589,4,2,1,70,1,0
85571,410.958904109589,4,2,1,70,1,0

[Colours]
Combo1 : 249,106,135
Combo2 : 85,240,104
Combo3 : 128,177,253
Combo4 : 252,215,103

[HitObjects]
242,183,221,5,0,0:0:0:0:
177,175,423,2,0,L|163:45,1,130,2|2,0:2|0:2,0:0:0:0:
327,78,1234,6,0,P|387:94|332:177,1,195,2|2,0:2|0:2,0:0:0:0:
100,212,2652,6,0,L|91:79,1,130,2|2,0:2|0:2,0:0:0:0:
202,60,3463,2,0,L|60:48,1,130,2|2,0:2|0:2,0:0:0:0:
301,23,4477,6,0,P|364:43|307:124,1,195,2|2,0:2|0:2,0:0:0:0:
191,147,5493,2,0,L|313:190,1,130,2|2,0:2|0:2,0:0:0:0:
218,232,6120,6,0,L|224:308,1,65,8|0,1:2|1:2,0:0:0:0:
312,315,6504,1,0,3:2:0:0:
399,290,6680,2,0,L|393:214,1,65,8|0,1:2|1:2,0:0:0:0:
226,201,7270,1,10,1:2:0:0:
408,160,7695,6,0,P|446:215|411:266,1,120,4|8,3:1|0:2,0:0:0:0:
342,280,8329,2,0,L|211:275,1,130,2|0,0:2|3:2,0:0:0:0:
287,260,8939,1,10,0:2:0:0:
136,229,9344,5,0,3:2:0:0:
268,195,9749,2,0,L|381:193,1,97.5,8|8,0:2|0:2,0:0:0:0:
251,180,10357,1,0,3:2:0:0:
169,164,10560,1,8,0:2:0:0:
351,119,10965,6,0,L|213:109,1,130,2|8,3:2|0:2,0:0:0:0:
137,94,11573,2,0,P|103:116|129:190,1,130,2|0,0:2|3:2,0:0:0:0:
213,198,12181,1,10,0:2:0:0:
60,235,12587,5,0,3:2:0:0:
193,280,12992,2,0,L|197:182,1,97.5,8|8,0:2|0:2,0:0:0:0:
83,161,13600,2,0,L|78:95,1,65,0|8,3:2|0:2,0:0:0:0:
262,66,14203,6,0,L|397:69,1,130,2|8,3:2|0:2,0:0:0:0:
308,92,14816,2,0,P|281:133|338:192,1,130,2|0,0:2|3:2,0:0:0:0:
411,187,15420,1,10,0:2:0:0:
262,238,15830,5,0,3:2:0:0:
392,292,16227,2,0,L|502:288,1,97.5,8|8,0:2|0:2,0:0:0:0:
398,355,16820,1,0,3:2:0:0:
475,345,17035,1,8,0:2:0:0:
288,319,17429,6,0,L|145:317,1,130,4|0,3:1|3:2,0:0:0:0:
246,284,18051,2,0,L|355:277,1,97,14|8,0:2|0:2,0:0:0:0:
200,245,18664,2,0,P|165:226|190:155,1,130,14|0,0:2|3:2,0:0:0:0:
270,133,19270,5,8,0:2:0:0:
186,115,19473,1,8,0:2:0:0:
308,56,19878,1,0,3:2:0:0:
155,40,20284,2,0,L|147:118,1,65,8|0,0:2|3:2,0:0:0:0:
233,118,20689,5,4,3:2:0:0:
105,151,21095,2,0,P|72:183|120:240,1,130,10|2,0:2|0:2,0:0:0:0:
182,250,21703,1,2,3:2:0:0:
308,301,22108,6,0,L|178:331,1,130,2|2,0:2|3:2,0:0:0:0:
319,354,22919,2,0,P|373:344|412:280,1,130,2|2,0:2|3:2,0:0:0:0:
255,251,23730,5,2,0:2:0:0:
382,218,24135,2,0,L|393:80,1,130,2|2,3:2|0:2,0:0:0:0:
256,107,24946,1,2,3:2:0:0:
246,69,25149,2,0,L|398:62,1,130,10|0,0:2|3:2,0:0:0:0:
143,33,26162,6,0,P|107:66|137:134,1,130,2|2,0:2|3:2,0:0:0:0:
200,143,26770,1,10,0:2:0:0:
49,185,27176,5,0,3:2:0:0:
269,240,27784,2,0,L|189:237,1,65,2|2,0:2|0:2,0:0:0:0:
273,215,28189,1,2,3:2:0:0:
412,215,28595,2,0,P|438:256|388:309,1,130,2|2,0:2|3:2,0:0:0:0:
256,336,29405,2,0,L|386:373,1,130,2|2,0:2|3:2,0:0:0:0:
238,360,30216,6,0,P|190:346|164:270,1,130,2|2,0:2|3:2,0:0:0:0:
299,244,31027,2,0,P|360:263|418:222,1,130,2|2,0:2|3:2,0:0:0:0:
260,158,31838,2,0,P|232:140|259:61,1,130,2|2,0:2|3:2,0:0:0:0:
389,40,32649,6,0,P|325:73|419:185,1,260,2|2,0:2|0:3,0:0:0:0:
488,163,33662,5,4,3:2:0:0:
263,134,34270,1,2,0:2:0:0:
345,126,34473,2,0,P|386:161|346:221,1,130,2|10,0:2|0:2,0:0:0:0:
273,228,35081,5,2,0:2:0:0:
417,273,35486,1,2,3:2:0:0:
262,334,35892,2,0,L|188:330,1,65,2|2,0:2|0:2,0:0:0:0:
267,314,36297,1,2,3:2:0:0:
117,279,36703,6,0,P|79:252|111:185,1,130,2|2,0:2|3:2,0:0:0:0:
191,170,37311,2,0,L|194:102,1,65,10|2,0:2|0:2,0:0:0:0:
57,77,37919,1,2,3:2:0:0:
207,39,38324,6,0,L|350:72,1,130,2|2,0:2|3:2,0:0:0:0:
186,143,39135,2,0,P|144:187|205:235,1,130,2|2,0:2|3:2,0:0:0:0:
263,240,39743,1,10,0:2:0:0:
424,215,40149,5,0,3:2:0:0:
198,321,40757,1,2,0:2:0:0:
126,346,40959,2,0,P|111:308|168:246,1,130,2|10,0:2|0:2,0:0:0:0:
248,233,41567,6,0,L|114:230,1,130,2|2,0:2|3:2,0:0:0:0:
283,158,42378,2,0,P|313:120|263:61,1,130,2|2,0:2|3:2,0:0:0:0:
184,66,42986,2,0,L|179:137,1,65,10|2,0:2|0:2,0:0:0:0:
266,147,43392,6,0,L|406:153,1,130,12|0,0:2|3:2,0:0:0:0:
312,190,44000,2,0,L|193:186,1,97.5,8|8,0:2|0:2,0:0:0:0:
356,100,44608,2,0,P|422:130|369:214,1,195,14|10,0:2|0:2,0:0:0:0:
279,231,45419,5,12,0:2:0:0:
428,262,45824,1,12,0:2:0:0:
261,281,46230,2,0,L|257:215,1,65,10|8,0:2|0:3,0:0:0:0:
349,212,46635,5,4,3:2:0:0:
124,113,47851,1,2,3:2:0:0:
191,136,48054,6,0,L|327:126,1,130,2|2,0:2|0:2,0:0:0:0:
175,238,48865,2,0,L|39:228,1,130,10|10,0:3|0:3,0:0:0:0:
276,318,49878,5,4,3:1:0:0:
256,192,50288,12,2,52315,0:2:0:0:
388,98,53122,6,0,L|244:99,1,130,4|10,3:1|0:2,0:0:0:0:
334,129,53730,1,2,0:0:0:0:
192,169,54135,1,2,3:2:0:0:
375,201,54540,6,0,P|407:237|353:297,1,130,2|0,0:2|3:2,0:0:0:0:
222,321,55351,1,2,0:2:0:0:
296,309,55554,1,2,0:2:0:0:
370,271,55757,1,2,3:2:0:0:
373,234,55959,1,10,0:2:0:0:
193,132,56365,6,0,L|336:128,1,130,2|10,3:2|0:2,0:0:0:0:
242,98,56973,2,0,L|95:60,1,130,2|2,0:2|3:2,0:0:0:0:
300,33,57784,6,0,P|332:64|289:128,1,130,2|0,0:2|3:2,0:0:0:0:
143,167,58594,2,0,L|74:167,1,65,2|2,0:2|0:2,0:0:0:0:
65,219,59000,1,2,3:2:0:0:
248,257,59405,6,0,P|294:238|378:278,1,130,2|0,0:2|3:2,0:0:0:0:
288,296,60013,1,10,0:2:0:0:
210,325,60216,2,0,P|171:296|194:228,1,130,2|2,0:2|3:2,0:0:0:0:
357,209,61027,6,0,P|396:180|373:112,1,130,2|2,0:2|3:2,0:0:0:0:
295,96,61635,1,10,0:2:0:0:
378,71,61838,1,2,0:2:0:0:
145,54,62446,1,10,0:2:0:0:
327,113,62851,6,0,L|336:220,1,97.5,4|8,3:1|0:2,0:0:0:0:
211,223,63459,2,0,L|202:330,1,97.5,14|8,0:2|0:2,0:0:0:0:
327,333,64067,2,0,L|187:339,1,130,14|0,0:2|3:2,0:0:0:0:
116,323,64676,5,8,0:2:0:0:
200,299,64878,1,12,0:2:0:0:
43,242,65284,1,6,3:2:0:0:
124,217,65486,1,10,0:2:0:0:
203,189,65689,2,0,L|208:115,1,65,2|8,3:2|0:2,0:0:0:0:
115,104,66094,6,0,P|71:74|121:18,1,130,4|10,3:1|0:2,0:0:0:0:
181,79,66703,1,2,3:2:0:0:
329,111,67108,1,2,3:2:0:0:
149,167,67513,6,0,P|112:170|59:243,1,130,2|0,0:2|3:2,0:0:0:0:
206,316,68324,1,2,3:2:0:0:
207,255,68527,1,2,3:2:0:0:
133,231,68730,1,2,3:2:0:0:
60,210,68932,1,10,0:2:0:0:
242,93,69338,6,0,L|388:94,1,130,2|10,3:2|0:2,0:0:0:0:
452,122,69946,2,0,P|483:170|425:216,1,130,2|2,3:2|3:2,0:0:0:0:
265,257,70757,6,0,L|125:256,1,130,2|0,0:2|3:2,0:0:0:0:
280,341,71567,2,0,L|345:340,1,65,2|2,3:2|3:2,0:0:0:0:
268,321,71973,2,0,P|230:293|256:225,1,130,2|2,3:2|0:2,0:0:0:0:
343,202,72581,6,0,L|184:204,1,130,4|10,3:2|0:2,0:0:0:0:
294,167,73189,2,0,L|427:167,1,130,2|2,3:2|3:2,0:0:0:0:
433,127,73797,1,10,0:2:0:0:
341,113,74000,6,0,L|142:100,1,195,2|10,0:2|0:2,0:0:0:0:
227,77,74811,1,2,3:2:0:0:
43,154,75419,2,0,L|111:153,1,65,10|2,0:2|3:2,0:0:0:0:
199,160,75824,6,0,P|238:216|187:262,1,130,4|0,3:1|3:2,0:0:0:0:
116,265,76432,2,0,L|106:375,1,97.5,14|8,0:2|0:2,0:0:0:0:
238,354,77040,1,14,0:2:0:0:
69,343,77446,5,4,3:1:0:0:
144,340,77649,1,8,0:2:0:0:
197,296,77851,1,0,3:2:0:0:
192,220,78054,1,8,0:2:0:0:
110,197,78257,1,14,0:2:0:0:
382,78,79067,6,0,P|421:121|387:177,1,130,4|8,3:1|0:2,0:0:0:0:
306,193,79676,2,0,L|176:190,1,130,2|0,0:2|3:2,0:0:0:0:
252,172,80284,1,10,0:2:0:0:
85,142,80689,5,0,3:2:0:0:
228,96,81094,2,0,P|276:124|209:213,1,195,8|0,0:2|3:2,0:0:0:0:
133,216,81912,1,8,0:2:0:0:
311,281,82312,6,0,L|318:176,1,97.5,4|8,3:1|0:2,0:0:0:0:
172,173,82920,2,0,L|64:171,1,97.5,14|8,0:2|0:2,0:0:0:0:
226,104,83528,2,0,L|385:102,1,130,14|0,0:2|3:2,0:0:0:0:
438,113,84136,6,0,L|439:183,1,65,8|8,0:2|0:2,0:0:0:0:
343,191,84544,2,0,P|295:229|368:305,1,195,6|0,0:0|3:2,0:0:0:0:
199,338,85571,5,4,3:2:0:0:
