osu file format v14

[General]
AudioFilename: audio.mp3
AudioLeadIn: 0
PreviewTime: 52110
Countdown: 0
SampleSet: Soft
StackLeniency: 0.5
Mode: 0
LetterboxInBreaks: 0
WidescreenStoryboard: 1

[Editor]
DistanceSpacing: 1.5
BeatDivisor: 4
GridSize: 4
TimelineZoom: 1.5

[Metadata]
Title:forget-me-not (TV Size)
TitleUnicode:forget-me-not (TV Size)
Artist:ReoNa
ArtistUnicode:ReoNa
Creator:HakuYT
Version:Hard
Source:ソードアート・オンライン アリシゼーション
Tags:jpop j-pop anime pop japanese sword art online sao alicization season three ending ed nextplay
BeatmapID:4059742
BeatmapSetID:925423

[Difficulty]
HPDrainRate:4
CircleSize:3.8
OverallDifficulty:6
ApproachRate:7.5
SliderMultiplier:1.5
SliderTickRate:1

[Events]
//Background and Video events
0,0,"bg.png",0,0
//Break Periods
//Storyboard Layer 0 (Background)
//Storyboard Layer 1 (Fail)
//Storyboard Layer 2 (Pass)
//Storyboard Layer 3 (Foreground)
//Storyboard Layer 4 (Overlay)
//Storyboard Sound Samples

[TimingPoints]
-387,405.405405405405,4,2,1,50,1,0
1234,-125,4,2,1,50,0,0
1842,-125,4,2,1,50,0,0
5085,408.163265306122,4,2,1,50,1,0
5085,-125,4,2,1,50,0,0
6120,384.615384615385,4,2,1,70,1,0
6504,352.941176470588,4,2,1,70,1,0
6680,397.350993377483,4,2,1,70,1,0
7077,387.096774193548,4,2,1,70,1,0
7270,425.531914893617,4,2,1,70,1,0
7589,-100,4,2,1,5,0,0
7695,465.116279069767,4,2,1,70,1,0
7695,-100,4,2,1,70,0,0
7927,397.350993377483,4,2,1,70,1,0
8125,408.163265306122,4,2,1,70,1,0
8329,406.779661016949,4,2,1,70,1,0
8939,405.405405405405,4,2,1,70,1,0
9344,405.405405405405,4,2,1,70,1,0
10864,-100,4,2,1,5,0,0
10965,-100,4,2,1,70,0,0
13803,400,4,2,1,70,1,0
13803,-100,4,2,1,70,0,0
14101,-100,4,2,1,5,0,0
14203,405.405405405405,4,2,1,70,1,0
14203,-100,4,2,1,70,0,0
14608,416.666666666667,4,2,1,70,1,0
14816,402.684563758389,4,2,1,70,1,0
15420,410.958904109589,4,2,1,70,1,0
15830,397.350993377483,4,2,1,70,1,0
16227,419.58041958042,4,2,1,70,1,0
16541,372.670807453416,4,2,1,70,1,0
16820,431.654676258993,4,2,1,70,1,0
17035,394.736842105263,4,2,1,70,1,0
17429,415.22491349481,4,2,1,70,1,0
17429,-100,4,2,1,70,0,0
18259,405.405405405405,4,2,1,70,1,0
18259,-100,4,2,1,70,0,0
19068,405.405405405405,4,2,1,70,1,0
19068,-100,4,2,1,70,0,0
20689,-100,4,2,1,65,0,0
33459,-100,4,2,1,65,0,0
37108,-100,4,2,1,65,0,0
43392,-100,4,2,1,70,0,0
45824,-100,4,2,1,70,0,0
46635,-100,4,2,1,55,0,0
49878,410.958904109589,4,2,1,55,1,0
49878,-100,4,2,1,55,0,0
51110,400,4,2,1,5,1,0
51110,-100,4,2,1,55,0,0
52110,387.096774193548,4,2,1,70,1,0
52110,-100,4,2,1,70,0,0
52690,397.350993377483,4,2,1,70,1,0
52690,-100,4,2,1,70,0,0
53020,-100,4,2,1,5,0,0
53122,405.405405405405,4,2,1,80,1,1
53122,-83.3333333333333,4,2,1,80,0,1
55149,-83.3333333333333,4,2,1,80,0,1
58392,-83.3333333333333,4,2,1,80,0,1
60014,-83.3333333333333,4,2,1,80,0,1
62852,-83.3333333333333,4,2,1,80,0,1
64473,-83.3333333333333,4,2,1,80,0,1
71365,-83.3333333333333,4,2,1,80,0,1
71771,-83.3333333333333,4,2,1,80,0,1
72176,-83.3333333333333,4,2,1,80,0,1
72987,-83.3333333333333,4,2,1,80,0,1
77446,-83.3333333333333,4,2,1,80,0,1
79067,-100,4,2,1,70,0,0
81094,416.666666666667,4,2,1,70,1,0
81719,387.096774193548,4,2,1,70,1,0
81912,400,4,2,1,70,1,0
82312,405.405405405405,4,2,1,70,1,0
83932,408.163265306122,4,2,1,70,1,0
84544,410.958904109589,4,2,1,70,1,0
85571,410.958904109589,4,2,1,70,1,0
88755,-100,4,2,1,5,0,0

[Colours]
Combo1 : 198,125,177
Combo2 : 249,204,100
Combo3 : 90,103,148

[HitObjects]
249,20,1234,6,0,B|285:62|285:62|231:183,1,180,2|2,0:2|0:2,0:0:0:0:
44,115,2653,6,0,B|94:102|94:102|112:108|112:108|177:92,1,120,2|2,0:2|0:2,0:0:0:0:
232,278,3464,6,0,P|207:225|251:166,1,120,2|2,0:2|0:2,0:0:0:0:
383,84,4275,1,0,0:2:0:0:
383,84,4477,6,0,P|438:85|453:146,1,120,2|0,0:2|0:2,0:0:0:0:
410,216,5085,2,0,L|431:353,1,120,2|0,0:2|0:0,0:0:0:0:
238,293,5901,1,2,0:2:0:0:
284,215,6120,5,8,0:2:0:0:
284,215,6216,1,8,0:2:0:0:
284,215,6312,2,0,L|346:205,2,37.5,8|8|0,0:2|0:2|1:2,0:0:0:0:
234,140,6680,1,8,0:2:0:0:
234,140,6779,1,8,0:2:0:0:
234,140,6878,2,0,L|172:130,2,37.5,8|8|0,0:2|0:2|1:2,0:0:0:0:
318,75,7270,2,0,P|281:34|207:36,1,112.5,8|0,0:2|0:0,0:0:0:0:
179,48,7695,6,0,L|89:32,1,75,6|0,1:2|1:2,0:0:0:0:
20,78,8125,1,8,0:2:0:0:
96,138,8329,1,2,0:2:0:0:
96,138,8430,1,8,0:2:0:0:
96,138,8532,2,0,P|114:170|106:226,1,75,0|0,1:2|1:2,0:0:0:0:
67,293,8939,6,0,B|125:304|125:304|153:290|153:290|230:304,1,150,10|0,0:2|1:2,0:0:0:0:
290,357,9546,1,0,1:2:0:0:
335,270,9749,1,8,0:2:0:0:
267,215,9952,1,0,0:2:0:0:
267,215,10053,1,8,0:2:0:0:
267,215,10154,2,0,L|255:114,1,75,0|0,1:2|1:2,0:0:0:0:
287,46,10560,2,0,B|333:28|333:28|419:53,1,112.5,8|0,0:2|0:2,0:0:0:0:
429,78,10965,6,0,P|453:112|448:160,1,75,2|0,1:2|1:2,0:0:0:0:
398,224,11371,1,8,0:2:0:0:
332,153,11573,2,0,L|251:139,1,75,2|0,0:2|1:2,0:0:0:0:
161,121,11979,1,0,1:2:0:0:
206,206,12181,6,0,B|227:251|227:251|194:350,1,150,10|0,0:2|1:2,0:0:0:0:
104,382,12789,1,0,1:2:0:0:
32,315,12992,2,0,P|35:272|43:233,1,75,8|0,0:2|0:0,0:0:0:0:
66,145,13398,1,2,0:2:0:0:
119,226,13600,1,2,1:2:0:0:
155,134,13803,2,0,L|296:117,1,112.5,8|0,0:2|0:2,0:0:0:0:
314,117,14203,6,0,P|324:152|294:201,1,75,6|0,1:2|1:2,0:0:0:0:
248,258,14608,1,8,0:2:0:0:
330,316,14816,1,2,0:2:0:0:
330,316,14916,1,8,0:0:0:0:
330,316,15017,2,0,L|418:301,1,75,0|0,1:2|1:2,0:0:0:0:
475,239,15420,6,0,P|498:169|457:92,1,150,10|0,0:2|1:2,0:0:0:0:
392,41,16028,1,0,1:2:0:0:
317,93,16227,1,8,0:2:0:0:
239,37,16436,1,0,0:0:0:0:
239,37,16541,1,8,0:2:0:0:
239,37,16634,2,0,L|163:28,1,75,0|0,1:2|1:2,0:0:0:0:
71,21,17035,2,0,P|56:56|71:104,1,75,8|0,0:2|0:2,0:0:0:0:
116,175,17429,6,0,L|92:327,1,150,14|0,0:2|1:2,0:0:0:0:
188,288,18051,1,10,0:2:0:0:
242,376,18259,1,0,1:2:0:0:
242,376,18360,1,8,0:2:0:0:
242,376,18461,1,0,0:0:0:0:
286,289,18664,6,0,P|274:221|192:184,1,150,14|0,0:2|1:2,0:0:0:0:
121,231,19270,1,8,0:2:0:0:
55,159,19473,2,0,B|36:113|36:113|78:9,1,150,8|0,0:2|1:2,0:0:0:0:
170,6,20081,1,8,0:2:0:0:
211,105,20284,1,8,0:2:0:0:
211,105,20385,1,8,0:2:0:0:
211,105,20486,1,0,1:2:0:0:
272,28,20689,6,0,L|371:17,1,75,4|0,1:2|1:2,0:0:0:0:
436,28,21095,2,0,P|468:86|423:176,1,150,10|2,0:2|0:2,0:0:0:0:
368,213,21703,1,2,1:2:0:0:
307,153,21905,1,8,0:2:0:0:
307,153,22108,6,0,L|226:167,1,75,2|0,0:2|1:2,0:0:0:0:
170,101,22513,2,0,L|128:172,1,75,2|8,1:2|0:2,0:0:0:0:
42,154,22919,2,0,L|69:231,1,75,2|0,0:2|0:2,0:0:0:0:
104,306,23324,1,2,1:2:0:0:
168,243,23527,1,8,0:2:0:0:
217,318,23730,6,0,B|303:298|274:378|373:355,2,150,2|2|2,0:2|1:2|0:2,0:0:0:0:
67,224,24946,1,2,1:2:0:0:
114,147,25149,2,0,L|271:177,1,150,10|0,0:2|1:2,0:0:0:0:
348,198,25757,5,0,1:2:0:0:
408,132,25959,1,8,0:2:0:0:
408,132,26162,2,0,P|451:115|487:124,1,75,2|2,0:2|0:2,0:0:0:0:
510,204,26567,1,2,1:2:0:0:
440,261,26770,1,10,0:2:0:0:
501,340,26973,1,0,3:2:0:0:
501,340,27074,1,0,3:2:0:0:
501,340,27176,6,0,L|423:355,1,75,0|0,1:2|1:2,0:0:0:0:
337,365,27581,2,0,B|271:355|271:355|252:365|252:365|180:354,1,150,8|2,0:2|0:2,0:0:0:0:
100,358,28189,2,0,P|104:312|136:285,1,75,2|8,1:2|0:2,0:0:0:0:
208,262,28595,6,0,L|196:184,1,75,2|0,0:2|1:2,0:0:0:0:
270,135,29000,2,0,L|281:60,1,75,2|8,1:2|0:2,0:0:0:0:
208,8,29405,2,0,B|157:32|157:32|45:5,1,150,2|2,0:2|1:2,0:0:0:0:
8,79,30013,1,10,0:2:0:0:
68,144,30216,6,0,P|105:138|142:134,1,75,2|0,0:2|1:2,0:0:0:0:
232,134,30622,2,0,P|218:168|203:203,1,75,2|8,1:2|0:2,0:0:0:0:
158,281,31027,2,0,P|134:251|112:221,1,75,2|0,0:2|0:0,0:0:0:0:
25,245,31432,2,0,P|15:304|97:362,1,150,2|2,1:2|0:2,0:0:0:0:
165,367,32040,6,0,L|260:350,1,75,0|0,1:2|1:2,0:0:0:0:
327,335,32446,1,8,0:2:0:0:
273,262,32649,2,0,P|264:192|249:101,1,150,2|2,0:2|1:2,0:0:0:0:
272,26,33257,1,8,0:0:0:0:
357,78,33459,1,0,3:2:0:0:
357,78,33561,1,0,3:2:0:0:
357,78,33662,6,0,P|393:61|439:62,2,75,0|0|8,1:2|1:2|0:2,0:0:0:0:
322,161,34270,1,2,0:2:0:0:
410,145,34473,2,0,P|416:182|426:242,1,75,2|2,0:2|1:2,0:0:0:0:
434,308,34878,1,10,0:2:0:0:
349,277,35081,6,0,P|283:293|188:309,1,150,2|2,0:2|1:2,0:0:0:0:
112,306,35689,1,8,0:0:0:0:
154,228,35892,1,2,0:2:0:0:
154,228,36095,2,0,P|113:216|58:210,1,75,2|2,0:2|1:2,0:0:0:0:
9,265,36500,1,8,0:2:0:0:
1,175,36703,6,0,P|33:127|130:132,1,150,2|2,0:2|1:2,0:0:0:0:
206,101,37311,1,10,0:2:0:0:
264,169,37513,2,0,L|367:152,1,75,2|0,0:2|0:2,0:0:0:0:
399,223,37919,2,0,L|452:133,1,75,2|8,1:2|0:2,0:0:0:0:
505,100,38324,6,0,P|482:73|425:66,1,75,2|0,0:2|1:2,0:0:0:0:
357,84,38730,1,2,1:2:0:0:
315,4,38932,1,8,0:2:0:0:
257,73,39135,2,0,L|163:53,1,75,2|2,0:2|0:2,0:0:0:0:
94,41,39540,1,2,1:2:0:0:
128,124,39743,1,10,0:2:0:0:
47,112,39946,1,0,3:2:0:0:
47,112,40047,1,0,3:2:0:0:
47,112,40149,6,0,P|44:153|30:211,1,75,0|0,1:2|1:2,0:0:0:0:
27,275,40554,2,0,B|93:265|93:265|112:275|112:275|184:264,1,150,8|2,0:2|0:2,0:0:0:0:
262,253,41162,1,2,1:2:0:0:
206,181,41365,1,10,0:2:0:0:
284,136,41567,6,0,L|369:150,1,75,2|0,0:2|1:2,0:0:0:0:
428,90,41973,2,0,P|451:125|444:174,1,75,2|8,1:2|0:2,0:0:0:0:
418,241,42378,1,2,0:2:0:0:
418,241,42581,2,0,L|433:326,1,75,0|2,0:2|1:2,0:0:0:0:
363,374,42986,1,10,0:2:0:0:
304,305,43189,1,2,0:2:0:0:
240,368,43392,6,0,L|142:350,1,75,12|2,0:2|0:2,0:0:0:0:
166,354,43696,1,0,1:2:0:0:
166,354,43797,1,0,1:2:0:0:
123,275,44000,2,0,L|25:293,1,75,8|0,0:2|1:2,0:0:0:0:
49,288,44304,1,8,0:2:0:0:
49,288,44405,1,2,1:2:0:0:
15,204,44608,1,10,0:2:0:0:
81,139,44811,6,0,L|89:57,1,75,2|0,0:2|1:2,0:0:0:0:
159,8,45216,1,10,0:2:0:0:
211,81,45419,2,0,B|232:126|232:126|190:229,1,150,8|0,0:2|1:2,0:0:0:0:
164,303,46027,1,8,1:3:0:0:
164,303,46128,1,8,1:3:0:0:
164,303,46230,1,2,1:2:0:0:
89,253,46432,1,6,1:3:0:0:
89,253,46534,1,4,1:3:0:0:
89,253,46635,6,0,P|80:186|66:102,1,150,4|0,1:2|1:2,0:0:0:0:
57,14,47243,2,0,L|147:33,1,75,4|0,1:3|1:2,0:0:0:0:
130,29,47547,1,8,1:3:0:0:
130,29,47649,1,4,1:3:0:0:
202,107,47851,1,2,1:2:0:0:
246,28,48054,6,0,L|332:17,1,75,2|4,0:2|1:3,0:0:0:0:
411,58,48459,1,2,0:2:0:0:
411,58,48561,1,8,1:3:0:0:
411,58,48662,1,4,1:3:0:0:
342,116,48865,2,0,P|331:153|326:206,1,75,6|0,1:3|1:2,0:0:0:0:
241,218,49270,2,0,P|252:255|257:308,1,75,6|0,1:3|1:2,0:0:0:0:
205,365,49676,1,0,3:2:0:0:
205,365,49777,1,0,3:2:0:0:
205,365,49878,6,0,B|73:390|134:273|-7:298,2,225,6|2|2,1:2|0:0|0:2,0:0:0:0:
167,167,52110,5,2,0:0:0:0:
241,218,52303,1,2,0:0:0:0:
282,139,52497,1,2,0:0:0:0:
206,84,52690,1,2,0:0:0:0:
126,279,53122,6,0,P|81:271|36:266,1,89.9999972534181,6|0,1:2|1:2,0:0:0:0:
15,363,53527,1,10,0:2:0:0:
113,376,53730,2,0,L|220:350,1,89.9999972534181,2|0,0:2|0:2,0:0:0:0:
286,306,54135,2,0,L|373:327,1,89.9999972534181,2|8,1:2|0:2,0:0:0:0:
469,351,54540,1,2,0:2:0:0:
442,255,54743,6,0,B|454:179|454:179|443:149|443:149|459:57,1,179.999994506836,6|8,1:2|0:2,0:0:0:0:
373,32,55351,1,2,0:2:0:0:
373,32,55554,2,0,L|355:123,1,89.9999972534181,2|2,0:2|1:2,0:0:0:0:
337,217,55959,1,10,0:2:0:0:
267,146,56162,1,2,0:2:0:0:
223,235,56365,6,0,P|151:221|33:203,1,179.999994506836,2|10,1:2|0:2,0:0:0:0:
1,115,56973,2,0,P|21:62|47:44,1,89.9999972534181,2|0,0:2|0:2,0:0:0:0:
139,9,57378,2,0,P|173:37|185:80,1,89.9999972534181,2|8,1:2|0:2,0:0:0:0:
167,178,57784,1,2,0:2:0:0:
258,141,57986,6,0,B|360:118|331:217|438:187,1,179.999994506836,2|8,1:2|0:2,0:0:0:0:
468,103,58594,1,2,0:2:0:0:
468,103,58797,1,2,0:2:0:0:
404,26,59000,2,0,L|306:45,1,89.9999972534181,2|8,1:2|0:2,0:0:0:0:
217,57,59405,1,2,0:2:0:0:
258,141,59608,6,0,P|266:194|271:243,1,89.9999972534181,6|0,1:2|0:0,0:0:0:0:
265,329,60013,1,10,0:2:0:0:
192,261,60216,2,0,P|146:262|107:301,1,89.9999972534181,2|0,0:2|0:2,0:0:0:0:
38,223,60621,2,0,P|9:258|14:313,1,89.9999972534181,2|8,1:2|0:2,0:0:0:0:
69,379,61027,6,0,P|113:372|158:367,1,89.9999972534181,2|0,0:2|1:2,0:0:0:0:
253,338,61432,1,2,1:2:0:0:
192,261,61635,1,10,0:2:0:0:
282,219,61838,2,0,P|353:228|468:250,1,179.999994506836,2|0,0:2|1:2,0:0:0:0:
496,156,62446,2,0,P|494:100|463:82,1,89.9999972534181,10|0,0:2|0:0,0:0:0:0:
394,18,62851,6,0,L|286:38,1,89.9999972534181,14|0,2:2|2:2,0:0:0:0:
305,34,63155,1,8,0:2:0:0:
305,34,63257,1,0,1:2:0:0:
237,105,63459,2,0,L|129:85,1,89.9999972534181,14|0,2:2|0:2,0:0:0:0:
148,88,63763,1,8,0:2:0:0:
148,88,63865,1,0,1:2:0:0:
71,25,64067,6,0,B|40:78|40:78|89:195,1,179.999994506836,14|0,0:2|1:2,0:0:0:0:
138,271,64676,1,8,0:2:0:0:
191,187,64878,1,8,0:2:0:0:
258,259,65081,2,0,P|290:208|280:163,1,89.9999972534181,2|2,0:2|1:2,0:0:0:0:
327,94,65486,1,10,0:2:0:0:
327,94,65588,1,8,0:2:0:0:
327,94,65689,2,0,L|394:85,3,44.999998626709,10|8|8|8,0:2|0:2|0:2|0:0,0:0:0:0:
420,90,66094,6,0,P|428:134|436:188,1,89.9999972534181,6|0,1:2|1:2,0:0:0:0:
501,252,66500,2,0,P|493:296|485:350,1,89.9999972534181,10|2,0:2|1:2,0:0:0:0:
486,340,66804,1,8,0:2:0:0:
486,340,66905,1,0,1:2:0:0:
402,302,67108,1,2,1:2:0:0:
333,371,67311,2,0,L|235:357,1,89.9999972534181,8|2,0:2|0:2,0:0:0:0:
145,344,67716,5,2,1:2:0:0:
211,270,67919,1,0,1:2:0:0:
146,195,68121,2,0,L|48:209,1,89.9999972534181,8|2,0:2|1:2,0:0:0:0:
56,207,68426,1,8,0:2:0:0:
56,207,68527,1,2,1:2:0:0:
57,306,68730,1,2,1:2:0:0:
145,344,68932,2,0,L|264:328,1,89.9999972534181,10|2,0:2|0:2,0:0:0:0:
322,377,69338,6,0,P|329:335|340:288,1,89.9999972534181,6|0,1:2|1:2,0:0:0:0:
404,214,69743,2,0,P|393:170|386:125,1,89.9999972534181,10|2,0:2|1:2,0:0:0:0:
386,125,70047,1,8,0:2:0:0:
386,125,70149,1,0,1:2:0:0:
435,40,70351,1,2,1:2:0:0:
341,5,70554,1,8,0:2:0:0:
287,89,70757,1,2,0:2:0:0:
287,89,70959,6,0,L|183:74,1,89.9999972534181,2|0,1:2|1:2,0:0:0:0:
125,7,71365,2,0,L|21:22,1,89.9999972534181,8|2,0:2|1:2,0:0:0:0:
35,19,71669,1,8,2:2:0:0:
35,19,71770,1,2,1:2:0:0:
9,116,71973,2,0,P|16:160|26:204,1,89.9999972534181,2|8,1:2|0:2,0:0:0:0:
106,263,72378,1,2,0:2:0:0:
163,182,72581,6,0,P|206:155|258:160,1,89.9999972534181,6|0,1:2|1:2,0:0:0:0:
326,209,72986,2,0,P|370:207|406:182,1,89.9999972534181,10|2,0:2|1:2,0:0:0:0:
407,182,73290,1,8,2:2:0:0:
407,182,73392,1,0,1:2:0:0:
493,230,73594,1,2,1:2:0:0:
448,318,73797,1,10,0:2:0:0:
350,302,74000,6,0,L|257:323,1,89.9999972534181,2|0,0:2|1:2,0:0:0:0:
172,363,74405,1,0,1:2:0:0:
188,265,74608,2,0,P|180:220|170:176,1,89.9999972534181,10|2,0:2|1:2,0:0:0:0:
170,176,74912,1,8,0:2:0:0:
170,176,75013,1,0,1:2:0:0:
230,98,75216,1,0,1:2:0:0:
278,190,75419,1,10,0:2:0:0:
278,190,75621,1,2,0:2:0:0:
363,138,75824,6,0,L|465:124,1,89.9999972534181,14|0,0:2|0:2,0:0:0:0:
452,125,76128,1,8,0:2:0:0:
452,125,76230,1,2,1:2:0:0:
500,38,76432,2,0,P|464:12|410:21,1,89.9999972534181,14|0,0:2|0:2,0:0:0:0:
420,15,76736,1,8,0:2:0:0:
420,15,76838,1,0,1:2:0:0:
328,52,77040,6,0,B|226:29|255:128|148:98,1,179.999994506836,14|8,0:2|0:2,0:0:0:0:
83,54,77649,1,8,0:2:0:0:
83,54,77851,1,8,0:2:0:0:
24,133,78054,1,10,0:2:0:0:
100,195,78257,1,10,0:2:0:0:
384,28,79067,6,0,P|380:65|372:134,1,75,6|0,1:2|1:2,0:0:0:0:
364,200,79473,1,8,0:2:0:0:
453,161,79676,2,0,P|457:198|465:267,1,75,2|0,0:2|0:2,0:0:0:0:
473,333,80082,1,0,1:2:0:0:
387,286,80284,6,0,B|325:296|325:296|299:286|299:286|227:297,1,150,10|0,0:2|1:2,0:0:0:0:
168,361,80892,1,0,1:2:0:0:
150,268,81094,2,0,P|199:206|291:216,1,150,8|0,0:2|0:2,0:0:0:0:
357,234,81719,1,0,1:2:0:0:
401,151,81912,2,0,L|389:71,1,75,8|0,0:2|0:0,0:0:0:0:
311,19,82312,6,0,P|271:19|239:52,1,75,14|0,0:2|0:2,0:0:0:0:
245,40,82616,1,8,0:2:0:0:
245,40,82717,1,0,1:2:0:0:
189,120,82920,2,0,P|149:120|117:87,1,75,14|0,0:2|0:2,0:0:0:0:
123,98,83224,1,8,0:2:0:0:
123,98,83325,1,0,1:2:0:0:
40,61,83528,6,0,B|30:123|30:123|40:149|40:149|29:220,1,150,14|0,0:2|1:2,0:0:0:0:
15,303,84136,1,8,0:2:0:0:
105,267,84340,2,0,L|190:286,1,75,8|2,0:2|0:2,0:0:0:0:
250,351,84749,1,0,1:2:0:0:
305,273,84954,1,8,1:3:0:0:
305,273,85057,1,8,1:3:0:0:
305,273,85160,1,0,1:2:0:0:
241,200,85365,1,4,1:3:0:0:
241,200,85468,1,4,1:3:0:0:
241,200,85571,1,4,1:2:0:0:
256,192,85776,12,0,88755,0:2:0:0:
