osu file format v14

[General]
AudioFilename: audio.mp3
AudioLeadIn: 0
PreviewTime: 56608
Countdown: 0
SampleSet: Soft
StackLeniency: 0.4
Mode: 0
LetterboxInBreaks: 0
WidescreenStoryboard: 0

[Editor]
DistanceSpacing: 1.2
BeatDivisor: 4
GridSize: 32
TimelineZoom: 1.5

[Metadata]
Title:Untitled world
TitleUnicode:Untitled world
Artist:ReoNa
ArtistUnicode:ReoNa
Creator:Shurelia
Version:Insane
Source:明日方舟
Tags:Arknights アークナイツ Japanese Video Game gacha Amiya Yostar A-1 Hypergryph LCFC lowcombofc Kirylln 10nya Ducky- Hikan ScubDomino natsume shiki jungkyuyoung anime girl Kowari Risen citreum bws celine Kalibe Kayoko Kusano 草野 華余子 (LIVE LAB.) 毛蟹 Akita Horie 堀江晶太
BeatmapID:2413705
BeatmapSetID:1156668

[Difficulty]
HPDrainRate:6
CircleSize:4.2
OverallDifficulty:8.4
ApproachRate:9
SliderMultiplier:1.7
SliderTickRate:1

[Events]
//Background and Video events
0,0,"akreonabg.jpg",0,0
Video,0,"videoplayback.mp4"
//Break Periods
2,36473,45350
//Storyboard Layer 0 (Background)
//Storyboard Layer 1 (Fail)
//Storyboard Layer 2 (Pass)
//Storyboard Layer 3 (Foreground)
//Storyboard Layer 4 (Overlay)
//Storyboard Sound Samples

[TimingPoints]
144,322.58064516129,4,2,1,70,1,0
144,-125,4,2,1,43,0,0
4014,-100,4,2,1,65,0,0
5305,-100,4,2,1,71,0,0
15627,-125,4,2,1,63,0,0
30143,-111.111111111111,4,2,1,63,0,0
30466,-100,4,2,1,63,0,0
30789,-125,4,2,1,63,0,0
46595,-100,4,2,1,67,0,0
54337,-200,4,2,1,32,0,0
56918,-90.9090909090909,4,2,1,76,0,1
78853,-83.3333333333333,4,2,1,76,0,1
79498,-76.9230769230769,4,2,1,76,0,1
80143,-71.4285714285714,4,2,1,76,0,1
81111,-83.3333333333333,4,2,1,76,0,1
81434,-83.3333333333333,4,2,1,76,0,0
82712,322.58064516129,4,2,1,76,1,0
82712,-125,4,2,1,43,0,0
87873,-125,4,2,1,5,0,0

[Colours]
Combo1 : 235,156,10
Combo2 : 184,130,48
Combo3 : 48,72,186
Combo4 : 136,136,136

[HitObjects]
61,260,144,6,0,P|59:226|57:193,1,68,2|0,0:0|0:0,0:0:0:0:
156,129,466,2,0,P|154:163|152:197,1,68,2|0,0:0|0:0,0:0:0:0:
152,307,789,1,2,0:0:0:0:
161,334,950,1,0,0:0:0:0:
244,249,1111,1,2,0:0:0:0:
235,222,1272,1,0,0:0:0:0:
344,341,1434,6,0,P|377:338|411:334,1,68,2|0,0:0|0:0,0:0:0:0:
499,253,1756,2,0,P|465:250|431:246,1,68,2|0,0:0|0:0,0:0:0:0:
334,192,2079,1,2,0:0:0:0:
296,179,2240,1,0,0:0:0:0:
421,149,2402,1,2,0:0:0:0:
459,136,2563,1,0,0:0:0:0:
353,31,2724,6,0,P|349:64|348:98,1,68,2|0,0:0|0:0,0:0:0:0:
260,231,3047,2,0,P|259:197|255:163,1,68,2|0,0:0|0:0,0:0:0:0:
207,61,3369,1,2,0:0:0:0:
195,28,3530,1,0,0:0:0:0:
109,104,3692,1,2,0:0:0:0:
97,137,3853,1,0,0:0:0:0:
253,266,4014,6,0,P|296:263|338:256,1,85,2|0,0:0|0:0,0:0:0:0:
94,357,4337,2,0,P|51:353|9:346,1,85,2|0,0:0|0:0,0:0:0:0:
191,178,4659,1,2,0:0:0:0:
109,202,4820,1,0,0:0:0:0:
242,101,4982,1,2,0:0:0:0:
324,125,5143,1,0,0:0:0:0:
459,53,5305,5,0,3:0:0:0:
419,142,5466,2,0,B|417:222|422:311,1,170,0|0,3:0|0:0,0:0:0:0:
257,284,5950,2,0,P|298:276|341:272,1,85,8|0,0:0|0:0,0:0:0:0:
200,373,6272,1,0,3:0:0:0:
115,370,6434,6,0,P|117:328|121:286,1,85,0|0,3:0|0:0,0:0:0:0:
21,268,6756,2,0,P|29:183|37:98,1,170,8|0,0:0|3:0,0:0:0:0:
130,0,7240,2,0,P|134:42|139:84,1,85,8|0,0:0|0:0,0:0:0:0:
229,194,7563,2,0,P|233:151|238:109,1,85,2|0,0:0|0:0,0:0:0:0:
426,191,7885,5,0,3:0:0:0:
502,294,8047,2,0,P|417:293|332:286,1,170,0|0,3:0|0:0,0:0:0:0:
426,191,8531,2,0,P|341:183|256:183,1,170,8|0,0:0|3:0,0:0:0:0:
166,105,9014,1,0,3:0:0:0:
166,105,9176,5,0,3:0:0:0:
69,159,9337,2,0,P|72:243|73:328,1,170,8|0,0:0|3:0,0:0:0:0:
170,230,9821,2,0,P|171:273|174:315,1,85,8|0,0:0|0:0,0:0:0:0:
271,187,10143,2,0,P|268:229|265:271,1,85,2|0,0:0|0:0,0:0:0:0:
336,384,10466,5,0,3:0:0:0:
425,352,10627,2,0,P|429:267|437:182,1,170,0|0,3:0|0:0,0:0:0:0:
358,33,11111,2,0,P|355:76|351:118,1,85,8|0,0:0|0:0,0:0:0:0:
262,262,11434,1,0,3:0:0:0:
181,215,11595,2,0,P|97:206|13:192,1,170,0|8,3:0|0:0,0:0:0:0:
482,75,12240,5,0,3:0:0:0:
386,41,12402,2,0,P|343:44|301:48,1,85,8|0,0:0|0:0,0:0:0:0:
333,156,12724,2,0,P|290:152|248:148,1,85,2|0,0:0|0:0,0:0:0:0:
81,80,13047,5,0,3:0:0:0:
150,152,13208,2,0,P|144:236|138:321,1,170,0|0,3:0|0:0,0:0:0:0:
51,383,13692,1,8,0:0:0:0:
468,366,14014,1,0,3:0:0:0:
373,321,14176,2,0,P|367:236|362:152,1,170,0|8,3:0|0:0,0:0:0:0:
413,26,14660,5,0,0:0:0:0:
306,89,14821,1,8,0:0:0:0:
294,83,14902,1,8,0:0:0:0:
282,76,14982,1,8,0:0:0:0:
183,23,15143,1,8,0:3:0:0:
108,63,15305,1,4,3:0:0:0:
87,109,15466,1,0,3:0:0:0:
87,109,15627,5,0,3:0:0:0:
88,208,15789,2,0,P|88:241|89:275,1,68,0|0,3:0|0:0,0:0:0:0:
195,314,16111,1,0,0:0:0:0:
207,207,16273,2,0,P|205:139|207:71,1,136,8|0,0:0|3:0,0:0:0:0:
206,71,16756,1,0,3:0:0:0:
345,28,16918,6,0,P|379:23|413:21,1,68,0|8,3:0|0:0,0:0:0:0:
289,140,17240,2,0,P|322:142|356:146,1,68,0|0,3:0|3:0,0:0:0:0:
441,216,17563,2,0,P|429:283|421:350,1,136,8|0,0:0|0:0,0:0:0:0:
421,350,18047,1,0,0:0:0:0:
311,243,18208,5,0,0:0:0:0:
311,243,18369,2,0,P|277:240|243:239,1,68,0|0,3:0|0:0,0:0:0:0:
87,214,18692,1,0,0:0:0:0:
87,214,18853,2,0,P|73:147|63:80,1,136,8|0,0:0|3:0,0:0:0:0:
140,13,19337,1,0,3:0:0:0:
229,61,19498,6,0,P|223:95|219:129,1,68,0|8,0:0|0:0,0:0:0:0:
340,67,19821,2,0,P|334:33|332:0,1,68,0|0,3:0|0:0,0:0:0:0:
449,36,20143,2,0,P|456:69|467:102,1,68,8|0,0:0|0:0,0:0:0:0:
445,236,20466,1,2,0:0:0:0:
81,365,20789,5,0,3:0:0:0:
148,306,20950,2,0,P|146:273|145:239,1,68,0|0,3:0|0:0,0:0:0:0:
92,164,21273,1,0,0:0:0:0:
212,83,21434,2,0,P|245:88|278:94,1,68,8|0,0:0|0:0,0:0:0:0:
421,141,21756,1,0,3:0:0:0:
421,141,21918,1,0,3:0:0:0:
38,35,22240,6,0,P|44:102|45:170,1,136,8|0,0:0|3:0,0:0:0:0:
145,239,22724,2,0,P|138:306|137:374,1,136,8|0,0:0|0:0,0:0:0:0:
457,110,23369,5,0,3:0:0:0:
377,49,23531,2,0,P|310:56|242:61,1,136,0|0,3:0|0:0,0:0:0:0:
177,182,24014,2,0,P|143:181|109:177,1,68,8|0,0:0|0:0,0:0:0:0:
20,79,24337,1,0,3:0:0:0:
20,79,24498,1,0,3:0:0:0:
322,321,24821,6,0,P|389:314|456:304,1,136,8|0,0:0|3:0,0:0:0:0:
251,243,25305,2,0,P|183:236|116:226,1,136,8|2,0:0|0:0,0:0:0:0:
472,16,25950,5,0,3:0:0:0:
397,94,26111,2,0,P|417:158|430:225,1,136,0|0,3:0|0:0,0:0:0:0:
283,322,26595,2,0,P|296:255|316:190,1,136,8|0,0:0|3:0,0:0:0:0:
397,94,27079,1,0,3:0:0:0:
299,35,27240,6,0,P|265:30|231:23,1,68,0|8,0:0|0:0,0:0:0:0:
159,128,27563,2,0,P|125:134|91:139,1,68,0|0,0:0|3:0,0:0:0:0:
35,298,27885,1,8,0:0:0:0:
104,352,28047,2,0,P|122:288|91:229,1,136
294,351,28531,5,0,3:0:0:0:
204,373,28692,2,0,P|206:306|212:238,1,136,0|0,3:0|0:0,0:0:0:0:
374,189,29176,2,0,P|380:256|382:324,1,136,8|0,0:0|3:0,0:0:0:0:
296,258,29660,1,0,3:0:0:0:
365,160,29821,6,0,P|359:127|352:94,1,68,0|8,0:0|0:0,0:0:0:0:
239,71,30143,2,0,P|244:34|250:-3,1,76.4999976654053,0|0,0:0|3:0,0:0:0:0:
141,181,30466,2,0,P|134:138|126:97,1,85,8|0,0:0|0:0,0:0:0:0:
47,282,30789,1,2,0:0:0:0:
47,282,30950,1,0,0:0:0:0:
178,379,31111,5,0,3:0:0:0:
258,330,31273,2,0,P|291:336|325:340,2,68,0|0|0,3:0|0:0|0:0,0:0:0:0:
387,212,31756,2,0,P|387:249|389:279,1,68,8|0,0:0|0:0,0:0:0:0:
469,384,32079,1,0,3:0:0:0:
469,384,32240,1,0,3:0:0:0:
435,35,32563,6,0,P|367:39|299:38,1,136,8|0,0:0|3:0,0:0:0:0:
369,136,33047,2,0,P|359:168|351:201,1,68,8|0,0:0|0:0,0:0:0:0:
390,309,33369,1,0,0:0:0:0:
153,20,33692,5,0,3:0:0:0:
56,66,33853,2,0,P|50:133|49:201,1,136,0|0,3:0|0:0,0:0:0:0:
90,309,34337,2,0,P|123:306|157:302,1,68,8|0,0:0|0:0,0:0:0:0:
265,164,34660,2,0,P|231:161|197:157,1,68,0|0,3:0|3:0,0:0:0:0:
299,274,34982,5,0,0:0:0:0:
391,217,35143,1,8,0:0:0:0:
299,294,35305,1,0,3:0:0:0:
406,355,35466,1,8,0:0:0:0:
406,355,35547,1,8,0:0:0:0:
406,355,35627,1,8,0:0:0:0:
496,266,35789,5,8,0:0:0:0:
491,191,35950,1,8,0:0:0:0:
488,116,36111,1,8,0:0:0:0:
483,40,36273,5,2,0:0:0:0:
226,146,45950,6,0,P|280:85|291:166,1,204,4|0,3:0|0:0,0:0:0:0:
238,219,46595,6,0,P|226:259|216:301,1,85,4|0,0:0|0:0,0:0:0:0:
90,366,46918,1,8,0:0:0:0:
87,345,46998,1,8,0:0:0:0:
84,323,47079,1,8,0:0:0:0:
79,302,47160,1,8,0:0:0:0:
76,280,47240,2,0,P|72:237|67:195,1,85,8|0,0:0|0:0,0:0:0:0:
185,99,47563,1,8,0:0:0:0:
174,80,47643,1,8,0:0:0:0:
160,63,47724,1,8,0:0:0:0:
140,54,47805,1,8,0:0:0:0:
120,56,47885,6,0,P|162:52|204:47,1,85,8|8,0:0|0:0,0:0:0:0:
273,157,48208,2,0,P|315:162|357:165,1,85,8|8,0:0|0:0,0:0:0:0:
330,19,48531,2,0,P|372:15|414:10,1,85,8|0,0:0|0:0,0:0:0:0:
477,125,48853,1,8,0:0:0:0:
479,146,48934,1,8,0:0:0:0:
481,166,49014,1,8,0:0:0:0:
483,187,49095,1,8,0:0:0:0:
485,208,49176,6,0,P|480:292|471:377,1,170,4|8,0:0|0:0,0:0:0:0:
379,273,49660,1,8,0:0:0:0:
298,307,49821,2,0,P|255:302|213:294,1,85,8|0,0:0|0:0,0:0:0:0:
128,166,50143,1,8,0:0:0:0:
148,170,50224,1,8,0:0:0:0:
168,174,50305,1,8,0:0:0:0:
188,177,50385,1,8,0:0:0:0:
209,178,50466,6,0,P|205:136|202:94,1,85,8|8,0:0|0:0,0:0:0:0:
345,293,50789,2,0,P|335:251|328:209,1,85,8|8,0:0|0:0,0:0:0:0:
471,104,51111,2,0,P|463:145|454:187,1,85,8|0,0:0|0:0,0:0:0:0:
338,44,51434,1,8,0:0:0:0:
358,39,51514,1,8,0:0:0:0:
378,34,51595,1,8,0:0:0:0:
398,28,51676,1,8,0:0:0:0:
418,25,51756,5,4,3:0:0:0:
135,67,52079,1,4,3:0:0:0:
444,114,52402,1,4,3:0:0:0:
97,150,52724,1,4,3:0:0:0:
474,202,53047,1,4,3:0:0:0:
62,238,53369,1,4,3:0:0:0:
512,289,53692,1,4,3:0:0:0:
26,326,54014,2,0,P|69:332|111:333,1,85,4|2,3:0|0:0,0:0:0:0:
295,297,54337,6,0,P|337:293|379:289,1,85
327,204,54821,2,0,P|284:199|242:195,1,85,2|0,0:0|0:0,0:0:0:0:
300,49,55305,1,2,0:0:0:0:
369,117,55466,2,0,P|411:115|453:111,1,85,2|0,0:0|0:0,0:0:0:0:
410,12,55950,5,0,0:0:0:0:
393,12,56273,1,2,0:0:0:0:
376,12,56595,1,0,0:0:0:0:
213,124,56918,5,0,3:0:0:0:
213,124,57079,1,0,3:0:0:0:
127,65,57240,2,0,P|80:59|33:55,1,93.5000028533936,2|2,0:0|0:0,0:0:0:0:
201,231,57563,2,0,P|208:277|214:323,1,93.5000028533936,8|0,0:0|0:0,0:0:0:0:
111,292,57885,1,0,3:0:0:0:
324,364,58047,6,0,P|321:317|316:270,1,93.5000028533936,0|0,3:0|0:0,0:0:0:0:
417,143,58369,2,0,P|411:189|408:236,1,93.5000028533936,8|0,0:0|3:0,0:0:0:0:
291,132,58692,1,0,3:0:0:0:
363,52,58853,2,0,P|447:27|502:96,1,187.000005706787,8|0,0:0|0:0,0:0:0:0:
487,270,59337,1,0,0:0:0:0:
386,276,59498,6,0,P|339:277|292:281,1,93.5000028533936,0|0,3:0|3:0,0:0:0:0:
147,321,59821,1,2,0:0:0:0:
148,350,59982,1,2,0:0:0:0:
31,251,60143,2,0,P|41:205|50:159,1,93.5000028533936,8|0,0:0|0:0,0:0:0:0:
92,45,60466,2,0,P|114:39|137:43,1,46.7500014266968,0|0,3:0|0:0,0:0:0:0:
207,103,60627,2,0,P|273:119|334:87,1,140.25000428009,0|0,3:0|0:0,0:0:0:0:
344,71,60950,1,8,0:0:0:0:
380,196,61111,1,0,3:0:0:0:
488,227,61273,5,0,3:0:0:0:
400,344,61434,2,0,P|354:351|308:353,1,93.5000028533936,8|0,0:0|0:0,0:0:0:0:
167,331,61756,1,0,0:0:0:0:
281,227,61918,1,0,0:0:0:0:
281,227,61998,1,2,0:0:0:0:
281,227,62079,6,0,P|273:180|264:134,1,93.5000028533936,0|0,3:0|3:0,0:0:0:0:
108,152,62402,2,0,P|138:187|168:223,1,93.5000028533936,2|2,0:0|0:0,0:0:0:0:
37,21,62724,2,0,P|129:32|223:37,1,187.000005706787,8|0,0:0|3:0,0:0:0:0:
321,33,63208,1,0,3:0:0:0:
512,33,63369,5,0,0:0:0:0:
436,104,63531,2,0,P|430:150|425:196,1,93.5000028533936,8|0,0:0|0:0,0:0:0:0:
475,370,63853,1,0,3:0:0:0:
389,342,64014,2,0,P|342:336|296:331,1,93.5000028533936,8|0,0:0|0:0,0:0:0:0:
117,356,64337,1,0,0:0:0:0:
268,9,64660,5,0,3:0:0:0:
196,66,64821,2,0,P|150:68|103:73,1,93.5000028533936,0|0,3:0|0:0,0:0:0:0:
21,193,65143,1,0,0:0:0:0:
105,159,65305,2,0,P|128:200|157:237,1,93.5000028533936,8|0,0:0|0:0,0:0:0:0:
284,383,65627,1,0,3:0:0:0:
372,347,65789,2,0,P|379:300|383:254,1,93.5000028533936,0|0,3:0|0:0,0:0:0:0:
416,47,66111,5,8,0:0:0:0:
260,215,66273,1,0,3:0:0:0:
475,153,66434,1,8,0:0:0:0:
475,153,66514,1,8,0:0:0:0:
475,153,66595,1,8,0:0:0:0:
311,20,66756,1,8,0:0:0:0:
209,174,66918,2,0,P|224:240|225:313,1,140.25000428009,4|0,3:0|0:0,0:0:0:0:
216,335,67240,5,4,3:2:0:0:
134,259,67402,2,0,P|88:271|43:285,1,93.5000028533936,0|2,3:0|0:0,0:0:0:0:
23,134,67724,1,2,0:0:0:0:
140,103,67885,2,0,P|185:91|230:77,1,93.5000028533936,8|0,0:0|0:0,0:0:0:0:
325,47,68208,1,0,3:0:0:0:
429,173,68369,6,0,P|419:218|411:264,1,93.5000028533936,0|0,3:0|0:0,0:0:0:0:
268,154,68692,2,0,P|200:146|152:194,1,140.25000428009,8|0,0:0|0:0,0:0:0:0:
151,217,69014,1,0,3:0:0:0:
48,336,69176,2,0,P|141:344|234:348,1,187.000005706787,8|0,0:0|0:0,0:0:0:0:
457,359,69660,1,0,0:0:0:0:
379,305,69821,6,0,P|387:258|389:212,1,93.5000028533936,0|0,3:0|3:0,0:0:0:0:
493,158,70143,2,0,P|485:111|483:65,1,93.5000028533936,2|2,0:0|0:0,0:0:0:0:
285,256,70466,2,0,P|238:253|192:246,1,93.5000028533936,8|0,0:0|0:0,0:0:0:0:
55,78,70789,2,0,P|52:54|51:31,1,46.7500014266968,0|2,0:0|0:0,0:0:0:0:
67,108,70950,6,0,P|135:94|205:95,1,140.25000428009,0|0,3:0|0:0,0:0:0:0:
238,100,71272,1,8,0:0:0:0:
335,156,71434,1,0,0:0:0:0:
382,311,71595,1,0,0:0:0:0:
455,252,71756,2,0,P|459:205|466:159,1,93.5000028533936,8|0,0:0|0:0,0:0:0:0:
25,35,72240,5,0,0:0:0:0:
100,93,72402,2,0,P|92:139|86:185,1,93.5000028533936,0|0,3:0|3:0,0:0:0:0:
220,151,72724,2,0,P|227:197|233:243,1,93.5000028533936,2|2,0:0|0:0,0:0:0:0:
0,322,73047,2,0,P|56:283|123:296,1,140.25000428009,8|0,0:0|0:0,0:0:0:0:
135,314,73369,1,0,3:0:0:0:
323,300,73531,6,0,P|369:287|414:274,1,93.5000028533936,0|0,3:0|0:0,0:0:0:0:
488,108,73853,1,8,0:0:0:0:
424,178,74014,1,8,0:3:0:0:
308,45,74176,1,8,0:3:0:0:
308,45,74256,1,8,0:3:0:0:
308,45,74337,1,8,0:3:0:0:
278,133,74498,1,8,0:3:0:0:
251,223,74660,2,0,P|193:259|126:245,1,140.25000428009,4|0,0:3|0:0,0:0:0:0:
104,223,74982,6,0,P|108:270|109:317,1,93.5000028533936,8|0,0:0|0:0,0:0:0:0:
186,359,75305,1,0,3:0:0:0:
260,250,75466,2,0,P|306:254|353:255,1,93.5000028533936,8|0,0:0|0:0,0:0:0:0:
411,327,75789,1,0,3:0:0:0:
483,178,75950,6,0,P|459:89|384:37,1,187.000005706787,8|0,0:0|3:0,0:0:0:0:
295,84,76434,1,2,3:0:0:0:
302,245,76595,2,0,P|306:291|307:338,1,93.5000028533936,8|0,0:0|0:0,0:0:0:0:
143,344,76918,5,8,0:3:0:0:
108,308,77025,1,8,0:3:0:0:
81,265,77133,1,8,0:3:0:0:
71,216,77240,1,4,0:3:0:0:
82,167,77348,1,4,0:3:0:0:
103,122,77455,1,4,0:3:0:0:
138,87,77563,6,0,P|185:81|231:71,1,93.5000028533936,4|0,0:0|0:0,0:0:0:0:
464,33,77885,5,0,3:0:0:0:
369,69,78047,1,0,3:0:0:0:
464,33,78208,2,0,P|454:78|450:125,1,93.5000028533936,8|0,0:0|0:0,0:0:0:0:
368,304,78531,5,0,3:0:0:0:
326,205,78692,1,0,3:0:0:0:
368,304,78853,2,0,P|317:298|266:292,1,101.999996887207,8|0,0:0|0:0,0:0:0:0:
79,186,79176,5,0,3:0:0:0:
168,133,79337,1,0,3:0:0:0:
79,186,79498,2,0,P|81:130|85:75,1,110.499994941712,8|0,0:0|3:0,0:0:0:0:
20,371,79821,5,0,3:0:0:0:
114,312,79982,1,0,3:0:0:0:
114,312,80063,1,8,0:0:0:0:
114,312,80143,6,0,P|260:285|405:251,1,297.499990921021,12|0,0:0|0:0,0:0:0:0:
405,105,80627,6,0,P|258:78|112:51,1,297.499990921021,12|0,0:0|0:0,0:0:0:0:
153,217,81111,6,0,P|253:200|353:178,1,203.999993774414,12|0,0:0|0:0,0:0:0:0:
316,65,82712,6,0,P|349:63|383:61,1,68,2|0,0:0|0:0,0:0:0:0:
488,154,83033,2,0,P|454:156|420:158,1,68,2|0,0:0|0:0,0:0:0:0:
317,220,83356,1,2,0:0:0:0:
344,229,83517,1,0,0:0:0:0:
450,291,83678,1,2,0:0:0:0:
441,264,83841,1,0,0:0:0:0:
329,340,84001,6,0,P|295:343|261:347,1,68,2|0,0:0|0:0,0:0:0:0:
152,313,84324,2,0,P|118:310|84:306,1,68,2|0,0:0|0:0,0:0:0:0:
24,211,84646,1,2,0:0:0:0:
37,173,84807,1,0,0:0:0:0:
170,211,84969,1,2,0:0:0:0:
157,173,85130,1,0,0:0:0:0:
130,47,85291,6,0,P|163:47|197:51,1,68,2|0,0:0|0:0,0:0:0:0:
299,131,85614,2,0,P|333:130|367:126,1,68,2|0,0:0|0:0,0:0:0:0:
475,33,85936,1,2,0:0:0:0:
463,0,86099,1,0,0:0:0:0:
381,151,86259,1,2,0:0:0:0:
393,184,86420,1,0,0:0:0:0:
256,192,86582,12,2,87873,0:0:0:0:
