osu file format v14

[General]
AudioFilename: audio.mp3
AudioLeadIn: 0
PreviewTime: 56608
Countdown: 0
SampleSet: Soft
StackLeniency: 0.4
Mode: 0
LetterboxInBreaks: 0
WidescreenStoryboard: 1

[Editor]
DistanceSpacing: 1.1
BeatDivisor: 2
GridSize: 32
TimelineZoom: 1.5

[Metadata]
Title:Untitled world
TitleUnicode:Untitled world
Artist:ReoNa
ArtistUnicode:ReoNa
Creator:Shurelia
Version:Hikan's Normal
Source:明日方舟
Tags:Arknights アークナイツ Japanese Video Game gacha Amiya Yostar A-1 Hypergryph LCFC lowcombofc Kirylln 10nya Ducky- Hikan ScubDomino natsume shiki jungkyuyoung anime girl Kowari Risen citreum bws celine Kalibe Kayoko Kusano 草野 華余子 (LIVE LAB.) 毛蟹 Akita Horie 堀江晶太
BeatmapID:2415016
BeatmapSetID:1156668

[Difficulty]
HPDrainRate:4
CircleSize:3.2
OverallDifficulty:5
ApproachRate:6
SliderMultiplier:1.1
SliderTickRate:1

[Events]
//Background and Video events
0,0,"cutcho.jpg",0,0
Video,0,"videoplayback.mp4"
//Break Periods
2,36473,44900
//Storyboard Layer 0 (Background)
//Storyboard Layer 1 (Fail)
//Storyboard Layer 2 (Pass)
//Storyboard Layer 3 (Foreground)
//Storyboard Layer 4 (Overlay)
//Storyboard Sound Samples

[TimingPoints]
144,322.58064516129,4,2,1,43,1,0
144,-133.333333333333,4,2,1,43,0,0
4014,-117.647058823529,4,2,1,65,0,0
5305,-100,4,2,1,71,0,0
15627,-133.333333333333,4,2,1,63,0,0
45950,-133.333333333333,4,2,1,63,0,0
46595,-133.333333333333,4,2,1,67,0,0
56918,-100,4,2,1,76,0,1
80143,-100,4,2,1,76,0,1
81434,-100,4,2,1,76,0,0
82712,322.58064516129,4,2,1,76,1,0
82712,-133.333333333333,4,2,1,43,0,0

[Colours]
Combo1 : 245,172,37
Combo2 : 136,223,244
Combo3 : 38,129,196
Combo4 : 170,170,170

[HitObjects]
293,276,144,6,0,P|317:320|348:349,2,82.5000031471254,2|2|2,0:0|0:0|0:0,0:0:0:0:
271,188,1111,1,2,0:0:0:0:
336,125,1434,2,0,P|362:82|371:41,2,82.5000031471254,2|2|2,0:0|0:0|0:0,0:0:0:0:
271,188,2401,1,2,0:0:0:0:
183,164,2724,2,0,P|132:162|92:175,2,82.5000031471254,2|2|2,0:0|0:0|0:0,0:0:0:0:
271,188,3692,1,2,0:0:0:0:
293,276,4014,6,0,P|284:329|308:368,2,93.500001783371,2|2|2,0:0|0:0|0:0,0:0:0:0:
376,215,4982,1,2,0:0:0:0:
457,281,5305,5,0,3:0:0:0:
494,234,5466,2,0,P|507:176|513:111,1,110,0|0,3:0|0:0,0:0:0:0:
484,71,5950,1,8,0:0:0:0:
374,32,6273,5,0,3:0:0:0:
374,32,6434,2,0,P|299:44|257:59,1,110,0|8,3:0|0:0,0:0:0:0:
222,96,6918,2,0,P|228:138|234:170,1,55,0|0,3:0|3:0,0:0:0:0:
183,188,7240,2,0,P|170:283|168:317,1,110,8|2,0:0|0:0,0:0:0:0:
273,368,7885,5,0,3:0:0:0:
273,368,8047,2,0,P|331:350|403:349,1,110,0|0,3:0|0:0,0:0:0:0:
417,299,8531,1,8,0:0:0:0:
360,130,8853,5,0,3:0:0:0:
360,130,9014,2,0,P|301:114|230:114,1,110,0|8,3:0|0:0,0:0:0:0:
200,80,9498,2,0,P|166:63|154:48,1,55,0|0,3:0|3:0,0:0:0:0:
95,61,9821,2,0,P|109:148|112:191,1,110,8|2,0:0|0:0,0:0:0:0:
181,275,10466,5,0,3:0:0:0:
181,275,10627,2,0,P|215:239|291:241,1,110,0|0,3:0|0:0,0:0:0:0:
330,252,11111,1,8,0:0:0:0:
412,163,11434,5,0,3:0:0:0:
412,163,11595,2,0,P|465:166|503:204,1,110,0|8,3:0|0:0,0:0:0:0:
471,256,12079,2,0,P|462:297|460:316,1,55,0|0,3:0|3:0,0:0:0:0:
429,362,12402,2,0,P|377:340|311:339,1,110,8|2,0:0|0:0,0:0:0:0:
238,259,13047,5,0,3:0:0:0:
238,259,13208,2,0,P|323:242|343:218,1,110,0|0,3:0|0:0,0:0:0:0:
353,169,13692,1,8,0:0:0:0:
433,79,14014,5,0,3:0:0:0:
433,79,14176,2,0,P|450:164|474:184,1,110,0|8,3:0|0:0,0:0:0:0:
484,234,14660,2,0,P|478:272|478:293,1,55,0|8,0:0|0:0,0:0:0:0:
458,345,14982,2,0,P|497:349|514:354,2,55,8|8|4,0:0|0:3|3:0,0:0:0:0:
369,324,15627,5,0,3:0:0:0:
369,324,15789,2,0,P|331:306|288:308,1,82.5000031471254,0|0,3:0|0:0,0:0:0:0:
258,339,16273,2,0,P|208:308|200:248,1,123.750004720688,8|0,0:0|3:0,0:0:0:0:
245,168,17079,2,0,P|257:118|257:72,1,82.5000031471254,8|0,0:0|3:0,0:0:0:0:
231,49,17563,1,8,0:0:0:0:
410,98,18208,5,0,3:0:0:0:
410,98,18369,2,0,P|437:85|491:79,1,82.5000031471254,0|0,3:0|0:0,0:0:0:0:
507,120,18853,2,0,P|491:183|494:203,1,82.5000031471254,8|0,0:0|3:0,0:0:0:0:
505,243,19337,1,0,3:0:0:0:
470,326,19660,2,0,P|429:330|388:339,1,82.5000031471254,8|0,0:0|3:0,0:0:0:0:
345,354,20143,2,0,P|340:313|331:272,1,82.5000031471254,8|2,0:0|0:0,0:0:0:0:
351,186,20789,5,0,3:0:0:0:
351,186,20950,2,0,P|265:160|225:156,1,123.750004720688,0|8,3:0|0:0,0:0:0:0:
147,183,21756,1,0,3:0:0:0:
147,183,21918,2,0,P|168:255|172:280,1,82.5000031471254,0|8,3:0|0:0,0:0:0:0:
257,365,22724,2,0,P|287:334|335:333,1,82.5000031471254,8|0,0:0|0:0,0:0:0:0:
418,322,23369,5,0,3:0:0:0:
418,322,23531,2,0,P|431:198|434:182,1,123.750004720688,0|8,3:0|0:0,0:0:0:0:
360,151,24337,1,0,3:0:0:0:
360,151,24499,2,0,P|356:116|341:51,1,82.5000031471254,0|8,3:0|0:0,0:0:0:0:
315,36,24982,1,0,0:0:0:0:
236,82,25305,2,0,P|181:78|148:56,1,82.5000031471254,8|2,0:0|0:0,0:0:0:0:
93,128,25950,5,0,3:0:0:0:
93,128,26111,2,0,P|109:193|106:214,1,82.5000031471254,0|0,3:0|0:0,0:0:0:0:
91,250,26595,2,0,P|139:246|206:301,1,123.750004720688,8|0,0:0|3:0,0:0:0:0:
278,332,27402,2,0,P|314:313|362:316,1,82.5000031471254,8|0,0:0|3:0,0:0:0:0:
390,342,27885,1,8,0:0:0:0:
292,195,28531,5,0,3:0:0:0:
292,195,28692,2,0,P|288:151|283:109,1,82.5000031471254,0|0,3:0|0:0,0:0:0:0:
316,81,29176,2,0,P|367:90|394:116,1,82.5000031471254,8|0,0:0|3:0,0:0:0:0:
401,153,29660,1,0,3:0:0:0:
486,196,29982,2,0,P|473:235|469:276,1,82.5000031471254,8|0,0:0|3:0,0:0:0:0:
485,318,30466,2,0,P|419:329|397:338,1,82.5000031471254,8|2,0:0|0:0,0:0:0:0:
325,375,31111,5,0,3:0:0:0:
325,375,31273,2,0,P|282:307|286:255,1,123.750004720688,0|8,3:0|0:0,0:0:0:0:
197,255,32079,1,0,3:0:0:0:
197,255,32240,2,0,P|177:299|145:321,1,82.5000031471254,0|8,3:0|0:0,0:0:0:0:
27,259,33047,2,0,P|13:197|5:173,1,82.5000031471254,8|0,0:0|0:0,0:0:0:0:
20,93,33692,5,0,3:0:0:0:
20,93,33853,2,0,P|82:81|146:110,1,123.750004720688,0|8,3:0|0:0,0:0:0:0:
196,179,34660,1,0,3:0:0:0:
196,179,34821,2,0,P|253:176|285:150,1,82.5000031471254,0|8,3:0|0:0,0:0:0:0:
302,128,35304,1,0,3:0:0:0:
376,76,35627,6,0,L|427:84,1,41.2500015735627,8|8,0:0|0:0,0:0:0:0:
446,117,35950,2,0,L|438:168,1,41.2500015735627,8|8,0:0|0:0,0:0:0:0:
403,185,36273,1,2,3:2:0:0:
67,38,45950,6,0,P|81:105|84:123,1,82.5000031471254,4|0,3:0|0:0,0:0:0:0:
172,137,46595,6,0,P|184:68|192:39,1,82.5000031471254,4|8,0:0|0:0,0:0:0:0:
261,3,47240,2,0,P|330:15|359:23,1,82.5000031471254,8|8,0:0|0:0,0:0:0:0:
398,89,47885,2,0,P|386:158|378:187,1,82.5000031471254,8|8,0:0|0:0,0:0:0:0:
310,224,48530,2,0,P|241:212|212:204,1,82.5000031471254,8|8,0:0|0:0,0:0:0:0:
157,264,49176,5,4,0:0:0:0:
225,76,49821,2,0,P|217:37|215:24,1,41.2500015735627,8|0,0:0|0:0,0:0:0:0:
177,13,50143,2,0,P|138:21|125:23,1,41.2500015735627,8|8,0:0|0:0,0:0:0:0:
103,53,50466,2,0,P|122:130|123:146,1,82.5000031471254,8|8,0:0|0:0,0:0:0:0:
195,187,51111,2,0,P|176:264|175:280,1,82.5000031471254,8|8,0:0|0:0,0:0:0:0:
121,336,51756,6,0,P|49:322|36:307,1,82.5000031471254,4|4,3:0|3:0,0:0:0:0:
14,230,52402,2,0,P|86:216|99:201,1,82.5000031471254,4|4,3:0|3:0,0:0:0:0:
140,137,53046,5,4,3:0:0:0:
142,44,53369,1,4,3:0:0:0:
54,20,53691,1,4,3:0:0:0:
0,93,54014,1,4,3:0:0:0:
361,303,56918,5,0,3:0:0:0:
316,262,57079,2,0,P|251:265|208:298,1,110,0|2,3:0|0:0,0:0:0:0:
183,341,57563,1,8,0:0:0:0:
107,254,57885,5,0,3:0:0:0:
107,254,58047,2,0,P|134:200|123:131,1,110,0|8,3:0|0:0,0:0:0:0:
87,109,58531,2,0,P|71:80|71:44,1,55,0|0,3:0|3:0,0:0:0:0:
109,14,58853,2,0,P|183:27|243:38,1,110,8|0,0:0|0:0,0:0:0:0:
341,24,59498,5,0,3:0:0:0:
341,24,59660,2,0,P|354:98|365:158,1,110,0|2,3:0|0:0,0:0:0:0:
370,191,60143,1,8,0:0:0:0:
277,268,60466,5,0,3:0:0:0:
277,268,60627,2,0,P|203:281|143:292,1,110,0|8,3:0|0:0,0:0:0:0:
113,313,61111,2,0,P|95:260|97:250,1,55,0|0,3:0|3:0,0:0:0:0:
117,206,61434,2,0,P|136:123|129:76,1,110,8|0,0:0|0:0,0:0:0:0:
220,14,62079,5,0,3:0:0:0:
220,14,62240,2,0,P|261:59|275:119,1,110,0|2,3:0|0:0,0:0:0:0:
267,165,62724,1,8,0:0:0:0:
365,94,63047,2,0,P|402:89|428:89,1,55,0|0,3:0|3:0,0:0:0:0:
483,88,63369,5,0,0:0:0:0:
483,88,63531,2,0,P|467:153|465:197,1,110,8|0,0:0|3:0,0:0:0:0:
435,248,64014,2,0,P|488:256|492:313,1,110,8|0,0:0|0:0,0:0:0:0:
381,331,64660,5,0,3:0:0:0:
381,331,64821,2,0,P|286:344|208:365,1,165,0|8,3:0|0:0,0:0:0:0:
119,303,65627,5,0,3:0:0:0:
119,303,65789,2,0,P|117:258|98:183,1,110,0|8,3:0|0:0,0:0:0:0:
138,145,66273,2,0,P|186:138|208:136,1,55,0|8,3:0|0:0,0:0:0:0:
252,134,66595,1,8,0:0:0:0:
252,134,66756,2,0,P|259:182|261:204,1,55,8|4,0:0|3:0,0:0:0:0:
363,250,67240,5,4,3:2:0:0:
364,188,67402,2,0,P|377:100|386:68,1,110,0|2,3:0|0:0,0:0:0:0:
344,33,67885,1,8,0:0:0:0:
228,57,68208,5,0,3:0:0:0:
228,57,68369,2,0,P|141:40|108:37,1,110,0|8,3:0|0:0,0:0:0:0:
62,57,68853,2,0,P|49:86|54:115,1,55,0|0,3:0|3:0,0:0:0:0:
83,160,69176,2,0,P|170:143|203:140,1,110,8|0,0:0|0:0,0:0:0:0:
285,224,69821,5,0,3:0:0:0:
285,224,69982,2,0,P|339:231|393:243,1,110,0|2,3:0|0:0,0:0:0:0:
425,294,70466,1,8,0:0:0:0:
489,193,70789,5,0,0:0:0:0:
489,193,70950,2,0,P|479:124|472:62,1,110,0|8,3:0|0:0,0:0:0:0:
423,51,71434,2,0,P|397:72|360:72,1,55
316,86,71756,2,0,P|272:61|212:67,1,110,8|0,0:0|0:0,0:0:0:0:
104,112,72402,5,0,3:0:0:0:
104,112,72563,2,0,P|120:192|123:229,1,110,0|2,3:0|0:0,0:0:0:0:
108,279,73047,2,0,P|188:263|225:260,1,110,8|0,0:0|3:0,0:0:0:0:
265,296,73531,2,0,P|324:293|309:230,1,110,0|8,3:0|0:0,0:0:0:0:
399,153,74176,1,8,0:3:0:0:
399,153,74337,2,0,P|401:72|413:26,1,110,8|4,0:3|0:3,0:0:0:0:
284,23,74982,6,0,P|177:11|151:8,1,110,8|0,0:0|3:0,0:0:0:0:
109,60,75466,2,0,P|97:167|94:193,1,110,8|0,0:0|3:0,0:0:0:0:
147,236,75950,2,0,P|254:248|280:251,1,110,8|0,0:0|3:0,0:0:0:0:
323,198,76434,2,0,P|335:91|338:65,1,110,2|0,0:0|3:0,0:0:0:0:
345,2,76918,1,8,0:3:0:0:
345,2,77079,1,0,0:0:0:0:
224,137,77563,6,0,P|132:120|112:36,1,165,4|0,0:0|3:0,0:0:0:0:
136,7,78208,1,8,0:0:0:0:
254,52,78531,1,0,3:0:0:0:
254,52,78692,2,0,P|315:58|361:21,1,110,0|0,3:0|0:0,0:0:0:0:
403,67,79176,2,0,P|456:58|520:57,2,110,0|8|0,3:0|0:0|3:0,0:0:0:0:
308,142,80143,5,12,0:0:0:0:
363,314,80627,1,12,0:0:0:0:
489,184,81111,1,12,0:0:0:0:
264,136,82712,6,0,P|321:146|359:155,2,82.5000031471254,2|2|2,0:0|0:0|0:0,0:0:0:0:
184,185,83679,1,2,0:0:0:0:
135,105,84002,2,0,P|145:48|154:10,2,82.5000031471254,2|2|2,0:0|0:0|0:0,0:0:0:0:
184,185,84969,1,2,0:0:0:0:
104,234,85292,2,0,P|47:224|9:215,2,82.5000031471254,2|2|2,0:0|0:0|0:0,0:0:0:0:
184,185,86259,1,2,0:0:0:0:
233,265,86582,2,0,P|223:322|214:360,2,82.5000031471254,2|2|2,0:0|0:0|0:0,0:0:0:0:
184,185,87549,1,2,0:0:0:0:
