osu file format v14

[General]
AudioFilename: audio.mp3
AudioLeadIn: 0
PreviewTime: 56608
Countdown: 0
SampleSet: Soft
StackLeniency: 0.4
Mode: 0
LetterboxInBreaks: 0
WidescreenStoryboard: 1

[Editor]
DistanceSpacing: 1
BeatDivisor: 2
GridSize: 32
TimelineZoom: 1.5

[Metadata]
Title:Untitled world
TitleUnicode:Untitled world
Artist:ReoNa
ArtistUnicode:ReoNa
Creator:Shurelia
Version:Easy
Source:明日方舟
Tags:Arknights アークナイツ Japanese Video Game gacha Amiya Yostar A-1 Hypergryph LCFC lowcombofc Kirylln 10nya Ducky- Hikan ScubDomino natsume shiki jungkyuyoung anime girl Kowari Risen citreum bws celine Kalibe Kayoko Kusano 草野 華余子 (LIVE LAB.) 毛蟹 Akita Horie 堀江晶太
BeatmapID:2414151
BeatmapSetID:1156668

[Difficulty]
HPDrainRate:2
CircleSize:3
OverallDifficulty:2
ApproachRate:4
SliderMultiplier:0.799999999999999
SliderTickRate:1

[Events]
//Background and Video events
Video,0,"videoplayback.mp4"
0,0,"tsukinogibg.jpg",0,0
//Break Periods
2,36473,44630
2,54537,55598
//Storyboard Layer 0 (Background)
//Storyboard Layer 1 (Fail)
//Storyboard Layer 2 (Pass)
//Storyboard Layer 3 (Foreground)
//Storyboard Layer 4 (Overlay)
//Storyboard Sound Samples

[TimingPoints]
144,322.58064516129,4,2,1,43,1,0
144,-100,4,2,1,43,0,0
4014,-100,4,2,1,65,0,0
5305,-100,4,2,1,71,0,0
15627,-100,4,2,1,63,0,0
30466,-100,4,2,1,63,0,0
30789,-100,4,2,1,63,0,0
46595,-100,4,2,1,67,0,0
54337,-100,4,2,1,32,0,0
56918,-100,4,2,1,76,0,1
80143,-100,4,2,1,76,0,1
81434,-100,4,2,1,76,0,0
82712,322.58064516129,4,2,1,76,1,0
82712,-100,4,2,1,43,0,0
87873,-100,4,2,1,5,0,0

[Colours]
Combo1 : 128,64,64
Combo2 : 184,130,48

[HitObjects]
61,290,144,5,2,0:0:0:0:
210,347,789,2,0,P|249:343|289:339,1,79.9999999999999,2|2,0:0|0:0,0:0:0:0:
366,317,1434,1,2,0:0:0:0:
465,190,2079,2,0,P|463:151|456:111,1,79.9999999999999,2|2,0:0|0:0,0:0:0:0:
414,43,2724,5,2,0:0:0:0:
257,73,3369,2,0,P|217:70|177:66,1,79.9999999999999,2|2,0:0|0:0,0:0:0:0:
98,82,4014,6,0,P|94:121|93:161,1,79.9999999999999,2|2,0:0|0:0,0:0:0:0:
86,243,4660,1,2,0:0:0:0:
89,322,4982,1,2,0:0:0:0:
168,338,5305,6,0,P|247:332|327:327,1,160,0|8,3:0|0:0,0:0:0:0:
407,319,6273,2,0,P|397:259|395:199,1,120,0|8,3:0|0:0,0:0:0:0:
430,85,7240,1,8,0:0:0:0:
282,23,7885,6,0,P|270:102|260:181,1,160,0|8,3:0|0:0,0:0:0:0:
210,244,8853,2,0,P|150:249|91:261,1,120,0|8,3:0|0:0,0:0:0:0:
30,364,9820,1,8,0:0:0:0:
190,356,10466,6,0,P|269:346|347:327,1,160,0|8,3:0|0:0,0:0:0:0:
403,271,11434,2,0,P|417:212|437:156,1,120,0|8,3:0|0:0,0:0:0:0:
324,113,12402,1,8,0:0:0:0:
320,33,12724,1,2,0:0:0:0:
239,29,13047,6,0,P|159:35|79:40,1,160,0|8,3:0|0:0,0:0:0:0:
23,97,14014,2,0,P|39:154|45:214,1,120,0|8,3:0|0:0,0:0:0:0:
61,333,14982,1,8,0:0:0:0:
140,321,15305,1,4,3:0:0:0:
207,278,15627,6,0,P|198:198|189:119,2,160,0|8|0,3:0|0:0|3:0,0:0:0:0:
276,317,17240,2,0,P|313:317|355:308,1,79.9999999999999,0|8,0:0|0:0,0:0:0:0:
463,191,18208,6,0,P|467:111|473:31,2,160,0|8|0,3:0|0:0|0:0,0:0:0:0:
494,264,19821,1,0,3:0:0:0:
466,339,20144,2,0,P|427:343|387:344,1,79.9999999999999,8|2,0:0|0:0,0:0:0:0:
313,310,20789,5,0,3:0:0:0:
167,377,21434,1,8,0:0:0:0:
94,337,21756,2,0,P|84:277|76:218,1,120,0|8,3:0|0:0,0:0:0:0:
44,103,22725,2,0,P|48:63|53:23,1,79.9999999999999,8|0,0:0|0:0,0:0:0:0:
131,8,23369,5,0,3:0:0:0:
285,48,24014,1,8,0:0:0:0:
340,105,24337,1,0,3:0:0:0:
290,167,24660,2,0,P|251:173|196:175,1,79.9999999999999
138,140,25305,1,8,0:0:0:0:
159,298,25950,6,0,P|80:292|0:286,2,160,0|8|0,3:0|0:0|0:0,0:0:0:0:
238,288,27563,2,0,P|271:268|303:244,1,79.9999999999999,0|8,0:0|0:0,0:0:0:0:
444,166,28531,6,0,P|434:245|435:325,1,160,0|8,3:0|0:0,0:0:0:0:
370,372,29498,1,0,3:0:0:0:
298,335,29821,1,0,0:0:0:0:
155,263,30466,1,8,0:0:0:0:
214,207,30789,1,2,0:0:0:0:
292,192,31111,6,0,P|331:186|371:181,1,79.9999999999999,0|0,3:0|0:0,0:0:0:0:
450,169,31756,2,0,P|439:130|430:91,1,79.9999999999999,8|0,0:0|3:0,0:0:0:0:
323,35,32563,2,0,P|264:43|204:46,1,120,8|8,0:0|0:0,0:0:0:0:
52,97,33692,6,0,P|70:174|66:253,1,160,0|8,3:0|0:0,0:0:0:0:
43,331,34660,1,0,3:0:0:0:
121,318,34982,2,0,P|160:312|199:304,2,79.9999999999999,0|0|8,0:0|3:0|0:0,0:0:0:0:
67,258,35950,1,8,0:0:0:0:
37,183,36273,5,2,0:0:0:0:
94,56,45950,5,4,3:0:0:0:
222,151,46595,6,0,P|261:149|301:146,1,79.9999999999999,4|8,0:0|0:0,0:0:0:0:
347,80,47240,2,0,P|386:82|426:84,1,79.9999999999999,8|8,0:0|0:0,0:0:0:0:
505,101,47885,1,8,0:0:0:0:
461,255,48531,1,8,0:0:0:0:
392,214,48853,1,8,0:0:0:0:
321,176,49176,6,0,P|241:172|161:166,1,160,4|8,0:0|0:0,0:0:0:0:
13,115,50466,2,0,P|17:75|24:35,1,79.9999999999999,8|8,0:0|0:0,0:0:0:0:
102,16,51111,2,0,P|141:20|181:27,1,79.9999999999999,8|8,0:0|0:0,0:0:0:0:
246,73,51756,6,0,P|325:68|405:59,1,160,4|4,3:0|3:0,0:0:0:0:
479,200,53047,2,0,L|469:279,2,79.9999999999999,4|4|4,3:0|3:0|3:0,0:0:0:0:
490,121,54014,1,4,3:0:0:0:
500,41,54337,5,2,0:0:0:0:
250,28,56918,6,0,P|211:34|171:33,1,79.9999999999999,0|2,3:0|0:0,0:0:0:0:
91,25,57563,2,0,P|80:84|69:143,1,120,8|0,0:0|3:0,0:0:0:0:
52,222,58369,1,8,0:0:0:0:
22,338,58853,1,8,0:0:0:0:
181,347,59498,6,0,P|220:347|260:343,1,79.9999999999999,0|2,3:0|0:0,0:0:0:0:
311,280,60143,2,0,P|350:279|434:293,1,120,8|0,0:0|3:0,0:0:0:0:
487,236,60950,1,8,0:0:0:0:
477,116,61434,1,8,0:0:0:0:
340,27,62079,6,0,P|330:65|325:105,1,79.9999999999999,0|2,3:0|0:0,0:0:0:0:
344,182,62724,1,8,0:0:0:0:
321,258,63047,1,8,0:0:0:0:
345,334,63369,2,0,P|404:340|464:345,2,120,2|2|2,0:0|0:0|0:0,0:0:0:0:
266,318,64660,6,0,P|256:259|222:210,1,120,0|0,3:0|0:0,0:0:0:0:
173,100,65627,2,0,P|251:85|320:45,1,160,0|0,3:0|3:0,0:0:0:0:
393,13,66595,1,8,0:0:0:0:
471,26,66918,1,4,3:0:0:0:
441,100,67240,6,0,P|448:139|458:178,1,79.9999999999999,4|2,3:2|0:0,0:0:0:0:
481,254,67885,2,0,P|454:307|414:351,1,120,8|0,0:0|3:0,0:0:0:0:
335,370,68692,1,8,0:0:0:0:
227,316,69176,1,8,0:0:0:0:
172,165,69821,6,0,P|209:150|248:142,1,79.9999999999999,0|2,3:0|0:0,0:0:0:0:
328,145,70466,2,0,P|386:159|445:164,1,120,8|0,0:0|3:0,0:0:0:0:
487,95,71273,1,8,0:0:0:0:
397,15,71756,1,8,0:0:0:0:
237,26,72402,6,0,P|197:32|157:33,1,79.9999999999999,0|2,3:0|0:0,0:0:0:0:
86,71,73047,1,8,0:0:0:0:
64,147,73369,1,0,0:0:0:0:
101,217,73692,2,0,P|75:271|54:327,2,120,2|2|2,0:0|0:0|0:0,0:0:0:0:
169,174,74982,6,0,P|228:171|285:188,1,120,8|8,0:0|0:0,0:0:0:0:
369,273,75950,2,0,P|397:200|463:158,1,160,8|2,0:0|0:0,0:0:0:0:
493,84,76918,1,8,0:3:0:0:
462,10,77240,1,4,0:3:0:0:
382,21,77563,6,0,B|327:11|284:71|228:38,1,160,4|8,0:0|0:0,0:0:0:0:
152,13,78531,1,0,3:0:0:0:
144,92,78853,2,0,P|151:131|155:171,1,79.9999999999999,8|0,0:0|3:0,0:0:0:0:
104,233,79498,2,0,P|97:272|93:312,1,79.9999999999999,8|0,0:0|3:0,0:0:0:0:
161,355,80143,6,0,P|221:349|280:338,2,120,12|12|12,0:0|0:0|0:0,0:0:0:0:
93,312,81434,1,0,0:0:0:0:
263,44,82712,5,2,0:0:0:0:
407,113,83357,2,0,P|417:151|421:191,1,79.9999999999999,2|2,0:0|0:0,0:0:0:0:
406,270,84002,1,2,0:0:0:0:
274,360,84647,2,0,P|234:355|194:349,1,79.9999999999999,2|2,0:0|0:0,0:0:0:0:
256,192,85292,12,2,87873,0:0:0:0:
