osu file format v14

[General]
AudioFilename: audio.mp3
AudioLeadIn: 0
PreviewTime:56608
Countdown: 0
SampleSet: Soft
StackLeniency: 0.7
Mode: 0
LetterboxInBreaks: 0
WidescreenStoryboard: 0

[Editor]
DistanceSpacing: 2
BeatDivisor: 4
GridSize: 32
TimelineZoom: 1.7

[Metadata]
Title:Untitled world
TitleUnicode:Untitled world
Artist:ReoNa
ArtistUnicode:ReoNa
Creator:Shurelia
Version:Ducky's Insane
Source:明日方舟
Tags:Arknights アークナイツ Japanese Video Game gacha Amiya Yostar A-1 Hypergryph LCFC lowcombofc Kirylln 10nya Ducky- Hikan ScubDomino natsume shiki jungkyuyoung anime girl Kowari Risen citreum bws celine Kalibe Kayoko Kusano 草野 華余子 (LIVE LAB.) 毛蟹 Akita Horie 堀江晶太
BeatmapID:2413708
BeatmapSetID:1156668

[Difficulty]
HPDrainRate:6
CircleSize:4.3
OverallDifficulty:8.3
ApproachRate:9
SliderMultiplier:1.6
SliderTickRate:1

[Events]
//Background and Video events
Video,0,"videoplayback.mp4"
0,0,"texasbg.jpg"
//Break Periods
2,36473,45350
//Storyboard Layer 0 (Background)
//Storyboard Layer 1 (Fail)
//Storyboard Layer 2 (Pass)
//Storyboard Layer 3 (Foreground)
//Storyboard Layer 4 (Overlay)
//Storyboard Sound Samples

[TimingPoints]
144,322.58064516129,4,2,1,43,1,0
144,-153.846153846154,4,2,1,43,0,0
4014,-153.846153846154,4,2,1,65,0,0
5305,-100,4,2,1,71,0,0
15627,-100,4,2,1,63,0,0
35466,-100,4,2,1,63,0,0
45950,-83.3333333333333,4,2,1,63,0,0
46595,-125,4,2,1,67,0,0
54337,-133.333333333333,4,2,1,32,0,0
56918,-83.3333333333333,4,2,1,76,0,1
77563,-100,4,2,1,76,0,1
80627,-83.3333333333333,4,2,1,76,0,1
81111,-83.3333333333333,4,2,1,76,0,0
82712,322.58064516129,4,2,1,76,1,0
82712,-153.846153846154,4,2,1,43,0,0
87873,-153.846153846154,4,2,1,5,0,0

[Colours]
Combo1 : 255,98,98
Combo2 : 128,128,255
Combo3 : 255,215,55
Combo4 : 82,87,131

[HitObjects]
245,320,144,6,0,P|249:341|240:377,1,51.999997619629,2|0,0:0|0:0,0:0:0:0:
160,324,466,2,0,P|148:343|116:361,1,51.999997619629,2|0,0:0|0:0,0:0:0:0:
97,268,789,2,0,P|75:272|39:263,1,51.999997619629,2|0,0:0|0:0,0:0:0:0:
92,184,1111,2,0,P|73:172|54:140,1,51.999997619629,2|0,0:0|0:0,0:0:0:0:
234,326,1434,6,0,P|237:348|224:382,1,51.999997619629,2|0,0:0|0:0,0:0:0:0:
149,323,1756,2,0,P|135:340|101:356,1,51.999997619629,2|0,0:0|0:0,0:0:0:0:
90,262,2079,2,0,P|67:265|33:252,1,51.999997619629,2|0,0:0|0:0,0:0:0:0:
92,177,2401,2,0,P|74:163|58:129,1,51.999997619629,2|0,0:0|0:0,0:0:0:0:
223,332,2724,6,0,P|224:354|208:387,1,51.999997619629,2|0,0:0|0:0,0:0:0:0:
138,321,3046,2,0,P|122:337|88:349,1,51.999997619629,2|0,0:0|0:0,0:0:0:0:
85,255,3369,2,0,P|62:256|29:240,1,51.999997619629,2|0,0:0|0:0,0:0:0:0:
96,171,3691,2,0,P|79:155|67:121,1,51.999997619629,2|0,0:0|0:0,0:0:0:0:
237,316,4014,6,0,L|225:377,1,51.999997619629,2|0,0:0|0:0,0:0:0:0:
147,181,4337,2,0,L|86:169,1,51.999997619629,2|0,0:0|0:0,0:0:0:0:
282,91,4660,2,0,L|294:30,1,51.999997619629,2|0,0:0|0:0,0:0:0:0:
372,226,4982,2,0,L|433:238,1,51.999997619629,2|0,0:0|0:0,0:0:0:0:
153,153,5305,6,0,B|188:149|213:176|196:181|218:211|253:202,1,120,0|0,3:0|0:0,0:0:0:0:
303,119,5627,2,0,L|289:19,1,80,0|0,3:0|0:0,0:0:0:0:
465,261,5950,2,0,L|440:362,1,80,8|0,0:0|0:0,0:0:0:0:
364,365,6273,1,0,3:0:0:0:
370,281,6434,2,0,B|324:253|324:253|376:142,1,160,0|8,3:0|0:0,0:0:0:0:
512,28,7079,5,0,3:0:0:0:
512,114,7240,2,0,P|458:95|346:67,1,160,8|2,0:0|0:0,0:0:0:0:
137,290,7885,6,0,P|152:342|159:375,2,80,0|0|0,3:0|3:0|0:0,0:0:0:0:
68,214,8369,1,0,0:0:0:0:
68,214,8531,2,0,P|77:173|88:130,1,80,8|0,0:0|0:0,0:0:0:0:
159,102,8853,1,0,3:0:0:0:
0,24,9014,2,0,B|39:50|39:50|155:27,1,160,0|8,3:0|0:0,0:0:0:0:
322,160,9660,5,0,3:0:0:0:
265,72,9821,2,0,P|242:148|223:226,1,160,8|2,0:0|0:0,0:0:0:0:
409,328,10466,6,0,P|454:351|487:371,2,80,0|0|0,3:0|3:0|0:0,0:0:0:0:
294,307,10950,1,0,0:0:0:0:
294,307,11111,2,0,P|283:262|275:223,1,80,8|0,0:0|0:0,0:0:0:0:
360,150,11434,1,0,3:0:0:0:
357,239,11595,2,0,B|416:222|416:222|439:191|439:191|497:176,1,160,0|8,3:0|0:0,0:0:0:0:
429,54,12240,5,0,3:0:0:0:
310,0,12402,2,0,P|332:44|362:161,1,160,8|2,0:0|0:0,0:0:0:0:
311,360,13047,5,0,3:0:0:0:
360,290,13208,2,0,P|409:299|450:311,2,80,0|0|0,3:0|0:0|0:0,0:0:0:0:
310,226,13692,1,8,0:0:0:0:
118,301,14014,5,0,3:0:0:0:
184,360,14176,2,0,B|215:322|215:322|186:218,1,120,0|0,3:0|0:0,0:0:0:0:
142,198,14498,2,0,L|169:111,1,80,8|0,0:0|0:0,0:0:0:0:
232,61,14821,5,8,0:0:0:0:
235,53,14902,1,8,0:0:0:0:
238,45,14982,2,0,L|189:34,1,40,8|0,0:0|0:0,0:0:0:0:
118,103,15143,2,0,L|158:112,1,40,8|0,0:3|0:0,0:0:0:0:
253,154,15305,1,4,3:0:0:0:
253,154,15466,1,0,0:0:0:0:
377,195,15627,5,0,3:0:0:0:
350,280,15789,1,0,3:0:0:0:
355,273,16111,5,0,0:0:0:0:
385,349,16273,1,8,0:0:0:0:
391,358,16595,5,0,3:0:0:0:
423,282,16756,1,0,3:0:0:0:
363,209,16918,1,2,0:0:0:0:
327,302,17079,1,8,0:0:0:0:
385,368,17240,1,2,0:0:0:0:
426,295,17402,1,0,3:0:0:0:
356,216,17563,1,8,0:0:0:0:
16,29,18047,5,0,0:0:0:0:
89,100,18208,1,0,3:0:0:0:
112,9,18369,1,0,3:0:0:0:
109,19,18692,5,0,0:0:0:0:
6,122,18853,1,8,0:0:0:0:
8,111,19176,5,0,3:0:0:0:
70,184,19337,1,0,3:0:0:0:
162,160,19498,1,2,0:0:0:0:
180,58,19660,1,8,0:0:0:0:
316,39,19821,1,0,3:0:0:0:
186,72,19982,1,0,3:0:0:0:
322,25,20143,1,8,0:0:0:0:
268,128,20466,5,2,0:0:0:0:
442,98,20789,5,0,3:0:0:0:
477,9,20950,1,0,3:0:0:0:
436,85,21111,1,0,0:0:0:0:
512,196,21434,5,8,0:0:0:0:
507,189,21756,5,0,3:0:0:0:
433,222,21918,1,0,3:0:0:0:
505,384,22240,5,8,0:0:0:0:
360,323,22563,5,0,3:0:0:0:
457,298,22724,1,8,0:0:0:0:
363,336,23047,5,0,0:0:0:0:
294,228,23369,5,0,3:0:0:0:
275,133,23531,1,0,3:0:0:0:
301,218,23692,1,0,0:0:0:0:
281,314,24014,5,8,0:0:0:0:
271,324,24337,5,0,3:0:0:0:
190,258,24498,1,0,3:0:0:0:
216,172,24660,1,2,0:0:0:0:
294,228,24821,1,8,0:0:0:0:
263,333,24982,1,0,0:0:0:0:
183,269,25143,1,0,3:0:0:0:
216,183,25305,1,8,0:0:0:0:
332,72,25627,5,2,0:0:0:0:
140,29,25950,5,0,3:0:0:0:
144,41,26111,1,0,3:0:0:0:
47,173,26434,5,0,0:0:0:0:
81,95,26595,1,8,0:0:0:0:
193,205,26918,5,0,3:0:0:0:
107,240,27079,1,0,3:0:0:0:
201,193,27240,1,2,0:0:0:0:
185,285,27402,1,8,0:0:0:0:
105,228,27563,1,0,0:0:0:0:
52,305,27724,1,0,3:0:0:0:
124,367,27885,1,8,0:0:0:0:
240,170,28370,5,0,0:0:0:0:
191,300,28531,1,0,3:0:0:0:
244,181,28692,1,0,3:0:0:0:
119,95,29014,5,0,0:0:0:0:
152,183,29176,1,8,0:0:0:0:
147,193,29498,5,0,3:0:0:0:
196,111,29660,1,0,3:0:0:0:
245,29,29821,1,0,0:0:0:0:
368,65,29982,1,8,0:0:0:0:
249,39,30143,1,0,0:0:0:0:
374,53,30305,1,0,3:0:0:0:
293,139,30466,1,8,0:0:0:0:
373,228,30789,5,2,0:0:0:0:
440,304,30950,1,0,0:0:0:0:
507,224,31111,1,0,3:0:0:0:
444,314,31273,1,0,3:0:0:0:
309,381,31756,5,8,0:0:0:0:
369,239,32079,5,0,3:0:0:0:
301,288,32240,1,0,3:0:0:0:
305,296,32563,5,8,0:0:0:0:
228,356,32724,1,2,0:0:0:0:
220,277,32885,1,0,3:0:0:0:
147,333,33047,1,8,0:0:0:0:
216,193,33369,5,0,0:0:0:0:
87,107,33692,5,0,3:0:0:0:
114,190,33853,1,0,3:0:0:0:
168,20,34337,5,8,0:0:0:0:
26,27,34660,5,0,3:0:0:0:
95,96,34821,1,0,3:0:0:0:
182,129,34982,5,2,0:0:0:0:
87,107,35143,1,8,0:0:0:0:
34,177,35305,1,0,3:0:0:0:
144,226,35466,5,8,3:0:0:0:
139,217,35546,1,8,3:0:0:0:
134,208,35627,1,8,3:0:0:0:
222,195,35789,1,8,0:0:0:0:
311,182,35950,1,8,0:0:0:0:
399,170,36111,1,8,0:0:0:0:
487,157,36273,1,2,0:0:0:0:
337,220,45950,6,0,B|135:178|290:66|64:24,1,335.999989746094,4|0,3:0|3:0,3:0:0:0:
84,29,46595,6,0,P|94:88|98:113,1,64,4|0,0:0|0:0,0:0:0:0:
84,211,46918,1,8,0:0:0:0:
3,116,47079,1,8,0:0:0:0:
166,149,47240,2,0,P|214:138|261:125,1,96,8|0,0:0|0:0,0:0:0:0:
318,42,47563,1,8,0:0:0:0:
325,20,47643,1,8,0:0:0:0:
346,13,47724,1,8,0:0:0:0:
369,19,47805,1,8,0:0:0:0:
386,30,47885,6,0,L|368:102,1,64,8|8,0:0|0:0,0:0:0:0:
281,216,48208,2,0,L|265:153,1,64,8|8,0:0|0:0,0:0:0:0:
300,70,48531,1,8,0:0:0:0:
374,173,48692,1,0,3:2:0:0:
443,101,48853,1,8,0:0:0:0:
465,96,48934,1,8,0:0:0:0:
486,103,49014,1,8,0:0:0:0:
502,119,49095,1,8,0:0:0:0:
512,142,49176,6,0,P|500:177|492:211,1,64,4|0,0:0|0:0,0:0:0:0:
357,296,49498,1,8,0:0:0:0:
457,289,49660,1,8,0:0:0:0:
405,197,49821,5,8,0:0:0:0:
360,309,49982,1,8,0:0:0:0:
292,229,50143,1,8,0:0:0:0:
283,211,50224,1,8,0:0:0:0:
285,192,50305,1,8,0:0:0:0:
299,174,50385,1,8,0:0:0:0:
318,164,50466,5,8,0:0:0:0:
258,14,50627,1,8,0:0:0:0:
364,85,50789,1,8,0:0:0:0:
225,139,50950,1,8,0:0:0:0:
259,34,51111,6,0,P|252:74|238:146,1,96,8|0,0:0|0:0,0:0:0:0:
163,209,51434,1,8,0:0:0:0:
143,224,51514,1,8,0:0:0:0:
123,232,51595,1,8,0:0:0:0:
96,225,51676,1,8,0:0:0:0:
78,211,51756,6,0,L|61:136,1,64,4|0,3:0|0:0,0:0:0:0:
190,336,52079,2,0,L|207:261,1,64,4|0,3:0|0:0,0:0:0:0:
329,203,52402,2,0,L|312:128,1,64,4|2,3:0|0:0,0:0:0:0:
452,321,52725,2,0,L|469:246,1,64,4|0,3:0|0:0,0:0:0:0:
400,46,53047,6,0,L|490:28,1,64,4|2,3:0|0:0,0:0:0:0:
165,120,53369,2,0,L|75:102,1,64,4|0,3:0|0:0,0:0:0:0:
397,225,53692,2,0,L|487:207,1,64,4|2,3:0|0:0,0:0:0:0:
162,299,54014,2,0,L|72:281,1,64,4|2,3:0|0:0,0:0:0:0:
350,376,54337,6,0,B|339:290|339:290|303:253|303:253|286:138,1,240.000009155274
232,36,55305,6,0,P|175:16|157:11,2,60.0000022888184,2|2|0,0:0|0:0|0:0,0:0:0:0:
289,153,55789,1,0,0:0:0:0:
289,153,55950,2,0,L|301:108,2,30.0000011444092
173,100,56273,6,0,L|199:176,1,60.0000022888184,2|0,0:0|0:0,0:0:0:0:
285,233,56595,2,0,L|304:176,1,60.0000022888184
353,49,56918,6,0,P|423:85|418:202,1,191.999994140625,0|2,3:0|0:0,0:0:0:0:
333,259,57402,1,2,0:0:0:0:
323,356,57563,6,0,L|345:260,1,95.9999970703126,8|0,0:0|0:0,0:0:0:0:
302,156,57885,1,0,3:0:0:0:
358,251,58047,6,0,L|209:220,1,143.999995605469,0|0,3:0|0:0,0:0:0:0:
197,305,58369,2,0,P|175:265|199:226,1,95.9999970703126,8|0,0:0|3:0,0:0:0:0:
21,366,58692,5,0,3:0:0:0:
102,321,58853,2,0,B|71:188|71:188|122:132,1,191.999994140625,8|0,0:0|0:0,0:0:0:0:
76,62,59337,1,0,0:0:0:0:
161,27,59498,6,0,P|240:98|299:35,1,191.999994140625,0|2,3:0|0:0,0:0:0:0:
400,114,59982,1,2,0:0:0:0:
366,231,60143,2,0,L|384:137,1,95.9999970703126,8|0,0:0|0:0,0:0:0:0:
289,154,60466,1,0,3:0:0:0:
226,291,60627,6,0,P|292:273|380:257,1,143.999995605469,0|0,3:0|0:0,0:0:0:0:
423,328,60950,2,0,P|369:297|366:260,1,95.9999970703126,8|0,0:0|3:0,0:0:0:0:
471,236,61273,5,0,3:0:0:0:
416,157,61434,2,0,B|400:103|400:103|256:138,1,191.999994140625,8|0,0:0|0:0,0:0:0:0:
187,71,61918,1,0,0:0:0:0:
79,186,62079,6,0,B|106:139|104:93|104:93|117:138|173:162,1,191.999994140625,0|2,3:0|0:0,0:0:0:0:
143,255,62563,1,2,0:0:0:0:
177,340,62724,6,0,L|148:247,1,95.9999970703126,8|0,0:0|0:0,0:0:0:0:
52,313,63047,1,0,3:0:0:0:
169,362,63208,1,0,3:0:0:0:
237,279,63369,5,0,0:0:0:0:
310,365,63531,2,0,P|327:298|340:248,1,95.9999970703126,8|0,0:0|0:0,0:0:0:0:
348,187,63853,1,0,3:0:0:0:
242,182,64014,2,0,P|308:192|357:196,1,95.9999970703126,8|0,0:0|0:0,0:0:0:0:
512,88,64337,2,0,P|407:109|342:125,1,143.999995605469,0|2,0:0|0:0,0:0:0:0:
263,0,64660,6,0,P|302:13|319:78,2,95.9999970703126,0|0|0,3:0|3:0|0:0,0:0:0:0:
181,74,65143,1,0,0:0:0:0:
235,196,65305,2,0,P|249:150|260:103,1,95.9999970703126,8|0,0:0|0:0,0:0:0:0:
95,152,65627,1,0,3:0:0:0:
71,12,65789,2,0,L|106:152,1,143.999995605469,0|0,3:0|0:0,0:0:0:0:
46,254,66111,5,8,0:0:0:0:
125,323,66273,2,0,P|132:274|144:211,2,95.9999970703126,0|8|8,3:0|0:0|0:0,0:0:0:0:
281,329,66756,1,8,0:0:0:0:
281,329,66918,2,0,P|239:351|204:384,1,95.9999970703126,4|0,3:0|0:0,0:0:0:0:
428,268,67240,6,0,L|228:219,1,191.999994140625,4|2,3:2|0:0,0:0:0:0:
328,133,67724,1,2,0:0:0:0:
293,59,67885,2,0,B|243:70|243:70|249:135,1,95.9999970703126,8|0,0:0|0:0,0:0:0:0:
229,242,68208,5,0,3:0:0:0:
168,169,68369,2,0,P|89:185|5:210,1,143.999995605469,0|0,3:0|0:0,0:0:0:0:
49,294,68692,2,0,P|10:258|19:212,1,95.9999970703126,8|0,0:0|3:0,0:0:0:0:
153,317,69014,5,0,3:0:0:0:
184,179,69176,2,0,L|136:-7,1,191.999994140625,8|0,0:0|0:0,0:0:0:0:
73,77,69660,1,0,0:0:0:0:
232,29,69821,5,0,3:0:0:0:
184,179,69982,2,0,P|276:155|371:135,1,191.999994140625,0|2,3:0|0:0,0:0:0:0:
463,92,70466,2,0,P|452:172|444:250,1,143.999995605469,8|0,0:0|0:0,0:0:0:0:
437,249,70789,5,0,0:0:0:0:
314,193,70950,2,0,L|337:308,1,95.9999970703126,0|0,3:0|0:0,0:0:0:0:
495,384,71273,2,0,L|513:289,1,95.9999970703126,8|0,0:0|0:0,0:0:0:0:
393,363,71595,5,0,0:0:0:0:
343,280,71756,2,0,B|303:258|250:292|275:314|223:346|157:311,1,191.999994140625,8|0,0:0|0:0,0:0:0:0:
161,137,72240,1,0,0:0:0:0:
200,245,72402,6,0,P|187:199|174:153,2,95.9999970703126,0|0|2,3:0|3:0|0:0,0:0:0:0:
255,75,72885,1,2,0:0:0:0:
255,75,73047,2,0,P|302:56|360:47,1,95.9999970703126,8|0,0:0|0:0,0:0:0:0:
462,96,73369,1,0,3:0:0:0:
403,4,73531,6,0,P|384:63|362:151,1,143.999995605469,0|0,3:0|0:0,0:0:0:0:
394,213,73853,6,0,P|357:204|344:138,1,95.9999970703126,8|8,0:0|0:3,0:0:0:0:
484,201,74176,1,8,0:3:0:0:
484,201,74256,1,8,0:3:0:0:
484,201,74337,2,0,L|460:314,1,95.9999970703126,8|8,0:3|0:3,0:0:0:0:
395,347,74660,2,0,P|339:307|269:281,1,143.999995605469,4|0,0:3|0:0,0:0:0:0:
167,190,74982,6,0,P|240:241|210:325,1,191.999994140625,8|0,0:0|3:0,0:0:0:0:
66,221,75466,6,0,P|91:101|109:27,1,191.999994140625,8|0,0:0|3:0,0:0:0:0:
201,99,75950,6,0,B|263:88|263:88|305:115|305:115|400:99,1,191.999994140625,8|0,0:0|3:0,0:0:0:0:
463,27,76434,5,2,0:0:0:0:
402,98,76595,2,0,L|424:203,1,95.9999970703126,8|0,0:0|3:0,0:0:0:0:
454,277,76918,6,0,P|478:261|517:255,2,63.9999980468751,8|8|8,0:3|0:3|0:3,0:0:0:0:
398,345,77240,6,0,P|423:357|448:388,2,63.9999980468751,4|4|4,0:3|0:3|0:3,0:0:0:0:
325,296,77563,6,0,P|260:275|233:264,1,80,4|0,0:0|0:0,0:0:0:0:
154,269,77885,1,0,3:0:0:0:
214,344,78047,1,0,3:0:0:0:
217,207,78208,5,8,0:0:0:0:
133,355,78369,1,0,0:0:0:0:
232,195,78531,1,0,3:0:0:0:
80,223,78692,1,0,3:0:0:0:
156,51,78853,6,0,P|168:107|173:151,1,80,8|0,0:0|0:0,0:0:0:0:
96,214,79176,1,0,3:0:0:0:
192,124,79337,1,0,3:0:0:0:
72,114,79498,5,8,0:0:0:0:
232,195,79660,1,0,3:0:0:0:
58,124,79821,1,0,3:0:0:0:
231,28,79982,1,0,3:0:0:0:
231,28,80063,1,8,0:0:0:0:
231,28,80143,6,0,L|399:60,1,160,12|0,0:0|0:0,0:0:0:0:
318,205,80627,6,0,L|97:246,1,191.999994140625,12|0,0:0|0:0,0:0:0:0:
384,379,81111,5,12,0:0:0:0:
42,367,82712,6,0,P|33:340|22:311,1,51.999997619629,2|0,0:0|0:0,0:0:0:0:
100,271,83034,2,0,P|112:245|125:217,1,51.999997619629,2|0,0:0|0:0,0:0:0:0:
208,244,83356,2,0,P|235:235|264:224,1,51.999997619629,2|0,0:0|0:0,0:0:0:0:
304,302,83679,2,0,P|329:314|357:327,1,51.999997619629,2|0,0:0|0:0,0:0:0:0:
27,345,84001,6,0,P|20:317|11:287,1,51.999997619629,2|0,0:0|0:0,0:0:0:0:
93,255,84324,2,0,P|107:230|123:203,1,51.999997619629,2|0,0:0|0:0,0:0:0:0:
203,237,84646,2,0,P|230:230|260:221,1,51.999997619629,2|0,0:0|0:0,0:0:0:0:
294,303,84969,2,0,P|318:317|345:333,1,51.999997619629,2|0,0:0|0:0,0:0:0:0:
15,322,85292,6,0,P|10:293|5:263,1,51.999997619629,2|0,0:0|0:0,0:0:0:0:
88,238,85615,2,0,P|104:215|122:189,1,51.999997619629,2|0,0:0|0:0,0:0:0:0:
199,230,85937,2,0,P|227:225|257:220,1,51.999997619629,2|0,0:0|0:0,0:0:0:0:
284,304,86260,2,0,P|306:320|332:338,1,51.999997619629,2|0,0:0|0:0,0:0:0:0:
3,289,86582,6,0,P|0:256|-1:221,1,51.999997619629,2|0,0:0|0:0,0:0:0:0:
93,201,86905,2,0,P|113:176|135:149,1,51.999997619629,2|0,0:0|0:0,0:0:0:0:
218,203,87227,2,0,P|249:200|284:197,1,51.999997619629,2|0,0:0|0:0,0:0:0:0:
306,294,87550,2,0,B|338:316|338:316|320:393,1,103.999995239258,2|0,0:0|0:0,0:0:0:0:
