osu file format v14

[General]
AudioFilename: audio.mp3
AudioLeadIn: 0
PreviewTime: 56608
Countdown: 0
SampleSet: Soft
StackLeniency: 0.2
Mode: 0
LetterboxInBreaks: 0
WidescreenStoryboard: 1

[Editor]
Bookmarks: 157,4027,5318,10479,15640,25963,36286,45963,46608,51769,54350,55318,56931,66124,67253,73866,74995,77576,81447,82737,87898
DistanceSpacing: 0.4
BeatDivisor: 8
GridSize: 8
TimelineZoom: 1.5

[Metadata]
Title:Untitled world
TitleUnicode:Untitled world
Artist:ReoNa
ArtistUnicode:ReoNa
Creator:Shurelia
Version:Celine's Extra
Source:明日方舟
Tags:Arknights アークナイツ Japanese Video Game gacha Amiya Yostar A-1 Hypergryph LCFC lowcombofc Kirylln 10nya Ducky- Hikan ScubDomino natsume shiki jungkyuyoung anime girl Kowari Risen citreum bws celine Kalibe Kayoko Kusano 草野 華余子 (LIVE LAB.) 毛蟹 Akita Horie 堀江晶太
BeatmapID:2416656
BeatmapSetID:1156668

[Difficulty]
HPDrainRate:6
CircleSize:4
OverallDifficulty:8.6
ApproachRate:9
SliderMultiplier:2
SliderTickRate:1

[Events]
//Background and Video events
0,0,"astesia.jpg",0,0
Video,0,"videoplayback.mp4"
//Break Periods
//Storyboard Layer 0 (Background)
//Storyboard Layer 1 (Fail)
//Storyboard Layer 2 (Pass)
//Storyboard Layer 3 (Foreground)
//Storyboard Layer 4 (Overlay)
//Storyboard Sound Samples

[TimingPoints]
144,322.58064516129,4,2,1,50,1,0
144,-400,4,2,1,15,0,0
466,-333.333333333333,4,2,1,15,0,0
789,-285.714285714286,4,2,1,15,0,0
1111,-250,4,2,1,15,0,0
1434,-400,4,2,1,20,0,0
1756,-333.333333333333,4,2,1,20,0,0
2079,-285.714285714286,4,2,1,20,0,0
2401,-250,4,2,1,20,0,0
2724,-285.714285714286,4,2,1,25,0,0
3047,-250,4,2,1,25,0,0
3369,-222.222222222222,4,2,1,25,0,0
3692,-200,4,2,1,25,0,0
4014,-222.222222222222,4,2,1,30,0,0
4337,-200,4,2,1,35,0,0
4660,-181.818181818182,4,2,1,40,0,0
4982,-166.666666666667,4,2,1,45,0,0
5305,-166.666666666667,4,2,1,65,0,0
5466,-100,4,2,1,65,0,0
5789,-100,4,2,1,5,0,0
5869,-100,4,2,1,65,0,0
6676,-100,4,2,1,5,0,0
6756,-100,4,2,1,65,0,0
7240,-80,4,2,1,65,0,0
7885,-100,4,2,1,65,0,0
8369,-100,4,2,1,5,0,0
8450,-100,4,2,1,65,0,0
9256,-100,4,2,1,5,0,0
9337,-100,4,2,1,65,0,0
9821,-80,4,2,1,65,0,0
10627,-86.9565217391304,4,2,1,65,0,0
11837,-100,4,2,1,5,0,0
11918,-86.9565217391304,4,2,1,65,0,0
12402,-74.0740740740741,4,2,1,65,0,0
13208,-86.9565217391304,4,2,1,65,0,0
14498,-86.9565217391304,4,2,1,65,0,0
14821,-86.9565217391304,4,2,1,75,0,0
15305,-111.111111111111,4,2,1,65,0,0
15547,-111.111111111111,4,2,1,5,0,0
15627,-181.818181818182,4,2,1,45,0,0
19095,-100,4,2,1,5,0,0
19176,-181.818181818182,4,2,1,45,0,0
19498,-166.666666666667,4,2,1,45,0,0
19821,-142.857142857143,4,2,1,45,0,0
20143,-125,4,2,1,45,0,0
20385,-100,4,2,1,5,0,0
20466,-166.666666666667,4,2,1,45,0,0
20789,-133.333333333333,4,2,1,45,0,0
21756,-142.857142857143,4,2,1,45,0,0
23692,-125,4,2,1,45,0,0
24337,-111.111111111111,4,2,1,45,0,0
25950,-117.647058823529,4,2,1,45,0,0
26353,-100,4,2,1,5,0,0
26434,-117.647058823529,4,2,1,45,0,0
26837,-100,4,2,1,5,0,0
26918,-117.647058823529,4,2,1,45,0,0
27240,-111.111111111111,4,2,1,45,0,0
27563,-125,4,2,1,45,0,0
27885,-125,4,2,1,45,0,0
28531,-117.647058823529,4,2,1,45,0,0
28934,-100,4,2,1,5,0,0
29014,-117.647058823529,4,2,1,45,0,0
29418,-100,4,2,1,5,0,0
29498,-105.263157894737,4,2,1,45,0,0
30143,-111.111111111111,4,2,1,45,0,0
31111,-105.263157894737,4,2,1,45,0,0
31998,-100,4,2,1,5,0,0
32079,-117.647058823529,4,2,1,45,0,0
33289,-100,4,2,1,5,0,0
33369,-117.647058823529,4,2,1,45,0,0
33692,-100,4,2,1,45,0,0
34014,-117.647058823529,4,2,1,45,0,0
34256,-100,4,2,1,5,0,0
34337,-117.647058823529,4,2,1,45,0,0
35143,-117.647058823529,4,2,1,55,0,0
35627,-117.647058823529,4,2,1,60,0,0
35789,-117.647058823529,4,2,1,65,0,0
35950,-117.647058823529,4,2,1,70,0,0
36111,-117.647058823529,4,2,1,75,0,0
36273,-117.647058823529,4,2,1,80,0,0
36918,-200,4,2,1,25,0,0
38208,-166.666666666667,4,2,1,25,0,0
40789,-153.846153846154,4,2,1,25,0,0
41434,-142.857142857143,4,2,1,25,0,0
43047,-153.846153846154,4,2,1,25,0,0
44014,-133.333333333333,4,2,1,25,0,0
45950,-500,4,2,1,60,0,0
46918,-100,4,2,1,60,0,0
47885,-133.333333333333,4,2,1,60,0,0
48853,-117.647058823529,4,2,1,60,0,0
50466,-133.333333333333,4,2,1,60,0,0
51756,-100,4,2,1,65,0,0
51837,-100,4,2,1,5,0,0
52079,-400,4,2,1,25,0,0
52321,-400,4,2,1,5,0,0
52402,-500,4,2,1,30,0,0
52643,-400,4,2,1,5,0,0
52724,-666.666666666667,4,2,1,35,0,0
52966,-400,4,2,1,5,0,0
53047,-250,4,2,1,45,0,0
53289,-400,4,2,1,5,0,0
53369,-181.818181818182,4,2,1,55,0,0
53611,-400,4,2,1,5,0,0
53692,-133.333333333333,4,2,1,65,0,0
53934,-400,4,2,1,5,0,0
54014,-86.9565217391304,4,2,1,75,0,0
54256,-400,4,2,1,5,0,0
54337,-400,4,2,1,30,0,0
55950,-666.666666666667,4,2,1,15,0,0
56837,-100,4,2,1,5,0,0
56918,-80,4,2,1,75,0,1
57321,-100,4,2,1,5,0,1
57402,-71.4285714285714,4,2,1,75,0,1
57805,-100,4,2,1,5,0,1
57885,-71.4285714285714,4,2,1,75,0,1
58289,-100,4,2,1,5,0,1
58369,-71.4285714285714,4,2,1,75,0,1
58853,-80,4,2,1,75,0,1
59821,-86.9565217391304,4,2,1,75,0,1
60063,-100,4,2,1,5,0,1
60143,-71.4285714285714,4,2,1,75,0,1
60385,-100,4,2,1,5,0,1
60466,-71.4285714285714,4,2,1,75,0,1
60869,-100,4,2,1,5,0,1
60950,-71.4285714285714,4,2,1,75,0,1
61434,-66.6666666666667,4,2,1,75,0,1
62079,-80,4,2,1,75,0,1
64579,-100,4,2,1,5,0,1
64660,-80,4,2,1,80,0,1
65063,-100,4,2,1,5,0,1
65143,-74.0740740740741,4,2,1,85,0,1
65547,-100,4,2,1,5,0,1
65627,-66.6666666666667,4,2,1,90,0,1
66031,-100,4,2,1,5,0,1
66111,-66.6666666666667,4,2,1,95,0,1
67160,-100,4,2,1,5,0,1
67240,-74.0740740740741,4,2,1,75,0,1
67724,-68.9655172413793,4,2,1,75,0,1
68369,-80,4,2,1,75,0,1
68611,-100,4,2,1,5,0,1
68692,-80,4,2,1,75,0,1
69176,-86.9565217391304,4,2,1,75,0,1
69821,-74.0740740740741,4,2,1,75,0,1
70063,-100,4,2,1,5,0,1
70143,-74.0740740740741,4,2,1,75,0,1
70466,-68.9655172413793,4,2,1,75,0,1
70708,-100,4,2,1,5,0,1
70789,-100,4,2,1,75,0,1
70869,-100,4,2,1,5,0,1
70950,-68.9655172413793,4,2,1,75,0,1
71192,-100,4,2,1,5,0,1
71273,-68.9655172413793,4,2,1,75,0,1
71756,-90.9090909090909,4,2,1,75,0,1
72321,-100,4,2,1,5,0,1
72402,-90.9090909090909,4,2,1,75,0,1
73289,-100,4,2,1,5,0,1
73369,-90.9090909090909,4,2,1,75,0,1
74660,-71.4285714285714,4,2,1,75,0,1
74902,-100,4,2,1,5,0,1
74982,-76.9230769230769,4,2,1,80,0,1
75224,-100,4,2,1,5,0,1
75305,-74.0740740740741,4,2,1,85,0,1
75708,-100,4,2,1,5,0,1
75789,-71.4285714285714,4,2,1,90,0,1
76192,-100,4,2,1,5,0,1
76273,-71.4285714285714,4,2,1,75,0,1
77885,-71.4285714285714,4,2,1,65,0,1
78369,-71.4285714285714,4,2,1,70,0,1
79014,-71.4285714285714,4,2,1,75,0,1
80143,-66.6666666666667,4,2,1,85,0,1
80547,-100,4,2,1,5,0,1
80627,-66.6666666666667,4,2,1,85,0,1
81031,-100,4,2,1,5,0,0
81111,-66.6666666666667,4,2,1,90,0,0
82712,322.58064516129,4,2,1,90,1,0
82712,-400,4,2,1,25,0,0
83035,-333.333333333333,4,2,1,25,0,0
83357,-285.714285714286,4,2,1,25,0,0
83680,-250,4,2,1,25,0,0
84002,-400,4,2,1,25,0,0
84325,-333.333333333333,4,2,1,25,0,0
84647,-285.714285714286,4,2,1,25,0,0
84970,-250,4,2,1,25,0,0
85293,-400,4,2,1,25,0,0
85616,-333.333333333333,4,2,1,25,0,0
85938,-285.714285714286,4,2,1,25,0,0
86261,-250,4,2,1,25,0,0
86583,-400,4,2,1,25,0,0
86906,-333.333333333333,4,2,1,25,0,0
87228,-285.714285714286,4,2,1,25,0,0
87551,-250,4,2,1,25,0,0

[Colours]
Combo1 : 255,184,113
Combo2 : 212,212,212
Combo3 : 128,128,128
Combo4 : 174,94,255
Combo5 : 66,66,255
Combo6 : 255,238,117

[HitObjects]
186,82,144,6,0,L|184:57,1,25,2|0,0:0|0:0,0:0:0:0:
181,75,466,2,0,L|171:46,1,29.9999990844727,2|0,0:0|0:0,0:0:0:0:
172,67,789,2,0,L|150:33,1,34.9999989318848,2|0,0:0|0:0,0:0:0:0:
163,61,1111,2,0,L|133:34,1,40,2|0,0:0|0:0,0:0:0:0:
0,194,1434,6,0,L|7:223,1,25,2|0,0:0|0:0,0:0:0:0:
7,200,1756,2,0,L|24:231,1,29.9999990844727,2|0,0:0|0:0,0:0:0:0:
18,208,2079,2,0,L|50:242,1,34.9999989318848,2|0,0:0|0:0,0:0:0:0:
30,213,2402,2,0,L|70:237,1,40,2|0,0:0|0:0,0:0:0:0:
261,46,2724,70,0,L|270:10,1,34.9999989318848,2|0,0:0|0:0,0:0:0:0:
273,37,3047,2,0,L|291:2,1,40,2|0,0:0|0:0,0:0:0:0:
284,34,3369,2,0,L|316:0,1,44.999998626709,2|0,0:0|0:0,0:0:0:0:
296,33,3692,2,0,L|338:6,1,50,2|0,0:0|0:0,0:0:0:0:
456,159,4014,6,0,L|446:204,1,44.999998626709,2|0,0:0|0:0,0:0:0:0:
419,186,4337,2,0,L|393:239,1,50,2|0,0:0|0:0,0:0:0:0:
368,218,4660,2,0,L|329:263,1,55.0000016784668,2|0,0:0|0:0,0:0:0:0:
261,241,4982,2,0,L|207:278,1,59.9999981689454,2|0,0:0|0:0,0:0:0:0:
0,364,5305,21,0,3:0:0:0:
80,373,5466,2,0,B|78:311|20:286|20:286|55:252|102:268,1,200,0|0,3:0|0:0,0:0:0:0:
155,332,5869,1,0,0:0:0:0:
156,331,5950,2,0,P|184:330|214:263,1,100,8|0,0:0|0:0,0:0:0:0:
81,118,6273,69,0,3:0:0:0:
81,118,6434,2,0,P|92:196|101:276,1,150,0|0,3:0|0:0,0:0:0:0:
187,98,6756,6,0,B|177:56|214:35|214:35|203:48|200:61,2,100,8|0|0,0:0|3:0|3:0,0:0:0:0:
262,108,7240,2,0,B|184:149|123:78|167:72|105:15|42:50,1,250,8|2,0:0|0:0,0:0:0:0:
335,8,7885,69,0,3:0:0:0:
398,55,8046,2,0,B|467:51|493:107|493:107|491:78|476:53|446:46,1,200,0|0,3:0|0:0,0:0:0:0:
418,138,8449,1,0,0:0:0:0:
413,136,8530,2,0,P|363:142|337:187,1,100,8|0,0:0|0:0,0:0:0:0:
507,256,8853,5,0,3:0:0:0:
507,256,9014,2,0,P|503:189|492:97,1,150,0|0,3:0|0:0,0:0:0:0:
437,336,9337,70,0,P|426:301|448:329,2,100,8|0|0,0:0|3:0|3:0,0:0:0:0:
510,367,9821,2,0,B|441:395|379:331|434:332|371:256|296:289,1,250,8|2,0:0|0:0,0:0:0:0:
128,358,10466,5,0,3:0:0:0:
131,363,10547,1,0,0:0:0:0:
134,368,10627,2,0,P|41:368|24:251,1,230.000004386902,0|0,3:0|0:0,0:0:0:0:
127,98,11111,70,0,B|142:54|104:24|104:24|118:42|117:64,1,115.000002193451,8|0,0:0|0:0,0:0:0:0:
42,70,11434,1,0,3:0:0:0:
42,71,11514,1,0,0:0:0:0:
46,75,11595,2,0,P|131:115|230:104,1,172.500003290176,0|0,3:0|0:0,0:0:0:0:
369,37,11918,6,0,B|391:14|428:13|428:13|396:-2|356:32,2,115.000002193451,8|0|0,0:0|3:0|3:0,0:0:0:0:
292,15,12402,2,0,P|282:85|433:172,1,270.000001029968,8|2,0:0|0:0,0:0:0:0:
507,308,13047,69,0,3:0:0:0:
508,308,13128,1,0,0:0:0:0:
512,312,13208,2,0,B|390:266|423:381|293:337,1,230.000004386902,0|0,3:0|0:0,0:0:0:0:
211,301,13692,6,0,B|166:286|165:238|165:238|172:260|190:273,1,115.000002193451,8|0,0:0|0:0,0:0:0:0:
200,375,14014,1,0,3:0:0:0:
203,379,14095,1,0,0:0:0:0:
206,384,14176,2,0,P|208:326|237:214,1,172.500003290176,0|0,3:0|0:0,0:0:0:0:
197,81,14498,69,8,0:0:0:0:
309,262,14660,1,0,0:0:0:0:
459,62,14821,1,8,0:0:0:0:
427,47,14902,1,8,0:0:0:0:
392,50,14982,1,8,0:0:0:0:
252,138,15143,1,8,0:3:0:0:
431,259,15305,2,0,P|427:195|414:121,1,134.999995880127,4|0,3:0|0:0,0:0:0:0:
197,81,15627,70,0,L|82:66,1,110.000003356934,0|0,3:0|0:0,0:0:0:0:
84,71,16111,1,0,0:0:0:0:
13,105,16273,2,0,L|127:90,1,110.000003356934,8|0,0:0|3:0,0:0:0:0:
199,86,16756,1,0,3:0:0:0:
301,28,16918,2,0,L|246:20,1,55.0000016784668,0|8,0:0|0:0,0:0:0:0:
120,97,17240,2,0,L|65:104,1,55.0000016784668,0|0,0:0|3:0,0:0:0:0:
285,197,17563,1,8,0:0:0:0:
287,203,17885,1,0,0:0:0:0:
299,324,18047,69,0,0:0:0:0:
133,285,18208,2,0,L|241:269,1,110.000003356934,0|0,3:0|0:0,0:0:0:0:
246,273,18692,1,0,0:0:0:0:
136,268,18853,2,0,L|61:302,1,82.5000025177003,8|0,0:0|0:0,0:0:0:0:
16,366,19176,1,0,3:0:0:0:
14,372,19337,1,0,3:0:0:0:
63,308,19498,6,0,L|54:231,1,59.9999981689454,0|8,0:0|0:0,0:0:0:0:
190,212,19821,2,0,L|202:130,1,69.9999978637696,0|0,0:0|3:0,0:0:0:0:
341,137,20143,2,0,L|390:21,1,120,8|0,0:0|0:0,0:0:0:0:
454,76,20466,2,2,L|492:30,1,59.9999981689454,2|0,0:0|0:0,0:0:0:0:
268,230,20789,70,0,L|108:248,2,150.000005722046,0|0|8,3:0|0:0|0:0,0:0:0:0:
56,211,21756,2,0,L|334:268,1,279.999991455078,0|0,3:0|0:0,0:0:0:0:
330,267,22724,1,8,0:0:0:0:
306,348,23047,6,0,L|384:338,1,69.9999978637696
506,296,23369,2,0,L|436:287,1,69.9999978637696,0|0,3:0|3:0,0:0:0:0:
162,384,23692,2,0,L|234:330,1,80
331,217,24014,2,0,L|256:249,1,80,8|0,0:0|0:0,0:0:0:0:
0,383,24337,2,0,L|40:290,1,89.9999972534181,0|0,3:0|3:0,0:0:0:0:
69,128,24659,2,0,L|15:200,1,89.9999972534181,0|8,0:0|0:0,0:0:0:0:
139,87,24982,2,0,L|120:-1,1,89.9999972534181,0|0,0:0|3:0,0:0:0:0:
257,248,25305,1,8,0:0:0:0:
258,253,25627,1,2,0:0:0:0:
503,47,25950,69,0,3:0:0:0:
506,51,26111,2,0,L|353:32,1,127.50000243187,0|0,3:0|0:0,0:0:0:0:
205,0,26434,1,0,0:0:0:0:
149,51,26595,2,0,L|297:29,1,127.50000243187,8|0,0:0|0:0,0:0:0:0:
327,94,26918,1,0,3:0:0:0:
402,123,27079,1,0,3:0:0:0:
512,219,27240,2,0,L|399:195,1,89.9999972534181,0|8,0:0|0:0,0:0:0:0:
287,263,27563,2,0,L|366:252,1,80,0|0,0:0|3:0,0:0:0:0:
142,127,27885,1,8,0:0:0:0:
143,132,28208,1,0,0:0:0:0:
75,288,28369,5,0,0:0:0:0:
35,357,28531,2,0,L|66:125,1,212.500004053116,0|0,3:0|0:0,0:0:0:0:
17,81,29014,1,0,0:0:0:0:
130,31,29176,2,0,L|151:189,1,127.50000243187,8|0,0:0|0:0,0:0:0:0:
144,163,29498,1,0,3:0:0:0:
291,318,29660,1,0,3:0:0:0:
234,252,29821,70,0,L|125:239,1,94.9999974632264,0|8,0:0|0:0,0:0:0:0:
286,313,30143,2,0,L|404:298,1,89.9999972534181,0|0,0:0|3:0,0:0:0:0:
450,184,30466,1,8,0:0:0:0:
214,92,30789,5,2,0:0:0:0:
214,92,30950,1,0,0:0:0:0:
306,87,31111,2,0,L|206:99,1,94.9999974632264,0|0,3:0|3:0,0:0:0:0:
81,63,31434,2,0,L|174:23,1,94.9999974632264
378,121,31756,2,0,L|204:99,1,142.49999619484,8|0,0:0|0:0,0:0:0:0:
3,163,32079,2,0,L|109:0,1,170.000003242493,0|0,3:0|0:0,0:0:0:0:
0,244,32563,1,8,0:0:0:0:
0,244,32885,1,0,3:0:0:0:
0,244,33047,2,0,L|126:228,1,127.50000243187,8|0,0:0|0:0,0:0:0:0:
126,227,33369,69,0,0:0:0:0:
182,282,33531,1,0,0:0:0:0:
141,348,33692,2,0,L|35:334,1,100,0|0,3:0|3:0,0:0:0:0:
85,371,34014,2,0,L|212:354,1,127.50000243187
355,332,34337,2,0,L|279:390,1,85.0000016212464,8|0,0:0|0:0,0:0:0:0:
463,215,34660,1,0,3:0:0:0:
424,282,34821,2,0,L|372:349,1,85.0000016212464,0|0,3:0|0:0,0:0:0:0:
309,137,35143,5,8,0:0:0:0:
467,222,35305,1,0,3:0:0:0:
259,198,35466,1,8,0:0:0:0:
261,204,35547,1,8,0:0:0:0:
263,210,35627,1,8,0:0:0:0:
332,251,35789,1,8,0:0:0:0:
442,378,35950,1,8,0:0:0:0:
512,357,36111,1,8,0:0:0:0:
434,383,36273,1,2,3:2:0:0:
241,370,36918,70,0,L|191:363,1,50,2|0,0:0|0:0,0:0:0:0:
191,363,37240,2,0,L|141:356,1,50,2|0,0:0|0:0,0:0:0:0:
63,340,37563,2,0,B|43:306|43:306|54:243,1,100,2|2,0:0|0:0,0:0:0:0:
226,250,38208,2,0,L|241:377,2,119.999996337891,2|2|2,0:0|0:0|3:2,0:0:0:0:
82,304,39498,6,0,L|12:296,1,59.9999981689454,2|0,0:0|0:0,0:0:0:0:
152,266,39821,2,0,L|221:258,1,59.9999981689454,2|0,0:0|0:0,0:0:0:0:
83,223,40143,2,0,L|63:94,1,119.999996337891,2|2,0:0|3:2,0:0:0:0:
274,73,40789,70,0,L|137:89,1,129.999994049073,2|2,0:0|0:0,0:0:0:0:
51,88,41434,6,0,L|261:114,1,209.999993591309,2|0,3:2|3:0,0:0:0:0:
260,114,42402,69,2,0:0:0:0:
260,114,42724,1,2,0:0:0:0:
308,175,43047,2,0,L|290:33,2,129.999994049073,2|2|2,3:2|0:0|0:0,0:0:0:0:
217,232,44014,6,0,B|270:263|270:263|438:243,1,225.000008583069,2|2,3:2|3:2,0:0:0:0:
432,243,44982,1,2,0:0:0:0:
453,319,45305,2,0,L|473:154,1,150.000005722046,2|2,0:0|3:2,0:0:0:0:
396,0,45950,70,0,L|403:61,1,60,4|0,3:0|0:0,0:0:0:0:
205,310,46595,21,4,0:0:0:0:
130,378,46918,6,0,P|125:328|118:279,2,100,8|8|8,0:0|0:0|0:0,0:0:0:0:
62,150,47563,69,8,0:0:0:0:
59,155,47643,1,8,0:0:0:0:
56,160,47724,1,8,0:0:0:0:
53,165,47805,1,8,0:0:0:0:
50,170,47885,2,0,P|42:210|40:247,1,75.0000028610231,8|8,0:0|0:0,0:0:0:0:
266,178,48208,2,0,P|263:142|258:104,2,75.0000028610231,8|8|8,0:0|0:0|0:0,0:0:0:0:
116,76,48853,5,8,0:0:0:0:
113,71,48933,1,8,0:0:0:0:
110,66,49014,1,8,0:0:0:0:
107,61,49095,1,8,0:0:0:0:
156,0,49176,2,0,P|143:88|134:169,1,170.000003242493,4|8,0:0|0:0,0:0:0:0:
167,289,49660,69,8,0:0:0:0:
125,357,49821,1,8,0:0:0:0:
340,233,50143,5,8,0:0:0:0:
343,238,50223,1,8,0:0:0:0:
346,243,50304,1,8,0:0:0:0:
349,248,50385,1,8,0:0:0:0:
352,253,50466,2,0,P|358:291|362:330,1,75.0000028610231,8|8,0:0|0:0,0:0:0:0:
204,218,50789,2,0,P|206:184|213:144,2,75.0000028610231,8|8|8,0:0|0:0|0:0,0:0:0:0:
473,65,51434,69,8,0:0:0:0:
479,93,51514,1,8,0:0:0:0:
485,121,51595,1,8,0:0:0:0:
361,280,51756,6,0,P|357:359|352:383,1,100,4|0,3:0|0:0,0:0:0:0:
273,351,52079,70,0,P|270:333|268:313,1,37.5,4|0,3:0|0:0,0:0:0:0:
269,361,52402,2,0,P|265:346|262:331,1,30,4|0,3:0|0:0,0:0:0:0:
266,368,52724,2,0,P|263:358|261:346,1,22.4999993133545,4|0,3:0|0:0,0:0:0:0:
285,213,53047,6,0,P|292:187|311:155,1,60,4|0,3:0|0:0,0:0:0:0:
313,132,53369,70,0,P|332:112|392:91,1,82.5000025177003,4|0,3:0|0:0,0:0:0:0:
405,73,53692,6,0,P|431:72|508:119,1,112.500004291535,4|0,3:0|0:0,0:0:0:0:
455,227,54014,70,0,B|404:219|404:219|357:212|377:228|331:220|331:220|282:211,1,172.500003290176,4|0,3:0|0:0,0:0:0:0:
37,186,54337,70,0,L|39:209,3,25
387,324,55305,70,0,L|391:300,3,25
315,358,55950,21,0,0:0:0:0:
442,384,56273,1,2,0:0:0:0:
500,332,56595,2,0,P|502:321|503:309,1,22.4999993133545
452,252,56918,21,0,3:0:0:0:
226,182,57079,2,0,B|205:133|233:70|233:70|201:99|197:133,1,187.5,0|0,3:0|0:0,0:0:0:0:
164,270,57402,1,2,0:0:0:0:
164,270,57482,1,0,0:0:0:0:
164,270,57563,6,0,P|143:317|93:230,1,209.999993591309,8|0,0:0|0:0,0:0:0:0:
143,188,57885,1,0,3:0:0:0:
244,304,58047,2,0,B|315:333|357:286|329:283|377:232|439:264,1,209.999993591309,0|0,3:0|0:0,0:0:0:0:
406,336,58369,69,8,0:0:0:0:
279,234,58530,1,0,3:0:0:0:
469,193,58692,1,0,3:0:0:0:
433,261,58853,6,0,L|464:13,1,250,8|0,0:0|0:0,0:0:0:0:
430,88,59337,69,0,0:0:0:0:
469,20,59498,1,0,3:0:0:0:
335,72,59660,1,0,3:0:0:0:
498,125,59821,2,0,P|420:90|336:73,1,172.500003290176,2|0,0:0|0:0,0:0:0:0:
183,158,60143,6,0,B|26:178|26:178|65:144,1,209.999993591309,8|0,0:0|0:0,0:0:0:0:
165,81,60466,1,0,3:0:0:0:
183,158,60627,2,0,B|107:163|81:107|108:112|77:49|14:61,1,209.999993591309,0|0,3:0|0:0,0:0:0:0:
9,194,60950,69,8,0:0:0:0:
165,81,61111,1,0,3:0:0:0:
93,43,61273,1,0,3:0:0:0:
126,236,61434,2,0,P|182:287|161:164,1,300.000011444092,8|0,0:0|0:0,0:0:0:0:
0,384,61918,5,0,0:0:0:0:
0,384,61998,1,2,0:0:0:0:
0,384,62079,2,0,P|80:333|235:308,2,250,0|2|8,3:0|0:0|0:0,0:0:0:0:
79,359,63047,69,0,3:0:0:0:
286,248,63208,1,0,3:0:0:0:
162,346,63369,1,0,0:0:0:0:
0,283,63531,1,8,0:0:0:0:
68,246,63692,1,0,0:0:0:0:
233,314,63853,2,0,P|333:339|277:245,1,250,0|0,3:0|0:0,0:0:0:0:
68,246,64337,6,0,L|45:59,1,187.5,0|2,0:0|0:0,0:0:0:0:
0,0,64660,69,0,3:0:0:0:
129,46,64821,2,0,B|199:84|253:28|253:28|231:44|186:39,1,187.5,0|0,3:0|0:0,0:0:0:0:
0,0,65143,5,0,0:0:0:0:
140,173,65305,2,0,P|224:131|203:39,1,202.500000772476,8|0,0:0|0:0,0:0:0:0:
0,0,65627,69,0,3:0:0:0:
224,257,65789,2,0,B|297:287|341:238|312:235|362:182|426:215,1,225.000008583069,0|0,3:0|0:0,0:0:0:0:
492,264,66111,5,8,0:0:0:0:
230,154,66273,1,0,3:0:0:0:
420,46,66434,1,8,0:0:0:0:
416,67,66514,1,8,0:0:0:0:
412,88,66595,1,8,0:0:0:0:
286,216,66756,69,8,0:0:0:0:
286,216,66918,2,0,B|271:182|233:166|233:166|384:189,1,225.000008583069,4|2,3:0|0:0,0:0:0:0:
492,264,67240,6,0,B|418:225|345:305|417:303|357:399|265:357,1,270.000001029968,4|2,3:2|0:0,0:0:0:0:
306,288,67724,1,2,0:0:0:0:
108,244,67885,2,0,B|107:220|97:199|97:199|149:239|133:290,1,145.000004425049,8|0,0:0|0:0,0:0:0:0:
1,342,68208,1,0,3:0:0:0:
0,342,68369,2,0,P|12:243|15:152,1,187.5,0|0,3:0|0:0,0:0:0:0:
0,30,68692,69,8,0:0:0:0:
0,30,68773,1,0,0:0:0:0:
0,30,68853,1,0,3:0:0:0:
163,144,69014,1,0,3:0:0:0:
284,51,69176,2,0,P|218:55|146:67,2,115.000002193451,8|0|0,0:0|0:0|0:0,0:0:0:0:
438,123,69660,5,0,0:0:0:0:
512,154,69821,2,0,L|305:128,1,202.500000772476,0|0,3:0|0:0,0:0:0:0:
171,151,70143,1,2,0:0:0:0:
171,151,70224,1,0,0:0:0:0:
171,151,70305,1,2,0:0:0:0:
369,253,70466,70,0,B|425:226|425:226|271:204,1,217.500006637573,8|0,0:0|0:0,0:0:0:0:
118,327,70789,6,0,P|147:305|176:301,1,50,0|2,0:0|0:0,0:0:0:0:
232,331,70950,2,0,P|181:346|33:267,1,217.500006637573,0|0,3:0|0:0,0:0:0:0:
0,79,71273,69,8,0:0:0:0:
231,107,71434,1,0,0:0:0:0:
109,235,71595,1,0,0:0:0:0:
64,13,71756,2,0,P|77:88|75:142,2,110.000003356934,8|0|0,0:0|0:0|0:0,0:0:0:0:
76,121,72240,5,0,0:0:0:0:
380,191,72402,2,0,P|325:195|271:204,1,110.000003356934,0|0,3:0|3:0,0:0:0:0:
380,191,72724,69,2,0:0:0:0:
205,251,72885,1,2,0:0:0:0:
153,125,73047,2,0,B|155:92|173:59|213:39|213:39|187:64|194:87,1,165.000005035401,8|0,0:0|0:0,0:0:0:0:
205,251,73369,1,0,3:0:0:0:
41,184,73531,2,0,P|22:133|0:83,1,110.000003356934,0|0,3:0|0:0,0:0:0:0:
0,312,73853,5,8,0:0:0:0:
193,263,74014,1,8,0:3:0:0:
73,260,74176,1,8,0:3:0:0:
77,281,74256,1,8,0:3:0:0:
81,302,74337,1,8,0:3:0:0:
51,370,74498,1,8,0:3:0:0:
144,203,74660,2,0,P|219:192|257:308,1,209.999993591309,4|0,0:3|0:0,0:0:0:0:
51,370,74982,70,0,P|35:288|25:160,1,194.999991073609,8|0,0:0|0:0,0:0:0:0:
193,263,75305,5,0,3:0:0:0:
25,176,75466,2,0,P|92:127|15:98,1,202.500000772476,8|0,0:0|0:0,0:0:0:0:
187,271,75789,69,0,3:0:0:0:
145,62,75950,2,0,B|112:102|112:102|276:73,1,209.999993591309,8|0,0:0|0:0,0:0:0:0:
315,11,76273,1,0,3:0:0:0:
512,65,76434,1,2,0:0:0:0:
366,214,76595,1,8,0:0:0:0:
369,93,76918,5,8,0:3:0:0:
396,81,77025,1,8,0:3:0:0:
391,110,77133,1,8,0:3:0:0:
311,148,77240,69,4,0:3:0:0:
282,217,77348,1,4,0:3:0:0:
290,294,77455,1,4,0:3:0:0:
334,375,77563,5,4,0:0:0:0:
341,384,77885,69,0,3:0:0:0:
492,293,78047,1,0,3:0:0:0:
213,260,78208,1,8,0:0:0:0:
377,241,78369,5,0,0:0:0:0:
451,220,78530,1,0,3:0:0:0:
395,318,78692,1,0,3:0:0:0:
202,178,78853,1,8,0:0:0:0:
512,163,79014,69,0,0:0:0:0:
408,147,79176,1,0,3:0:0:0:
451,220,79337,1,0,3:0:0:0:
208,95,79498,1,8,0:0:0:0:
512,0,79660,5,0,3:0:0:0:
315,131,79821,1,0,3:0:0:0:
134,88,79982,1,0,3:0:0:0:
134,88,80063,1,8,0:0:0:0:
56,87,80143,70,0,P|83:146|73:40,1,375,12|0,0:0|0:0,0:0:0:0:
456,87,80627,6,0,P|429:146|439:40,1,375,12|0,0:0|0:0,0:0:0:0:
256,224,81111,1,12,0:0:0:0:
0,0,82712,6,0,L|2:25,1,25,2|0,0:0|0:0,0:0:0:0:
5,7,83035,2,0,L|15:36,1,29.9999990844727,2|0,0:0|0:0,0:0:0:0:
14,15,83357,2,0,L|36:49,1,34.9999989318848,2|0,0:0|0:0,0:0:0:0:
23,21,83680,2,0,L|53:48,1,40,2|0,0:0|0:0,0:0:0:0:
275,129,84002,6,0,L|277:104,1,25,2|0,0:0|0:0,0:0:0:0:
280,122,84325,2,0,L|290:93,1,29.9999990844727,2|0,0:0|0:0,0:0:0:0:
289,114,84647,2,0,L|311:80,1,34.9999989318848,2|0,0:0|0:0,0:0:0:0:
298,108,84970,2,0,L|328:81,1,40,2|0,0:0|0:0,0:0:0:0:
495,211,85293,70,0,L|511:230,1,25,2|0,0:0|0:0,0:0:0:0:
496,219,85616,2,0,L|509:246,1,29.9999990844727,2|0,0:0|0:0,0:0:0:0:
495,231,85938,2,0,L|503:270,1,34.9999989318848,2|0,0:0|0:0,0:0:0:0:
493,242,86261,2,0,L|490:282,1,40,2|0,0:0|0:0,0:0:0:0:
242,367,86583,6,0,L|222:383,1,25,2|0,0:0|0:0,0:0:0:0:
220,367,86906,2,0,L|192:380,1,29.9999990844727,2|0,0:0|0:0,0:0:0:0:
191,362,87228,2,0,L|151:370,1,34.9999989318848,2|0,0:0|0:0,0:0:0:0:
154,350,87551,2,0,L|113:347,1,40,2|0,0:0|0:0,0:0:0:0:
