osu file format v14

[General]
AudioFilename: audio.mp3
AudioLeadIn: 0
PreviewTime: 56278
Countdown: 0
SampleSet: Soft
StackLeniency: 0.7
Mode: 0
LetterboxInBreaks: 0
WidescreenStoryboard: 1

[Editor]
DistanceSpacing: 1.4
BeatDivisor: 4
GridSize: 32
TimelineZoom: 1.300006

[Metadata]
Title:Untitled world
TitleUnicode:Untitled world
Artist:ReoNa
ArtistUnicode:ReoNa
Creator:SMOKELIND
Version:SMOKELIND x Kowari's Hard
Source:明日方舟
Tags:Arknights アークナイツ Japanese Video Game JPop J-Pop J Pop Yostar Hypergryph a-1 Basensorex Kowari Reform Kujinn Doctor Amiya Kal'tsit Exusiai Ch'en Schwarz Texas Liskarm Blaze
BeatmapID:2475899
BeatmapSetID:1188095

[Difficulty]
HPDrainRate:4.4
CircleSize:3.7
OverallDifficulty:5.7
ApproachRate:7.7
SliderMultiplier:1.27
SliderTickRate:1

[Events]
//Background and Video events
0,0,"Nyah.jpg",0,0
Video,313,"Nyah.mp4"
//Break Periods
2,54353,56127
//Storyboard Layer 0 (Background)
//Storyboard Layer 1 (Fail)
//Storyboard Layer 2 (Pass)
//Storyboard Layer 3 (Foreground)
//Storyboard Layer 4 (Overlay)
//Storyboard Sound Samples

[TimingPoints]
160,315.789473684211,4,2,7,27,1,0
160,-149.253731343284,4,2,7,27,0,0
791,322.58064516129,4,2,7,27,1,0
791,-149.253731343284,4,2,7,27,0,0
1436,322.58064516129,4,2,7,27,1,0
1436,-149.253731343284,4,2,7,27,0,0
2403,344.827586206897,4,2,7,27,1,0
2403,-149.253731343284,4,2,7,27,0,0
2726,322.58064516129,4,2,7,27,1,0
2726,-149.253731343284,4,2,7,27,0,0
4016,329.67032967033,4,2,7,27,1,0
4016,-149.253731343284,4,2,7,27,0,0
4675,306.122448979592,4,2,7,27,1,0
4675,-149.253731343284,4,2,7,27,0,0
5311,322.58064516129,4,2,7,77,1,0
5311,-93.4579439252339,4,2,7,77,0,0
15633,-129.87012987013,4,2,7,47,0,0
36279,-149.253731343284,4,2,7,27,0,0
45956,-149.253731343284,4,2,7,47,0,0
46601,-114.942528735632,4,2,7,57,0,0
51762,-114.942528735632,4,2,7,67,0,0
52004,-114.942528735632,4,2,7,7,0,0
52085,-114.942528735632,4,2,7,67,0,0
52327,-114.942528735632,4,2,7,7,0,0
52408,-114.942528735632,4,2,7,67,0,0
52649,-114.942528735632,4,2,7,7,0,0
52730,-114.942528735632,4,2,7,67,0,0
52972,-114.942528735632,4,2,7,7,0,0
53053,-114.942528735632,4,2,7,77,0,0
53295,-114.942528735632,4,2,7,7,0,0
53375,-114.942528735632,4,2,7,77,0,0
53617,-114.942528735632,4,2,7,7,0,0
53698,-114.942528735632,4,2,7,77,0,0
53940,-114.942528735632,4,2,7,7,0,0
54020,-114.942528735632,4,2,7,77,0,0
54262,-114.942528735632,4,2,7,7,0,0
54343,-149.253731343284,4,2,7,27,0,0
56924,-85.4700854700855,4,2,7,87,0,0
76924,-103.092783505155,4,2,7,87,0,0
77569,-93.4579439252336,4,2,7,87,0,0
81762,-149.253731343284,4,2,7,27,0,0
82720,322.58064516129,4,2,7,27,1,0
82720,-149.253731343284,4,2,7,27,0,0
83365,322.58064516129,4,2,7,27,1,0
83365,-149.253731343284,4,2,7,27,0,0
83667,384.615384615385,4,2,7,27,1,0
83667,-149.253731343284,4,2,7,27,0,0
83859,303.030303030303,4,2,7,27,1,0
84010,322.58064516129,4,2,7,27,1,0
84010,-150.01500150015,4,2,7,27,0,0
84171,361.44578313253,4,2,7,27,1,0
84171,-150.01500150015,4,2,7,27,0,0
84352,281.69014084507,4,2,7,27,1,0
84352,-150.01500150015,4,2,7,27,0,0
84493,322.58064516129,4,2,7,27,1,0
84655,322.58064516129,4,2,7,27,1,0
84655,-149.253731343284,4,2,7,27,0,0
84977,344.827586206897,4,2,7,27,1,0
84977,-149.253731343284,4,2,7,27,0,0
85300,322.58064516129,4,2,7,27,1,0
85300,-149.253731343284,4,2,7,27,0,0
86267,344.827586206897,4,2,7,27,1,0
86267,-149.253731343284,4,2,7,27,0,0
86590,329.67032967033,4,2,7,27,1,0
86590,-149.253731343284,4,2,7,27,0,0
87249,306.122448979592,4,2,7,27,1,0
87249,-149.253731343284,4,2,7,27,0,0

[Colours]
Combo1 : 143,143,143
Combo2 : 255,70,70
Combo3 : 255,96,0
Combo4 : 212,212,212

[HitObjects]
137,98,160,54,0,P|109:64|54:55,2,85.0899959750521,2|2|2,0:0|0:0|0:0,0:0:0:0:
148,216,1113,1,2,0:0:0:0:
227,126,1436,2,0,P|266:106|320:120,2,85.0899959750521,2|2|2,0:0|0:0|0:0,0:0:0:0:
256,235,2403,1,2,0:0:0:0:
178,332,2726,2,0,L|85:318,2,85.0899959750521,2|2|2,0:0|0:0|0:0,0:0:0:0:
256,235,3693,1,2,0:0:0:0:
192,137,4016,2,0,L|288:125,2,85.0899959750521,2|2|2,0:0|0:0|0:0,0:0:0:0:
74,157,4981,1,2,0:0:0:0:
24,21,5311,5,6,1:0:0:0:
113,56,5472,2,0,L|255:42,1,135.889995852966,2|0,1:0|0:0,0:0:0:0:
343,33,5956,2,0,P|372:62|378:101,1,67.9449979264832,10|0,0:0|0:0,0:0:0:0:
396,185,6279,1,2,1:0:0:0:
314,234,6440,6,0,P|283:209|230:209,1,67.9449979264832,2|2,1:0|0:0,0:0:0:0:
199,279,6762,2,0,P|168:304|115:304,1,67.9449979264832,10|0,0:0|1:0,0:0:0:0:
86,230,7085,1,2,1:0:0:0:
122,142,7246,2,0,L|118:209,1,67.9449979264832,10|0,0:0|0:0,0:0:0:0:
209,180,7569,2,0,L|205:112,1,67.9449979264832,2|0,0:0|0:0,0:0:0:0:
271,44,7891,37,2,1:0:0:0:
292,137,8053,2,0,P|345:170|409:128,1,135.889995852966,2|0,1:0|0:0,0:0:0:0:
421,44,8537,2,0,P|453:36|485:47,1,67.9449979264832,10|0,0:0|0:0,0:0:0:0:
491,141,8859,1,2,1:0:0:0:
436,218,9020,6,0,P|428:254|425:298,1,67.9449979264832,2|2,1:0|0:0,0:0:0:0:
341,331,9343,1,10,0:0:0:0:
263,278,9504,2,0,P|259:244|252:211,1,67.9449979264832,0|2,0:0|1:0,0:0:0:0:
187,140,9827,2,0,L|99:129,1,67.9449979264832,10|0,0:0|0:0,0:0:0:0:
59,57,10149,2,0,L|147:46,1,67.9449979264832,2|0,0:0|0:0,0:0:0:0:
221,37,10472,37,2,1:0:0:0:
315,38,10633,2,0,P|289:101|285:179,1,135.889995852966,2|0,1:0|0:0,0:0:0:0:
298,262,11117,2,0,P|331:256|360:238,1,67.9449979264832,10|0,0:0|0:0,0:0:0:0:
394,149,11440,1,2,1:0:0:0:
459,217,11601,6,0,P|430:293|430:369,1,135.889995852966,2|8,1:0|0:0,0:0:0:0:
333,367,12085,2,0,P|329:326|316:285,1,67.9449979264832,2|0,0:0|1:0,0:0:0:0:
233,264,12408,2,0,P|237:223|250:182,1,67.9449979264832,10|0,0:0|0:0,0:0:0:0:
330,158,12730,2,0,P|326:117|313:76,1,67.9449979264832,2|0,0:0|0:0,0:0:0:0:
282,2,13053,37,2,1:0:0:0:
226,78,13214,2,0,P|170:100|110:41,1,135.889995852966,2|0,1:0|0:0,0:0:0:0:
29,15,13698,2,0,L|46:94,1,67.9449979264832,10|0,0:0|0:0,0:0:0:0:
47,176,14020,1,2,1:0:0:0:
140,198,14182,6,0,L|121:345,1,135.889995852966,2|8,1:0|0:0,0:0:0:0:
213,363,14666,2,0,L|298:348,1,67.9449979264832,2|8,1:0|0:0,0:0:0:0:
312,316,14908,1,8,0:0:0:0:
312,316,14988,2,0,L|378:327,1,67.9449979264832,8|8,0:0|3:0,0:0:0:0:
431,248,15311,2,0,L|364:236,1,67.9449979264832,8|8,3:0|3:0,0:0:0:0:
308,180,15633,22,0,L|289:20,1,146.684997090294,6|2,1:0|0:0,0:0:0:0:
213,23,16279,2,0,P|169:50|108:45,1,97.789998060196,10|0,0:0|1:0,0:0:0:0:
53,15,16762,1,2,1:0:0:0:
53,15,16924,2,0,P|75:65|78:115,1,97.789998060196,2|2,0:0|0:0,0:0:0:0:
32,171,17408,1,0,1:0:0:0:
32,171,17569,1,8,0:0:0:0:
242,286,18053,37,2,0:0:0:0:
242,286,18214,2,0,P|221:256|159:262,1,97.789998060196,2|0,1:0|0:0,0:0:0:0:
114,318,18698,1,2,0:0:0:0:
114,318,18859,2,0,L|125:207,1,97.789998060196,10|2,0:0|1:0,0:0:0:0:
128,142,19343,1,2,1:0:0:0:
128,142,19504,2,0,P|144:123|188:115,1,48.894999030098,2|8,0:0|0:0,0:0:0:0:
235,150,19827,2,0,P|257:160|300:150,1,48.894999030098,2|0,0:0|1:0,0:0:0:0:
350,124,20149,2,0,L|356:60,1,48.894999030098,10|0,0:0|0:0,0:0:0:0:
429,52,20472,2,0,L|433:100,1,48.894999030098,2|0,0:0|0:0,0:0:0:0:
447,182,20794,5,2,1:0:0:0:
399,244,20956,1,0,1:0:0:0:
399,244,21117,2,0,L|341:237,1,48.894999030098,2|0,0:0|0:0,0:0:0:0:
288,189,21440,2,0,P|232:201|216:246,1,97.789998060196,10|2,0:0|1:0,0:0:0:0:
192,308,21924,2,0,P|214:280|284:295,1,97.789998060196,0|8,1:0|0:0,0:0:0:0:
316,346,22408,2,0,P|338:346|370:327,1,48.894999030098,0|0,0:0|1:0,0:0:0:0:
439,342,22730,2,0,P|454:325|461:289,1,48.894999030098,8|0,0:0|0:0,0:0:0:0:
506,235,23053,2,0,P|504:213|483:182,1,48.894999030098,2|0,0:0|0:0,0:0:0:0:
428,143,23375,37,2,1:0:0:0:
368,92,23537,1,0,1:0:0:0:
368,92,23698,2,0,L|303:86,1,48.894999030098,2|0,0:0|0:0,0:0:0:0:
266,145,24020,2,0,L|217:149,1,48.894999030098,10|0,0:0|0:0,0:0:0:0:
170,212,24343,1,2,1:0:0:0:
103,170,24504,1,0,1:0:0:0:
103,170,24666,2,0,L|109:108,1,48.894999030098,2|8,0:0|0:0,0:0:0:0:
143,51,24988,2,0,P|158:35|194:30,1,48.894999030098,2|0,0:0|1:0,0:0:0:0:
242,80,25311,2,0,P|263:80|292:102,1,48.894999030098,10|0,0:0|0:0,0:0:0:0:
319,164,25633,1,2,0:0:0:0:
438,280,25956,5,2,1:0:0:0:
438,280,26117,2,0,L|448:170,1,97.789998060196,0|2,1:0|0:0,0:0:0:0:
498,123,26601,2,0,P|475:79|419:57,1,97.789998060196,10|0,0:0|1:0,0:0:0:0:
362,92,27085,1,2,1:0:0:0:
362,92,27246,2,0,P|339:107|308:117,1,48.894999030098,2|8,0:0|0:0,0:0:0:0:
262,168,27569,2,0,P|235:161|206:145,1,48.894999030098,2|0,0:0|1:0,0:0:0:0:
199,75,27891,1,8,0:0:0:0:
4,206,28375,37,2,0:0:0:0:
77,246,28537,1,2,1:0:0:0:
77,246,28698,2,0,L|86:348,1,97.789998060196,0|2,1:0|0:0,0:0:0:0:
161,365,29182,2,0,L|169:267,1,97.789998060196,10|2,0:0|1:0,0:0:0:0:
176,192,29666,1,2,1:0:0:0:
176,192,29827,2,0,P|205:174|240:174,1,48.894999030098,2|8,0:0|0:0,0:0:0:0:
271,229,30149,2,0,P|300:247|335:247,1,48.894999030098,2|0,0:0|1:0,0:0:0:0:
372,196,30472,2,0,L|364:140,1,48.894999030098,10|0,0:0|0:0,0:0:0:0:
396,77,30795,1,2,0:0:0:0:
396,77,30956,1,2,0:0:0:0:
469,116,31117,6,0,L|461:178,1,48.894999030098,2|0,1:0|1:0,0:0:0:0:
453,242,31440,2,0,L|394:260,1,48.894999030098,2|0,0:0|0:0,0:0:0:0:
346,306,31762,2,0,L|299:291,1,48.894999030098,10|0,0:0|0:0,0:0:0:0:
222,309,32085,1,2,1:0:0:0:
222,309,32246,2,0,L|202:204,1,97.789998060196,0|8,1:0|0:0,0:0:0:0:
148,156,32730,1,0,0:0:0:0:
74,190,32891,1,0,1:0:0:0:
74,190,33053,2,0,L|67:289,1,97.789998060196,8|2,0:0|0:0,0:0:0:0:
140,335,33537,37,2,0:0:0:0:
140,335,33698,2,0,L|145:269,1,48.894999030098,2|0,1:0|1:0,0:0:0:0:
183,218,34020,2,0,L|188:152,1,48.894999030098,2|0,0:0|0:0,0:0:0:0:
252,127,34343,2,0,L|257:61,1,48.894999030098,10|0,0:0|0:0,0:0:0:0:
319,32,34666,1,2,1:0:0:0:
319,32,34827,1,0,1:0:0:0:
371,90,34988,2,0,L|430:77,1,48.894999030098,2|8,0:0|0:0,0:0:0:0:
476,132,35311,2,0,L|469:192,1,48.894999030098,2|8,1:0|0:0,0:0:0:0:
439,204,35553,1,8,0:0:0:0:
443,208,35633,2,0,L|451:267,1,48.894999030098,10|8,0:0|0:0,0:0:0:0:
409,323,35956,1,8,0:0:0:0:
336,293,36117,1,8,0:0:0:0:
81,164,36923,6,0,L|86:220,2,42.544997987526,2|2|2,0:0|0:0|0:0,0:0:0:0:
78,91,37407,1,2,0:0:0:0:
78,91,37569,2,0,P|110:64|167:72,1,85.0899959750521,2|2,0:0|0:0,0:0:0:0:
234,192,38214,2,0,P|275:191|307:164,1,85.0899959750521,2|2,0:0|0:0,0:0:0:0:
318,11,38859,1,2,0:0:0:0:
432,295,39504,38,0,L|427:351,2,42.544997987526,2|2|2,0:0|0:0|0:0,0:0:0:0:
435,220,39988,1,2,0:0:0:0:
435,220,40149,2,0,P|403:193|346:201,1,85.0899959750521,2|2,0:0|0:0,0:0:0:0:
279,323,40794,2,0,P|237:322|205:295,1,85.0899959750521,2|2,0:0|0:0,0:0:0:0:
195,142,41439,1,2,0:0:0:0:
482,35,42085,5,2,0:0:0:0:
356,122,42408,2,0,L|371:214,1,85.0899959750521,2|2,0:0|0:0,0:0:0:0:
225,257,43053,2,0,L|210:349,1,85.0899959750521,2|2,0:0|0:0,0:0:0:0:
92,243,43698,1,2,0:0:0:0:
145,99,44020,2,0,L|160:191,1,85.0899959750521,2|2,0:0|0:0,0:0:0:0:
209,240,44504,1,2,0:0:0:0:
425,316,44988,1,2,0:0:0:0:
322,202,45311,2,0,L|314:160,1,42.544997987526,2|0,0:0|0:0,0:0:0:0:
260,106,45633,2,0,L|267:64,1,42.544997987526,2|0,0:0|0:0,0:0:0:0:
336,30,45956,1,10,3:0:0:0:
497,204,46601,38,0,B|432:197|452:239|379:236,1,110.490000927269,4|0,1:0|3:0,0:0:0:0:
317,191,47085,1,0,3:0:0:0:
236,227,47246,2,0,P|211:255|204:285,1,55.2450004636345,10|0,0:0|0:0,0:0:0:0:
116,270,47569,2,0,P|118:307|134:333,1,55.2450004636345,2|0,0:0|3:0,0:0:0:0:
43,218,47891,6,0,P|55:160|63:94,1,110.490000927269,10|2,0:0|3:0,0:0:0:0:
125,48,48375,1,0,3:0:0:0:
166,126,48537,2,0,P|208:157|284:147,1,110.490000927269,10|2,0:0|0:0,0:0:0:0:
400,43,49182,38,0,P|351:40|296:80,1,110.490000927269,10|0,0:0|3:0,0:0:0:0:
354,143,49666,1,0,3:0:0:0:
319,223,49827,2,0,P|336:260|346:295,1,55.2450004636345,10|2,0:0|0:0,0:0:0:0:
406,332,50149,2,0,P|415:306|427:281,1,55.2450004636345,2|2,3:0|3:0,0:0:0:0:
488,216,50472,6,0,P|504:168|469:121,1,110.490000927269,10|2,0:0|3:0,0:0:0:0:
389,155,50956,1,0,3:0:0:0:
347,77,51117,2,0,P|306:61|276:53,1,55.2450004636345,10|0,0:0|0:0,0:0:0:0:
229,117,51440,2,0,P|188:133|158:141,1,55.2450004636345,2|0,3:0|3:0,0:0:0:0:
93,107,51762,5,6,1:0:0:0:
48,216,52085,1,8,0:0:0:0:
177,136,52408,1,0,1:0:0:0:
181,286,52729,1,10,0:0:0:0:
263,111,53053,1,8,0:0:0:0:
325,294,53375,1,8,0:0:0:0:
353,69,53698,1,10,0:0:0:0:
462,264,54020,1,10,0:0:0:0:
480,336,56924,6,0,P|458:274|455:246,1,74.2950002834129,6|0,1:0|0:0,0:0:0:0:
391,184,57246,2,0,P|382:220|367:254,1,74.2950002834129,2|0,0:0|0:0,0:0:0:0:
282,315,57569,2,0,B|196:311|250:263|133:259,1,148.590000566826,10|2,0:0|1:0,0:0:0:0:
50,294,58053,38,0,P|30:348|27:372,1,74.2950002834129,2|0,1:0|0:0,0:0:0:0:
149,259,58375,2,0,P|141:222|126:188,1,74.2950002834129,10|0,0:0|0:0,0:0:0:0:
78,95,58698,1,2,1:0:0:0:
162,34,58859,2,0,P|195:78|295:67,1,148.590000566826,10|0,0:0|1:0,0:0:0:0:
364,13,59343,1,10,3:0:0:0:
417,101,59504,6,0,P|396:154|389:187,1,74.2950002834129,2|2,1:0|1:0,0:0:0:0:
314,241,59827,2,0,P|303:205|288:171,1,74.2950002834129,2|0,0:0|0:0,0:0:0:0:
188,143,60149,2,0,B|108:147|140:200|43:189,1,148.590000566826,10|2,0:0|1:0,0:0:0:0:
31,292,60633,38,0,P|72:319|118:329,1,74.2950002834129,2|0,1:0|0:0,0:0:0:0:
171,253,60956,2,0,P|212:226|258:216,1,74.2950002834129,8|0,0:0|0:0,0:0:0:0:
316,285,61279,1,2,1:0:0:0:
388,210,61440,2,0,P|361:310|350:370,1,148.590000566826,10|0,0:0|0:0,0:0:0:0:
454,377,61924,5,2,0:0:0:0:
454,377,62005,1,2,0:0:0:0:
454,377,62085,2,0,P|485:358|538:348,1,74.2950002834129,2|0,1:0|1:0,0:0:0:0:
487,249,62408,2,0,P|451:239|419:220,1,74.2950002834129,2|0,0:0|0:0,0:0:0:0:
366,131,62730,2,0,P|320:83|228:92,1,148.590000566826,10|2,0:0|1:0,0:0:0:0:
192,175,63214,1,2,1:0:0:0:
111,109,63375,37,2,0:0:0:0:
111,109,63537,2,0,P|121:62|128:21,1,74.2950002834129,10|0,0:0|0:0,0:0:0:0:
29,169,63859,1,2,1:0:0:0:
29,169,64021,2,0,P|39:216|46:257,1,74.2950002834129,10|0,0:0|0:0,0:0:0:0:
140,280,64343,2,0,P|124:342|119:368,1,74.2950002834129,2|0,0:0|0:0,0:0:0:0:
223,377,64666,5,2,1:0:0:0:
252,277,64827,2,0,P|296:240|391:258,1,148.590000566826,0|2,1:0|0:0,0:0:0:0:
484,230,65311,2,0,P|466:293|460:322,1,74.2950002834129,8|0,0:0|0:0,0:0:0:0:
403,151,65634,1,2,1:0:0:0:
407,155,65795,2,0,P|394:94|382:55,1,74.2950002834129,0|0,1:0|0:0,0:0:0:0:
312,14,66117,1,10,0:0:0:0:
262,106,66279,38,0,P|208:127|167:138,1,74.2950002834129,10|8,3:0|0:0,0:0:0:0:
150,112,66520,1,8,0:0:0:0:
150,112,66601,2,0,P|99:90|71:83,1,74.2950002834129,0|10,1:0|3:0,0:0:0:0:
10,161,66924,2,0,P|24:214|29:248,1,74.2950002834129,0|0,1:0|0:0,0:0:0:0:
96,310,67246,6,0,P|121:245|133:222,1,74.2950002834129,6|0,1:0|1:0,0:0:0:0:
206,178,67569,2,0,P|181:113|169:90,1,74.2950002834129,2|0,0:0|0:0,0:0:0:0:
225,15,67891,2,0,P|278:-3|331:67,1,148.590000566826,10|2,0:0|1:0,0:0:0:0:
398,140,68375,38,0,P|451:161|487:157,1,74.2950002834129,2|0,1:0|0:0,0:0:0:0:
360,231,68698,2,0,P|323:234|290:251,1,74.2950002834129,10|0,0:0|0:0,0:0:0:0:
241,343,69020,1,2,1:0:0:0:
170,265,69182,2,0,P|176:184|196:106,1,148.590000566826,8|0,0:0|1:0,0:0:0:0:
118,43,69666,1,10,3:0:0:0:
32,101,69827,6,0,P|60:129|76:167,1,74.2950002834129,2|2,1:0|1:0,0:0:0:0:
117,254,70149,2,0,P|89:282|73:320,1,74.2950002834129,2|0,0:0|0:0,0:0:0:0:
156,379,70473,2,0,P|208:373|237:273,1,148.590000566826,10|2,0:0|1:0,0:0:0:0:
321,222,70956,38,0,P|380:233|420:250,1,74.2950002834129,2|0,1:0|0:0,0:0:0:0:
459,118,71279,2,0,P|423:128|386:133,1,74.2950002834129,10|0,0:0|0:0,0:0:0:0:
320,54,71601,1,2,1:0:0:0:
236,115,71762,2,0,B|163:150|173:91|88:124,1,148.590000566826,10|0,0:0|0:0,0:0:0:0:
42,214,72246,1,2,0:0:0:0:
112,290,72408,6,0,P|158:268|193:265,1,74.2950002834129,2|0,1:0|1:0,0:0:0:0:
253,339,72730,2,0,P|299:361|334:364,1,74.2950002834129,2|0,0:0|0:0,0:0:0:0:
408,305,73053,2,0,P|391:244|374:138,1,148.590000566826,10|2,0:0|1:0,0:0:0:0:
425,67,73537,38,0,P|487:83|519:100,1,74.2950002834129,2|0,1:0|0:0,0:0:0:0:
344,7,73859,2,0,P|309:20|272:27,1,74.2950002834129,10|8,0:0|3:0,0:0:0:0:
169,10,74182,1,2,0:0:0:0:
169,10,74262,1,8,0:0:0:0:
169,10,74343,2,0,P|189:59|201:100,1,74.2950002834129,8|8,0:0|3:0,0:0:0:0:
289,125,74666,2,0,P|269:174|257:215,1,74.2950002834129,10|8,3:0|3:0,0:0:0:0:
306,288,74988,6,0,P|267:237|173:243,1,148.590000566826,6|0,1:0|1:0,0:0:0:0:
70,209,75472,2,0,P|141:209|188:155,1,148.590000566826,10|0,0:0|1:0,0:0:0:0:
212,53,75956,38,0,B|301:43|269:96|366:75,1,148.590000566826,14|0,0:0|1:0,0:0:0:0:
440,17,76440,1,2,0:0:0:0:
478,113,76601,2,0,P|461:169|458:197,1,74.2950002834129,8|0,0:0|0:0,0:0:0:0:
457,271,76924,2,0,L|505:287,2,41.0633343045273,10|8|8,0:0|0:0|3:0,0:0:0:0:
423,317,77246,2,0,L|384:329,2,41.0633343045273,8|8|8,3:0|3:0|0:0,0:0:0:0:
349,287,77569,6,0,P|310:253|216:278,1,135.889995852966,6|0,1:0|1:0,0:0:0:0:
172,338,78053,1,0,1:0:0:0:
112,264,78214,2,0,P|125:209|126:177,1,67.9449979264832,8|0,0:0|1:0,0:0:0:0:
55,132,78537,1,2,1:0:0:0:
55,132,78698,1,2,1:0:0:0:
125,68,78859,38,0,B|205:63|178:112|271:95,1,135.889995852966,8|2,0:0|1:0,0:0:0:0:
318,168,79343,1,0,1:0:0:0:
384,99,79504,2,0,P|371:52|364:19,1,67.9449979264832,10|0,0:0|1:0,0:0:0:0:
476,126,79827,2,0,P|468:159|458:191,1,67.9449979264832,10|0,3:0|1:0,0:0:0:0:
429,229,80069,1,0,1:0:0:0:
429,229,80149,2,0,B|298:218|360:306|221:277,2,203.83499377945,14|14|14,0:0|0:0|0:0,0:0:0:0:
97,144,82720,38,0,P|90:102|77:57,2,85.0899959750521,2|2|2,0:0|0:0|0:0,0:0:0:0:
54,246,83667,1,2,0:0:0:0:
171,228,84010,2,0,P|159:268|155:316,1,90.2555555,2|2,0:0|0:0,0:0:0:0:
256,362,84655,1,2,0:0:0:0:
245,251,84977,1,2,0:0:0:0:
356,293,85300,2,0,P|401:290|442:255,2,85.0899959750521,2|2|2,0:0|0:0|0:0,0:0:0:0:
310,191,86267,1,2,0:0:0:0:
403,120,86590,2,0,P|393:155|388:203,2,85.0899959750521,2|2|2,0:0|0:0|0:0,0:0:0:0:
494,43,87555,1,2,0:0:0:0:
