osu file format v14

[General]
AudioFilename: audio.mp3
AudioLeadIn: 0
PreviewTime: 56278
Countdown: 0
SampleSet: Soft
StackLeniency: 0.7
Mode: 0
LetterboxInBreaks: 0
WidescreenStoryboard: 1

[Editor]
DistanceSpacing: 1.6
BeatDivisor: 4
GridSize: 32
TimelineZoom: 2

[Metadata]
Title:Untitled world
TitleUnicode:Untitled world
Artist:ReoNa
ArtistUnicode:ReoNa
Creator:SMOKELIND
Version:Reform's Insane
Source:明日方舟
Tags:Arknights アークナイツ Japanese Video Game JPop J-Pop J Pop Yostar Hypergryph a-1 Basensorex Kowari Reform Kujinn Doctor Amiya Kal'tsit Exusiai Ch'en Schwarz Texas Liskarm Blaze
BeatmapID:2475898
BeatmapSetID:1188095

[Difficulty]
HPDrainRate:5
CircleSize:3.6
OverallDifficulty:7
ApproachRate:9
SliderMultiplier:1.73
SliderTickRate:1

[Events]
//Background and Video events
0,0,"Nyah.jpg",0,0
Video,313,"Nyah.mp4"
//Break Periods
//Storyboard Layer 0 (Background)
//Storyboard Layer 1 (Fail)
//Storyboard Layer 2 (Pass)
//Storyboard Layer 3 (Foreground)
//Storyboard Layer 4 (Overlay)
//Storyboard Sound Samples

[TimingPoints]
160,315.789473684211,4,2,7,27,1,0
160,-212.765957446809,4,2,7,27,0,0
791,322.58064516129,4,2,7,27,1,0
791,-212.765957446809,4,2,7,27,0,0
1436,322.58064516129,4,2,7,27,1,0
1436,-212.765957446809,4,2,7,27,0,0
2403,344.827586206897,4,2,7,27,1,0
2403,-212.765957446809,4,2,7,27,0,0
2726,322.58064516129,4,2,7,27,1,0
2726,-212.765957446809,4,2,7,27,0,0
4016,329.67032967033,4,2,7,27,1,0
4016,-212.765957446809,4,2,7,27,0,0
4675,306.122448979592,4,2,7,27,1,0
4675,-212.765957446809,4,2,7,27,0,0
5311,322.58064516129,4,2,7,77,1,0
5311,-93.4579439252339,4,2,7,77,0,0
15633,-129.87012987013,4,2,7,47,0,0
25633,-212.765957446809,4,2,7,47,0,0
25956,-129.87012987013,4,2,7,47,0,0
36279,-212.765957446809,4,2,7,27,0,0
45956,-212.765957446809,4,2,7,47,0,0
46601,-114.942528735632,4,2,7,57,0,0
51762,-175.438596491228,4,2,7,67,0,0
52004,-175.438596491228,4,2,7,7,0,0
52085,-175.438596491228,4,2,7,67,0,0
52327,-175.438596491228,4,2,7,7,0,0
52408,-149.253731343283,4,2,7,67,0,0
52649,-149.253731343283,4,2,7,7,0,0
52730,-149.253731343283,4,2,7,67,0,0
52972,-149.253731343283,4,2,7,7,0,0
53053,-129.87012987013,4,2,7,77,0,0
53295,-129.87012987013,4,2,7,7,0,0
53375,-129.87012987013,4,2,7,77,0,0
53617,-129.87012987013,4,2,7,7,0,0
53698,-114.942528735632,4,2,7,77,0,0
53940,-114.942528735632,4,2,7,7,0,0
54020,-114.942528735632,4,2,7,77,0,0
54343,-212.765957446809,4,2,7,27,0,0
54827,-370.370370370372,4,2,7,27,0,0
56924,-93.4579439252336,4,2,7,87,0,0
76924,-103.092783505155,4,2,7,87,0,0
77569,-93.4579439252336,4,2,7,87,0,0
80552,-93.4579439252336,4,2,7,7,0,0
80633,-93.4579439252336,4,2,7,87,0,0
81036,-93.4579439252336,4,2,7,7,0,0
81117,-93.4579439252336,4,2,7,87,0,0
81762,-370.370370370372,4,2,7,27,0,0
82720,322.58064516129,4,2,7,27,1,0
82720,-212.765957446809,4,2,7,27,0,0
83365,322.58064516129,4,2,7,27,1,0
83365,-212.765957446809,4,2,7,27,0,0
83667,384.615384615385,4,2,7,27,1,0
83667,-212.765957446809,4,2,7,27,0,0
83859,303.030303030303,4,2,7,27,1,0
83859,-212.765957446809,4,2,7,27,0,0
84010,322.58064516129,4,2,7,27,1,0
84010,-212.765957446809,4,2,7,27,0,0
84171,361.44578313253,4,2,7,27,1,0
84352,281.69014084507,4,2,7,27,1,0
84352,-212.765957446809,4,2,7,27,0,0
84493,322.58064516129,4,2,7,27,1,0
84493,-212.765957446809,4,2,7,27,0,0
84655,322.58064516129,4,2,7,27,1,0
84655,-212.765957446809,4,2,7,27,0,0
84977,344.827586206897,4,2,7,27,1,0
84977,-212.765957446809,4,2,7,27,0,0
85300,322.58064516129,4,2,7,27,1,0
85300,-212.765957446809,4,2,7,27,0,0
86267,344.827586206897,4,2,7,27,1,0
86267,-212.765957446809,4,2,7,27,0,0
86590,329.67032967033,4,2,7,27,1,0
86590,-212.765957446809,4,2,7,27,0,0
87249,306.122448979592,4,2,7,27,1,0
87249,-212.765957446809,4,2,7,27,0,0

[Colours]
Combo1 : 143,143,143
Combo2 : 255,70,70
Combo3 : 255,96,0
Combo4 : 212,212,212

[HitObjects]
198,58,160,54,0,P|170:48|148:41,3,40.6549993796539,2|0|2|0,0:0|0:0|0:0|0:0,0:0:0:0:
87,112,791,2,0,P|64:121|37:129,1,40.6549993796539,2|0,0:0|0:0,0:0:0:0:
148,188,1113,2,0,P|171:197|198:205,1,40.6549993796539,2|2,0:0|0:0,0:0:0:0:
282,290,1436,38,0,L|289:338,3,40.6549993796539,2|0|2|0,0:0|0:0|0:0|0:0,0:0:0:0:
366,258,2081,2,0,L|371:217,1,40.6549993796539,2|0,0:0|0:0,0:0:0:0:
446,302,2403,2,0,L|451:342,1,40.6549993796539,2|2,0:0|0:0,0:0:0:0:
498,220,2726,6,0,L|503:179,3,40.6549993796539,2|0|2|0,0:0|0:0|0:0|0:0,0:0:0:0:
458,92,3371,2,0,P|427:83|406:75,1,40.6549993796539,2|0,0:0|0:0,0:0:0:0:
322,173,3693,2,0,P|353:164|374:156,1,40.6549993796539,2|0,0:0|0:0,0:0:0:0:
294,34,4016,38,0,P|285:61|276:89,1,40.6549993796539,2|2,0:0|0:0,0:0:0:0:
195,194,4345,2,0,P|188:174|182:155,1,40.6549993796539,2|2,0:0|0:0,0:0:0:0:
112,54,4675,2,0,P|89:51|70:46,1,40.6549993796539,2|2,0:0|0:0,0:0:0:0:
0,191,4981,2,0,P|23:188|42:183,1,40.6549993796539,2|2,0:0|0:0,0:0:0:0:
257,361,5311,21,6,1:0:0:0:
149,249,5472,2,0,P|70:253|54:358,1,185.109994350891,2|0,1:0|0:0,0:0:0:0:
272,313,5956,2,0,P|279:263|298:207,1,92.5549971754456,10|0,0:0|0:0,0:0:0:0:
353,315,6279,5,2,1:0:0:0:
267,143,6440,2,0,P|346:147|362:252,1,185.109994350891,2|10,1:0|0:0,0:0:0:0:
167,177,6924,1,0,1:0:0:0:
219,80,7085,1,2,1:0:0:0:
270,238,7246,2,0,P|225:247|174:274,1,92.5549971754456,10|0,0:0|0:0,0:0:0:0:
326,118,7569,2,0,P|371:127|422:154,1,92.5549971754456,2|0,0:0|0:0,0:0:0:0:
352,322,7891,37,2,1:0:0:0:
485,175,8053,2,0,B|432:280|507:239|457:362,1,185.109994350891,2|0,1:0|0:0,0:0:0:0:
311,218,8537,2,0,P|304:172|322:125,1,92.5549971754456,10|0,0:0|0:0,0:0:0:0:
384,272,8859,5,2,1:0:0:0:
188,137,9020,2,0,B|241:242|166:201|216:324,1,185.109994350891,2|10,1:0|0:0,0:0:0:0:
52,274,9504,1,0,0:0:0:0:
104,379,9666,1,2,1:0:0:0:
111,213,9827,2,0,P|74:190|15:201,1,92.5549971754456,10|0,0:0|0:0,0:0:0:0:
128,333,10149,2,0,P|173:337|212:314,1,92.5549971754456,2|0,0:0|0:0,0:0:0:0:
309,216,10472,37,2,1:0:0:0:
364,370,10633,2,0,P|372:302|413:184,1,185.109994350891,2|0,1:0|0:0,0:0:0:0:
295,71,11117,2,0,P|334:106|381:110,1,92.5549971754456,10|0,0:0|0:0,0:0:0:0:
452,28,11440,5,2,1:0:0:0:
282,181,11601,2,0,P|270:110|238:-7,1,185.109994350891,2|8,1:0|0:0,0:0:0:0:
159,173,12085,1,2,0:0:0:0:
94,82,12246,1,0,1:0:0:0:
67,228,12408,1,10,0:0:0:0:
173,96,12569,1,0,0:0:0:0:
234,253,12730,2,0,P|272:283|334:283,1,92.5549971754456,2|0,0:0|0:0,0:0:0:0:
309,181,13053,37,2,1:0:0:0:
184,361,13214,2,0,B|74:349|148:273|10:266,1,185.109994350891,2|0,1:0|0:0,0:0:0:0:
202,116,13698,2,0,P|179:166|173:215,1,92.5549971754456,10|0,0:0|0:0,0:0:0:0:
142,42,14020,5,2,1:0:0:0:
267,222,14181,2,0,B|377:210|303:134|441:127,1,185.109994350891,2|8,1:0|0:0,0:0:0:0:
433,248,14666,1,2,1:0:0:0:
302,81,14827,1,8,0:0:0:0:
302,81,14908,1,8,0:0:0:0:
302,81,14988,2,0,P|355:68|409:42,1,92.5549971754456,8|8,0:0|3:0,0:0:0:0:
390,270,15311,2,0,P|347:252|302:241,1,92.5549971754456,8|8,3:0|3:0,0:0:0:0:
106,354,15633,21,6,1:0:0:0:
106,354,15795,2,0,P|162:344|186:257,1,133.20999735759,0|2,0:0|0:0,0:0:0:0:
72,258,16279,2,0,P|67:214|58:180,1,66.6049986787949,10|0,0:0|0:0,0:0:0:0:
126,113,16601,1,0,1:0:0:0:
183,185,16762,1,2,1:0:0:0:
298,113,16924,38,0,P|288:164|285:206,1,66.6049986787949,2|8,0:0|0:0,0:0:0:0:
363,299,17246,2,0,P|373:248|376:206,1,66.6049986787949,2|0,0:0|1:0,0:0:0:0:
235,313,17569,2,0,P|182:304|133:368,1,133.20999735759,8|0,0:0|0:0,0:0:0:0:
59,279,18053,1,2,0:0:0:0:
137,180,18214,5,2,1:0:0:0:
137,180,18375,2,0,P|208:197|290:216,1,133.20999735759,0|2,1:0|0:0,0:0:0:0:
360,298,18859,2,0,P|403:289|447:285,1,66.6049986787949,10|0,0:0|0:0,0:0:0:0:
362,183,19182,1,2,1:0:0:0:
434,117,19343,1,2,1:0:0:0:
379,28,19504,38,0,P|346:20|313:16,1,66.6049986787949,2|8,0:0|0:0,0:0:0:0:
183,137,19827,2,0,P|215:129|248:125,1,66.6049986787949,2|0,0:0|1:0,0:0:0:0:
119,20,20149,2,0,P|67:44|60:136,1,133.20999735759,10|2,0:0|0:0,0:0:0:0:
123,225,20633,1,0,0:0:0:0:
22,328,20795,5,2,1:0:0:0:
22,328,20956,2,0,P|16:274|11:190,1,133.20999735759,0|0,1:0|0:0,0:0:0:0:
143,353,21440,2,0,P|147:305|150:269,1,66.6049986787949,10|0,0:0|0:0,0:0:0:0:
242,194,21762,1,2,1:0:0:0:
297,291,21924,1,0,1:0:0:0:
297,291,22246,38,0,P|305:238|325:139,1,133.20999735759,8|0,0:0|1:0,0:0:0:0:
259,58,22730,2,0,P|246:96|261:138,1,66.6049986787949,8|0,0:0|0:0,0:0:0:0:
405,137,23053,2,0,P|418:99|403:57,1,66.6049986787949,2|0,0:0|0:0,0:0:0:0:
352,233,23375,6,0,P|394:245|422:254,1,66.6049986787949,2|0,1:0|1:0,0:0:0:0:
278,324,23698,2,0,P|245:334|214:345,1,66.6049986787949,2|0,0:0|0:0,0:0:0:0:
161,204,24020,2,0,P|148:248|139:290,1,66.6049986787949,10|0,0:0|0:0,0:0:0:0:
15,221,24343,1,2,1:0:0:0:
47,343,24504,1,0,1:0:0:0:
96,157,24666,38,0,P|56:148|7:138,1,66.6049986787949,2|8,0:0|0:0,0:0:0:0:
168,50,24988,2,0,P|208:41|257:31,1,66.6049986787949,2|0,0:0|1:0,0:0:0:0:
375,193,25311,2,0,P|322:191|267:116,1,133.20999735759,10|2,0:0|0:0,0:0:0:0:
270,134,25956,5,2,1:0:0:0:
181,241,26117,2,0,B|267:254|212:298|311:318,1,133.20999735759,0|2,1:0|0:0,0:0:0:0:
442,221,26601,2,0,P|389:244|373:334,1,133.20999735759,10|0,0:0|1:0,0:0:0:0:
455,310,27085,1,2,1:0:0:0:
368,224,27246,37,2,0:0:0:0:
447,153,27408,1,8,0:0:0:0:
384,69,27569,2,0,P|344:78|310:85,1,66.6049986787949,2|0,0:0|1:0,0:0:0:0:
226,184,27891,2,0,P|165:170|81:157,1,133.20999735759,8|0,0:0|0:0,0:0:0:0:
0,198,28375,1,2,0:0:0:0:
68,59,28537,5,2,1:0:0:0:
68,59,28698,2,0,P|117:52|188:124,1,133.20999735759,0|2,1:0|0:0,0:0:0:0:
233,196,29182,2,0,P|297:198|345:155,1,133.20999735759,10|2,0:0|1:0,0:0:0:0:
279,102,29666,1,2,1:0:0:0:
412,212,29827,38,0,P|422:171|434:137,1,66.6049986787949,2|8,0:0|0:0,0:0:0:0:
258,282,30149,2,0,P|268:313|275:346,1,66.6049986787949,2|0,0:0|1:0,0:0:0:0:
450,343,30472,2,0,P|419:302|343:316,1,133.20999735759,10|2,0:0|0:0,0:0:0:0:
252,375,30956,1,2,0:0:0:0:
118,285,31117,6,0,P|107:329|97:380,1,66.6049986787949,2|0,1:0|1:0,0:0:0:0:
0,203,31440,2,0,P|11:247|21:298,1,66.6049986787949,2|0,0:0|0:0,0:0:0:0:
120,119,31762,2,0,P|109:163|99:214,1,66.6049986787949,10|0,0:0|0:0,0:0:0:0:
10,105,32085,1,2,1:0:0:0:
152,29,32246,38,0,P|194:31|227:120,1,133.20999735759,0|8,1:0|0:0,0:0:0:0:
182,225,32730,2,0,P|147:212|112:206,1,66.6049986787949,0|0,0:0|1:0,0:0:0:0:
281,318,33053,2,0,P|248:324|217:336,1,66.6049986787949,8|0,0:0|0:0,0:0:0:0:
382,225,33375,2,0,P|347:212|312:206,1,66.6049986787949,2|2,0:0|0:0,0:0:0:0:
459,353,33698,6,0,P|473:295|485:214,1,133.20999735759,2|2,1:0|0:0,0:0:0:0:
452,109,34182,1,0,0:0:0:0:
366,186,34343,2,0,P|359:146|357:103,1,66.6049986787949,10|0,0:0|0:0,0:0:0:0:
260,222,34666,2,0,P|253:262|251:305,1,66.6049986787949,2|0,1:0|1:0,0:0:0:0:
169,160,34988,38,0,P|129:143|85:137,1,66.6049986787949,2|8,0:0|0:0,0:0:0:0:
259,108,35311,1,2,1:0:0:0:
71,216,35472,1,8,0:0:0:0:
71,216,35553,1,8,0:0:0:0:
71,216,35633,1,10,0:0:0:0:
167,18,35795,1,8,0:0:0:0:
259,250,35956,1,8,0:0:0:0:
128,90,36117,1,8,0:0:0:0:
5,329,36279,5,2,0:0:0:0:
5,329,36924,2,0,L|-2:277,2,40.6549993796539,2|2|2,0:0|0:0|0:0,0:0:0:0:
84,274,37408,1,0,0:0:0:0:
123,349,37569,2,0,P|164:374|208:368,1,81.3099987593079,2|2,0:0|0:0,0:0:0:0:
293,277,38214,2,0,P|333:277|365:300,1,81.3099987593079,2|2,0:0|0:0,0:0:0:0:
483,384,38859,1,2,0:0:0:0:
483,384,39504,38,0,L|489:332,2,40.6549993796539,2|2|2,0:0|0:0|0:0,0:0:0:0:
413,293,39988,1,2,0:0:0:0:
495,250,40149,2,0,L|485:152,1,81.3099987593079,2|2,0:0|0:0,0:0:0:0:
314,161,40795,2,0,L|324:63,1,81.3099987593079,2|2,0:0|0:0,0:0:0:0:
469,13,41440,1,2,0:0:0:0:
469,13,42085,6,0,P|424:28|376:19,1,81.3099987593079,2|2,0:0|0:0,0:0:0:0:
284,112,42730,2,0,P|239:97|191:106,1,81.3099987593079,2|2,0:0|0:0,0:0:0:0:
77,222,43375,2,0,L|63:128,1,81.3099987593079,2|2,0:0|0:0,0:0:0:0:
29,19,44020,38,0,P|81:39|147:20,2,121.964998138962,2|2|2,0:0|0:0|0:0,0:0:0:0:
65,141,45311,2,0,L|52:239,1,81.3099987593079,2|2,0:0|0:0,0:0:0:0:
162,359,45956,2,0,B|253:369|206:317|297:324,1,142.292497828789,10|0,3:0|0:0,0:0:0:0:
343,378,46601,6,0,P|328:326|354:230,1,150.51000126313,4|0,1:0|3:0,0:0:0:0:
406,156,47085,1,0,3:0:0:0:
363,80,47246,2,0,B|279:58|307:139|207:111,1,150.51000126313,10|2,0:0|0:0,0:0:0:0:
127,48,47730,1,0,3:0:0:0:
127,48,47811,1,0,3:0:0:0:
127,48,47891,38,0,P|137:91|138:141,1,75.2550006315651,10|0,0:0|3:0,0:0:0:0:
11,245,48214,2,0,P|1:202|0:152,1,75.2550006315651,2|0,3:0|3:0,0:0:0:0:
150,296,48537,2,0,P|100:320|63:314,1,75.2550006315651,10|0,0:0|0:0,0:0:0:0:
178,185,48859,2,0,P|215:188|246:208,1,75.2550006315651,2|2,0:0|3:0,0:0:0:0:
283,285,49101,1,0,3:0:0:0:
283,285,49182,6,0,P|275:219|311:115,1,150.51000126313,10|0,0:0|3:0,0:0:0:0:
421,212,49666,1,0,3:0:0:0:
379,64,49827,2,0,P|343:45|281:53,1,75.2550006315651,10|2,0:0|0:0,0:0:0:0:
133,180,50149,1,2,3:0:0:0:
199,18,50311,1,2,3:0:0:0:
199,18,50391,1,0,3:0:0:0:
199,18,50472,38,0,P|209:73|217:116,1,75.2550006315651,10|0,0:0|3:0,0:0:0:0:
23,160,50795,2,0,P|29:122|36:85,1,75.2550006315651,2|0,3:0|3:0,0:0:0:0:
184,221,51117,2,0,P|194:276|202:319,1,75.2550006315651,10|0,0:0|0:0,0:0:0:0:
40,383,51440,1,2,3:0:0:0:
102,259,51601,1,0,3:0:0:0:
102,259,51682,1,0,3:0:0:0:
102,259,51762,22,0,P|144:249|186:272,1,73.9574990971985,6|0,1:0|0:0,0:0:0:0:
200,287,52085,2,0,P|232:301|280:281,1,73.9574990971985,8|0,0:0|0:0,0:0:0:0:
305,268,52408,6,0,P|302:223|323:169,1,86.9324958878977,0|0,1:0|0:0,0:0:0:0:
355,163,52730,2,0,P|368:117|358:62,1,86.9324958878977,10|0,0:0|0:0,0:0:0:0:
326,53,53053,38,0,P|277:51|216:11,1,99.9074980181923,8|0,0:0|0:0,0:0:0:0:
190,2,53375,2,0,P|141:4|80:44,1,99.9074980181923,8|0,0:0|0:0,0:0:0:0:
55,59,53698,6,0,P|80:106|86:189,1,112.882500947348,10|0,0:0|0:0,0:0:0:0:
137,188,54020,2,0,P|114:231|149:357,1,150.51000126313,10|2,0:0|0:0,0:0:0:0:
457,279,55956,22,0,L|463:334,2,46.7100011403809,2|0|0,0:0|0:0|0:0,0:0:0:0:
351,79,56924,6,0,P|393:109|441:104,1,92.5549971754456,6|0,1:0|0:0,0:0:0:0:
218,236,57246,2,0,P|172:236|136:264,1,92.5549971754456,2|0,0:0|0:0,0:0:0:0:
358,352,57569,2,0,P|376:311|322:171,1,185.109994350891,10|2,0:0|1:0,0:0:0:0:
192,35,58053,6,0,P|175:93|177:156,1,92.5549971754456,2|0,1:0|0:0,0:0:0:0:
66,292,58375,2,0,P|62:245|47:202,1,92.5549971754456,10|0,0:0|0:0,0:0:0:0:
203,321,58698,1,2,1:0:0:0:
261,127,58859,2,0,P|316:114|411:199,1,185.109994350891,10|0,0:0|1:0,0:0:0:0:
292,271,59343,1,10,3:0:0:0:
175,103,59504,37,2,1:0:0:0:
107,252,59666,1,2,1:0:0:0:
14,56,59827,2,0,P|56:28|115:33,1,92.5549971754456,2|0,0:0|0:0,0:0:0:0:
248,216,60149,2,0,P|202:213|165:186,1,92.5549971754456,10|0,0:0|0:0,0:0:0:0:
306,23,60472,1,2,1:0:0:0:
453,149,60633,6,0,P|468:90|474:33,1,92.5549971754456,2|0,1:0|0:0,0:0:0:0:
348,303,60956,2,0,P|333:244|327:187,1,92.5549971754456,8|0,0:0|0:0,0:0:0:0:
488,321,61279,1,2,1:0:0:0:
350,138,61440,2,0,B|237:120|299:229|148:195,1,185.109994350891,10|0,0:0|0:0,0:0:0:0:
53,112,61924,1,2,0:0:0:0:
98,337,62085,38,0,P|104:280|127:235,1,92.5549971754456,2|0,1:0|1:0,0:0:0:0:
0,56,62408,2,0,P|17:98|20:144,1,92.5549971754456,2|0,0:0|0:0,0:0:0:0:
296,128,62730,2,0,P|262:63|145:67,1,185.109994350891,10|2,0:0|1:0,0:0:0:0:
26,181,63214,1,2,1:0:0:0:
233,279,63375,5,2,0:0:0:0:
129,117,63537,2,0,P|109:168|116:226,1,92.5549971754456,10|0,0:0|0:0,0:0:0:0:
186,360,63859,1,2,1:0:0:0:
325,183,64020,2,0,P|345:234|323:303,1,92.5549971754456,10|0,0:0|0:0,0:0:0:0:
243,100,64343,2,0,P|281:66|335:67,1,92.5549971754456,2|0,0:0|0:0,0:0:0:0:
197,277,64666,37,2,1:0:0:0:
416,170,64827,2,0,P|394:233|379:359,1,185.109994350891,0|2,1:0|0:0,0:0:0:0:
243,100,65311,2,0,P|258:152|263:214,1,92.5549971754456,8|0,0:0|0:0,0:0:0:0:
378,65,65633,1,2,1:0:0:0:
165,169,65795,6,0,B|54:149|143:82|-6:65,1,185.109994350891,0|10,1:0|0:0,0:0:0:0:
216,65,66278,1,10,3:0:0:0:
24,172,66440,1,8,0:0:0:0:
28,176,66520,1,8,0:0:0:0:
32,180,66601,1,0,1:0:0:0:
219,254,66762,1,10,3:0:0:0:
117,115,66924,2,0,P|106:62|120:11,1,92.5549971754456,0|0,1:0|0:0,0:0:0:0:
110,291,67246,37,6,1:0:0:0:
199,141,67408,1,0,1:0:0:0:
256,336,67569,2,0,P|309:368|360:363,1,92.5549971754456,2|0,0:0|0:0,0:0:0:0:
118,199,67891,2,0,P|47:209|16:243,1,92.5549971754456,10|0,0:0|0:0,0:0:0:0:
145,369,68214,1,2,1:0:0:0:
251,207,68375,6,0,P|261:153|264:95,1,92.5549971754456,2|0,1:0|0:0,0:0:0:0:
420,256,68698,2,0,P|423:302|432:347,1,92.5549971754456,10|0,0:0|0:0,0:0:0:0:
368,104,69020,1,2,1:0:0:0:
277,296,69182,2,0,P|222:310|138:202,1,185.109994350891,8|0,0:0|1:0,0:0:0:0:
248,64,69666,1,10,3:0:0:0:
344,232,69827,38,0,P|389:259|447:249,1,92.5549971754456,2|2,1:0|1:0,0:0:0:0:
216,60,70149,2,0,P|170:60|132:85,1,92.5549971754456,2|0,0:0|0:0,0:0:0:0:
413,151,70472,2,0,P|430:96|344:0,1,185.109994350891,10|2,0:0|1:0,0:0:0:0:
235,180,70956,6,0,P|251:229|256:286,1,92.5549971754456,2|0,1:0|0:0,0:0:0:0:
405,384,71279,2,0,P|411:338|425:294,1,92.5549971754456,10|0,0:0|0:0,0:0:0:0:
261,370,71601,1,2,1:0:0:0:
345,189,71762,1,10,0:0:0:0:
225,362,71924,2,0,B|112:356|185:293|50:280,1,185.109994350891,0|2,0:0|0:0,0:0:0:0:
129,190,72408,37,2,1:0:0:0:
43,375,72569,1,0,1:0:0:0:
0,185,72730,2,0,P|19:244|28:296,1,92.5549971754456,2|0,0:0|0:0,0:0:0:0:
185,71,73053,2,0,P|166:130|157:182,1,92.5549971754456,10|0,0:0|0:0,0:0:0:0:
24,39,73375,1,2,1:0:0:0:
120,230,73537,6,0,P|160:258|213:253,1,92.5549971754456,2|0,1:0|0:0,0:0:0:0:
339,97,73859,1,10,0:0:0:0:
190,162,74020,1,8,3:0:0:0:
355,258,74182,1,2,0:0:0:0:
355,258,74262,1,8,0:0:0:0:
355,258,74343,1,8,0:0:0:0:
258,90,74504,1,8,3:0:0:0:
227,354,74666,2,0,P|218:301|202:258,1,92.5549971754456,10|8,3:0|3:0,0:0:0:0:
381,109,74988,38,0,P|453:98|502:198,1,185.109994350891,6|0,1:0|1:0,0:0:0:0:
424,318,75472,2,0,B|329:285|358:390|223:337,1,185.109994350891,10|0,0:0|1:0,0:0:0:0:
189,103,75956,2,0,P|146:179|136:309,1,185.109994350891,14|0,0:0|1:0,0:0:0:0:
48,81,76440,1,2,0:0:0:0:
241,249,76601,2,0,P|297:236|324:191,1,92.5549971754456,8|0,0:0|0:0,0:0:0:0:
245,31,76924,6,0,P|219:21|182:18,2,55.9366679896317,10|8|8,0:0|0:0|3:0,0:0:0:0:
341,107,77246,2,0,P|367:117|404:120,2,55.9366679896317,8|8|8,3:0|3:0|0:0,0:0:0:0:
478,24,77569,38,0,P|472:84|460:223,1,185.109994350891,6|0,1:0|1:0,0:0:0:0:
359,324,78053,1,0,1:0:0:0:
369,146,78214,2,0,P|375:206|387:345,1,185.109994350891,8|2,0:0|1:0,0:0:0:0:
251,193,78698,1,2,1:0:0:0:
145,350,78859,6,0,P|90:339|21:336,1,92.5549971754456,8|0,0:0|1:0,0:0:0:0:
131,184,79182,2,0,P|186:173|255:170,1,92.5549971754456,2|0,1:0|1:0,0:0:0:0:
100,39,79504,2,0,P|45:28|-24:25,1,92.5549971754456,10|0,0:0|1:0,0:0:0:0:
75,241,79827,1,10,3:0:0:0:
179,73,79988,1,0,1:0:0:0:
179,73,80069,1,0,1:0:0:0:
179,73,80149,38,0,P|204:134|361:98,1,231.387492938614,14|0,0:0|0:0,0:0:0:0:
418,82,80633,2,0,P|352:73|305:227,1,231.387492938614,14|0,0:0|0:0,0:0:0:0:
321,280,81117,1,12,0:0:0:0:
314,326,82720,38,0,P|342:336|364:343,3,40.6549993796539,2|0|2|0,0:0|0:0|0:0|0:0,0:0:0:0:
425,272,83365,2,0,P|448:263|475:255,1,40.6549993796539,2|0,0:0|0:0,0:0:0:0:
364,196,83667,2,0,P|341:187|314:179,1,40.6549993796539,2|2,0:0|0:0,0:0:0:0:
230,94,84010,38,0,L|223:46,1,40.6549993796539,2|0,0:0|0:0,0:0:0:0:
153,131,84352,2,0,L|148:172,1,40.6549993796539,2|0,0:0|0:0,0:0:0:0:
53,76,84655,2,0,L|48:36,1,40.6549993796539,2|0,0:0|0:0,0:0:0:0:
137,118,84977,2,0,L|132:159,1,40.6549993796539,2|2,0:0|0:0,0:0:0:0:
14,164,85300,6,0,L|9:205,3,40.6549993796539,2|0|2|0,0:0|0:0|0:0|0:0,0:0:0:0:
54,292,85945,2,0,P|85:301|106:309,1,40.6549993796539,2|0,0:0|0:0,0:0:0:0:
190,211,86267,2,0,P|159:220|138:228,1,40.6549993796539,2|2,0:0|0:0,0:0:0:0:
218,350,86590,38,0,P|227:323|236:295,3,40.6549993796539,2|0|2|0,0:0|0:0|0:0|0:0,0:0:0:0:
323,232,87249,2,0,L|313:173,1,40.6549993796539,2|0,0:0|0:0,0:0:0:0:
209,114,87555,2,0,L|226:27,1,81.3099987593079,2|0,0:0|0:0,0:0:0:0:
