osu file format v14

[General]
AudioFilename: audio.mp3
AudioLeadIn: 0
PreviewTime: 56278
Countdown: 0
SampleSet: Soft
StackLeniency: 0.7
Mode: 0
LetterboxInBreaks: 0
WidescreenStoryboard: 1

[Editor]
DistanceSpacing: 1.4
BeatDivisor: 4
GridSize: 32
TimelineZoom: 1.200006

[Metadata]
Title:Untitled world
TitleUnicode:Untitled world
Artist:ReoNa
ArtistUnicode:ReoNa
Creator:SMOKELIND
Version:Basen's Normal
Source:明日方舟
Tags:Arknights アークナイツ Japanese Video Game JPop J-Pop J Pop Yostar Hypergryph a-1 Basensorex Kowari Reform Kujinn Doctor Amiya Kal'tsit Exusiai Ch'en Schwarz Texas Liskarm Blaze
BeatmapID:2475897
BeatmapSetID:1188095

[Difficulty]
HPDrainRate:3.2
CircleSize:3.2
OverallDifficulty:4
ApproachRate:5
SliderMultiplier:0.999999999999999
SliderTickRate:1

[Events]
//Background and Video events
0,0,"Nyah.jpg",0,0
Video,313,"Nyah.mp4"
//Break Periods
2,36479,44756
2,54543,55724
//Storyboard Layer 0 (Background)
//Storyboard Layer 1 (Fail)
//Storyboard Layer 2 (Pass)
//Storyboard Layer 3 (Foreground)
//Storyboard Layer 4 (Overlay)
//Storyboard Sound Samples

[TimingPoints]
160,315.789473684211,4,2,7,27,1,0
160,-111.111111111111,4,2,7,27,0,0
791,322.58064516129,4,2,7,27,1,0
791,-111.111111111111,4,2,7,27,0,0
1436,322.58064516129,4,2,7,27,1,0
1436,-111.111111111111,4,2,7,27,0,0
2403,344.827586206897,4,2,7,27,1,0
2403,-111.111111111111,4,2,7,27,0,0
2726,322.58064516129,4,2,7,27,1,0
2726,-111.111111111111,4,2,7,27,0,0
4016,329.67032967033,4,2,7,27,1,0
4016,-111.111111111111,4,2,7,27,0,0
4675,306.122448979592,4,2,7,27,1,0
4675,-111.111111111111,4,2,7,27,0,0
5311,322.58064516129,4,2,7,77,1,0
5311,-100,4,2,7,77,0,0
15633,-111.111111111111,4,2,7,47,0,0
36279,-111.111111111111,4,2,7,27,0,0
45956,-111.111111111111,4,2,7,47,0,0
46601,-100,4,2,7,57,0,0
51762,-100,4,2,7,67,0,0
52004,-100,4,2,7,7,0,0
52085,-100,4,2,7,67,0,0
52327,-100,4,2,7,7,0,0
52408,-100,4,2,7,67,0,0
52649,-100,4,2,7,7,0,0
52730,-100,4,2,7,67,0,0
52972,-100,4,2,7,7,0,0
53053,-100,4,2,7,77,0,0
53295,-100,4,2,7,7,0,0
53375,-100,4,2,7,77,0,0
53617,-100,4,2,7,7,0,0
53698,-100,4,2,7,77,0,0
53940,-100,4,2,7,7,0,0
54020,-100,4,2,7,77,0,0
54262,-100,4,2,7,7,0,0
54343,-100,4,2,7,27,0,0
56923,-90.9090909090909,4,2,7,87,0,1
77569,-100,4,2,7,87,0,0
81762,-100,4,2,7,27,0,0
82720,322.58064516129,4,2,7,27,1,0
82720,-111.111111111111,4,2,7,27,0,0
82740,-111.111111111111,4,2,7,27,0,0
83365,322.58064516129,4,2,7,27,1,0
83365,-111.111111111111,4,2,7,27,0,0
83667,384.615384615385,4,2,7,27,1,0
83667,-111.111111111111,4,2,7,27,0,0
83859,303.030303030303,4,2,7,27,1,0
84010,322.58064516129,4,2,7,27,1,0
84010,-111.387103601145,4,2,7,27,0,0
84171,361.44578313253,4,2,7,27,1,0
84171,-111.111111111111,4,2,7,27,0,0
84352,281.69014084507,4,2,7,27,1,0
84352,-111.111111111111,4,2,7,27,0,0
84493,322.58064516129,4,2,7,27,1,0
84655,322.58064516129,4,2,7,27,1,0
84655,-111.111111111111,4,2,7,27,0,0
84977,344.827586206897,4,2,7,27,1,0
84977,-111.111111111111,4,2,7,27,0,0
85300,322.58064516129,4,2,7,27,1,0
85300,-111.111111111111,4,2,7,27,0,0
86267,344.827586206897,4,2,7,27,1,0
86267,-111.111111111111,4,2,7,27,0,0
86590,329.67032967033,4,2,7,27,1,0
86590,-111.111111111111,4,2,7,27,0,0
87249,306.122448979592,4,2,7,27,1,0
87249,-111.111111111111,4,2,7,27,0,0

[Colours]
Combo1 : 143,143,143
Combo2 : 255,70,70
Combo3 : 255,96,0
Combo4 : 212,212,212

[HitObjects]
52,133,160,54,0,L|43:37,2,89.999997253418,2|2|2,0:0|0:0|0:0,0:0:0:0:
59,222,1113,1,2,0:0:0:0:
134,270,1436,2,0,L|125:370,2,89.999997253418,2|2|2,0:0|0:0|0:0,0:0:0:0:
143,186,2403,1,2,0:0:0:0:
218,136,2726,38,0,L|211:37,2,89.999997253418,2|2|2,0:0|0:0|0:0,0:0:0:0:
224,225,3693,1,2,0:0:0:0:
286,287,4016,2,0,P|331:303|382:292,1,89.999997253418,2|2,0:0|0:0,0:0:0:0:
456,248,4676,2,0,P|472:202|460:153,1,89.999997253418,2|2,0:0|0:0,0:0:0:0:
404,83,5311,21,6,1:0:0:0:
404,83,5472,2,0,B|347:87|347:87|327:112|327:112|248:119,1,150,2|10,1:0|0:0,0:0:0:0:
201,47,6279,1,2,1:0:0:0:
201,47,6440,2,0,P|171:89|172:139,1,99.9999999999999,2|10,1:0|0:0,0:0:0:0:
182,185,6924,1,0,1:0:0:0:
275,218,7246,2,0,L|275:330,1,99.9999999999999,10|2,0:0|0:0,0:0:0:0:
184,355,7891,5,2,1:0:0:0:
184,355,8053,2,0,B|111:376|111:376|29:348,1,150,2|10,1:0|0:0,0:0:0:0:
10,262,8859,1,2,1:0:0:0:
10,262,9020,2,0,L|19:150,1,99.9999999999999,2|10,1:0|0:0,0:0:0:0:
24,112,9504,1,0,0:0:0:0:
104,53,9827,2,0,P|146:83|196:82,1,99.9999999999999,10|2,0:0|0:0,0:0:0:0:
274,150,10472,1,2,1:0:0:0:
274,150,10633,38,0,P|338:100|420:103,1,150,2|10,1:0|0:0,0:0:0:0:
477,174,11440,1,2,1:0:0:0:
477,174,11601,2,0,L|467:285,1,99.9999999999999,2|8,1:0|0:0,0:0:0:0:
463,323,12085,1,2,0:0:0:0:
363,336,12408,2,0,P|321:306|271:307,1,99.9999999999999,10|2,0:0|0:0,0:0:0:0:
197,369,13053,5,2,1:0:0:0:
197,369,13214,2,0,B|167:334|167:334|177:222,1,150,2|10,1:0|0:0,0:0:0:0:
278,210,14020,1,2,1:0:0:0:
278,210,14182,2,0,L|268:98,1,99.9999999999999,2|8,1:0|0:0,0:0:0:0:
264,60,14666,1,2,1:0:0:0:
171,21,14988,1,8,0:0:0:0:
77,56,15311,1,8,3:0:0:0:
46,149,15633,22,0,P|57:215|59:291,1,134.999995880127,6|2,1:0|0:0,0:0:0:0:
81,322,16279,2,0,P|126:338|173:328,1,89.999997253418,10|0,0:0|1:0,0:0:0:0:
210,356,16762,1,2,1:0:0:0:
210,356,16924,2,0,P|255:340|302:350,1,89.999997253418,2|2,0:0|0:0,0:0:0:0:
381,320,17569,1,8,0:0:0:0:
467,217,18053,1,2,0:0:0:0:
467,217,18214,38,0,P|467:157|398:104,1,134.999995880127,2|2,1:0|0:0,0:0:0:0:
373,89,18859,1,10,0:0:0:0:
296,136,19182,2,0,P|271:126|240:120,1,44.999998626709,2|2,1:0|1:0,0:0:0:0:
227,85,19504,2,0,P|162:94|138:92,1,89.999997253418,2|2,0:0|0:0,0:0:0:0:
47,88,20149,1,10,0:0:0:0:
3,166,20472,1,2,0:0:0:0:
51,242,20795,6,0,P|60:307|58:331,2,89.999997253418,2|2|10,1:0|0:0|0:0,0:0:0:0:
138,211,21762,1,2,1:0:0:0:
138,211,21924,2,0,B|230:217|168:258|259:269,1,134.999995880127,0|0,1:0|0:0,0:0:0:0:
325,321,22730,1,8,0:0:0:0:
414,314,23053,1,2,0:0:0:0:
466,241,23375,38,0,P|472:196|456:155,1,89.999997253418,2|2,1:0|0:0,0:0:0:0:
397,86,24020,1,10,0:0:0:0:
314,123,24343,1,2,1:0:0:0:
238,73,24666,2,0,P|222:114|228:158,1,89.999997253418,2|2,0:0|0:0,0:0:0:0:
265,246,25311,1,10,0:0:0:0:
265,246,25956,6,0,B|173:252|235:293|144:304,1,134.999995880127,2|2,1:0|0:0,0:0:0:0:
104,306,26601,2,0,P|88:264|94:220,1,89.999997253418,10|0,0:0|1:0,0:0:0:0:
69,189,27085,1,2,1:0:0:0:
69,189,27246,2,0,P|84:147|78:103,1,89.999997253418,2|2,0:0|0:0,0:0:0:0:
128,28,27891,1,8,0:0:0:0:
240,112,28375,1,2,0:0:0:0:
240,112,28537,38,0,P|304:94|379:86,1,134.999995880127,2|2,1:0|0:0,0:0:0:0:
417,86,29182,1,10,0:0:0:0:
476,153,29504,2,0,P|466:178|460:209,1,44.999998626709,2|2,1:0|1:0,0:0:0:0:
434,231,29827,2,0,P|453:271|451:315,1,89.999997253418,2|2,0:0|0:0,0:0:0:0:
370,357,30472,1,10,0:0:0:0:
285,325,30795,2,0,P|260:335|229:341,1,44.999998626709,2|2,0:0|0:0,0:0:0:0:
201,356,31117,6,0,P|137:341|112:341,1,89.999997253418,2|2,1:0|0:0,0:0:0:0:
33,299,31762,1,10,0:0:0:0:
29,213,32085,1,2,1:0:0:0:
29,213,32246,2,0,P|29:153|98:100,1,134.999995880127,0|0,1:0|0:0,0:0:0:0:
167,79,33053,1,8,0:0:0:0:
248,115,33375,1,2,0:0:0:0:
332,83,33698,38,0,P|346:146|346:171,1,89.999997253418,2|2,1:0|0:0,0:0:0:0:
431,199,34343,2,0,P|416:262|416:287,1,89.999997253418,10|2,0:0|1:0,0:0:0:0:
395,329,34827,1,0,1:0:0:0:
395,329,34988,2,0,P|353:313|309:319,1,89.999997253418,2|2,0:0|1:0,0:0:0:0:
226,283,35633,2,0,L|178:287,1,44.999998626709,10|8,0:0|0:0,0:0:0:0:
142,309,35956,2,0,L|94:304,1,44.999998626709,8|8,0:0|0:0,0:0:0:0:
52,299,36279,5,2,0:0:0:0:
354,217,45956,37,10,3:0:0:0:
354,217,46601,6,0,P|383:177|384:128,1,99.9999999999999,4|0,1:0|3:0,0:0:0:0:
322,49,47246,1,10,0:0:0:0:
239,105,47569,1,2,0:0:0:0:
161,42,47891,2,0,L|49:51,1,99.9999999999999,10|2,0:0|3:0,0:0:0:0:
12,137,48537,1,10,0:0:0:0:
64,221,48859,1,2,0:0:0:0:
22,314,49182,1,10,0:0:0:0:
22,314,49827,38,0,L|85:319,1,50,10|2,0:0|0:0,0:0:0:0:
104,356,50149,2,0,L|167:350,1,50,2|2,3:0|3:0,0:0:0:0:
189,315,50472,2,0,L|301:324,1,99.9999999999999,10|2,0:0|3:0,0:0:0:0:
384,352,51117,1,10,0:0:0:0:
471,304,51440,1,2,3:0:0:0:
475,204,51762,22,0,P|473:154|445:114,1,99.9999999999999,6|8,1:0|0:0,0:0:0:0:
346,94,52408,2,0,L|234:103,1,99.9999999999999,0|10,1:0|0:0,0:0:0:0:
165,161,53053,1,8,0:0:0:0:
223,241,53375,1,8,0:0:0:0:
165,322,53698,1,10,0:0:0:0:
65,314,54020,2,0,L|59:251,1,50,10|0,0:0|0:0,0:0:0:0:
54,214,54343,37,2,0:0:0:0:
475,53,56924,6,0,B|423:39|423:39|362:54,1,110.000003356934,6|2,1:0|0:0,0:0:0:0:
266,95,57569,1,10,0:0:0:0:
201,12,57891,1,2,1:0:0:0:
201,12,58053,2,0,P|165:54|161:107,1,110.000003356934,2|10,1:0|0:0,0:0:0:0:
228,200,58698,1,2,1:0:0:0:
228,200,58859,2,0,L|218:311,1,110.000003356934,10|0,0:0|1:0,0:0:0:0:
179,348,59343,1,10,3:0:0:0:
179,348,59504,6,0,B|127:362|127:362|66:347,1,110.000003356934,2|2,1:0|0:0,0:0:0:0:
1,264,60149,1,10,0:0:0:0:
93,202,60472,1,2,1:0:0:0:
93,202,60633,2,0,L|83:91,1,110.000003356934,2|8,1:0|0:0,0:0:0:0:
176,31,61279,1,2,1:0:0:0:
176,31,61440,2,0,P|225:54|278:45,1,110.000003356934,10|0,0:0|0:0,0:0:0:0:
328,78,61924,1,2,0:0:0:0:
328,78,62085,38,0,B|380:64|380:64|441:79,1,110.000003356934,2|2,1:0|0:0,0:0:0:0:
495,169,62730,2,0,L|485:280,1,110.000003356934,10|2,0:0|1:0,0:0:0:0:
447,318,63214,1,2,1:0:0:0:
447,318,63375,2,0,P|417:324|383:318,1,55.0000016784668,2|10,0:0|0:0,0:0:0:0:
295,367,63859,1,2,1:0:0:0:
295,367,64020,2,0,P|245:343|192:352,1,110.000003356934,10|2,0:0|0:0,0:0:0:0:
84,371,64666,6,0,P|78:293|56:198,1,165.0000050354,2|2,1:0|0:0,0:0:0:0:
53,43,65633,2,0,B|171:50|91:103|208:117,1,165.0000050354,2|10,1:0|0:0,0:0:0:0:
246,127,66279,1,10,3:0:0:0:
289,233,66601,1,0,1:0:0:0:
289,233,66762,2,0,P|339:209|392:218,1,110.000003356934,10|0,3:0|0:0,0:0:0:0:
441,241,67246,38,0,B|455:189|455:189|441:127,1,110.000003356934,6|2,1:0|0:0,0:0:0:0:
391,37,67891,1,10,0:0:0:0:
285,40,68213,1,2,1:0:0:0:
285,40,68375,2,0,P|243:76|190:80,1,110.000003356934,2|10,1:0|0:0,0:0:0:0:
92,40,69020,1,2,1:0:0:0:
92,40,69181,2,0,L|82:151,1,110.000003356934,8|0,0:0|1:0,0:0:0:0:
109,203,69665,1,10,3:0:0:0:
109,203,69826,6,0,B|161:217|161:217|222:202,1,110.000003356934,2|2,1:0|0:0,0:0:0:0:
285,118,70471,1,10,0:0:0:0:
396,143,70794,1,2,1:0:0:0:
396,143,70956,2,0,L|406:253,1,110.000003356934,2|10,1:0|0:0,0:0:0:0:
340,342,71601,1,2,1:0:0:0:
340,342,71762,2,0,P|291:365|238:356,1,110.000003356934,10|0,0:0|0:0,0:0:0:0:
192,333,72246,1,2,0:0:0:0:
192,333,72407,38,0,B|140:319|140:319|79:334,1,110.000003356934,2|2,1:0|0:0,0:0:0:0:
8,254,73052,2,0,L|18:143,1,110.000003356934,10|2,0:0|1:0,0:0:0:0:
27,89,73537,2,0,P|76:66|129:75,1,110.000003356934,2|10,1:0|0:0,0:0:0:0:
233,34,74181,1,2,0:0:0:0:
233,34,74343,2,0,P|283:58|336:49,1,110.000003356934,8|10,0:0|3:0,0:0:0:0:
441,20,74988,6,0,P|447:98|469:193,1,165.0000050354,6|10,1:0|0:0,0:0:0:0:
464,347,75956,2,0,B|346:340|426:287|309:273,1,165.0000050354,14|2,0:0|0:0,0:0:0:0:
269,284,76601,1,8,0:0:0:0:
167,318,76923,1,10,0:0:0:0:
167,318,77085,2,0,P|130:275|125:222,1,110.000003356934,2|0,0:0|0:0,0:0:0:0:
147,179,77569,38,0,B|230:171|230:171|255:141|255:141|339:134,1,200,6|8,1:0|0:0,0:0:0:0:
427,181,78537,1,2,1:0:0:0:
427,181,78698,2,0,P|437:125|415:76,1,99.9999999999999,2|0,1:0|1:0,0:0:0:0:
388,49,79181,1,2,1:0:0:0:
293,17,79504,2,0,L|181:26,1,99.9999999999999,10|10,0:0|3:0,0:0:0:0:
154,55,79988,1,0,1:0:0:0:
154,55,80149,6,0,B|186:102|186:102|166:215,2,150,14|14|14,0:0|0:0|0:0,0:0:0:0:
460,133,82720,22,0,L|469:37,2,89.999997253418,2|2|2,0:0|0:0|0:0,0:0:0:0:
453,222,83667,1,2,0:0:0:0:
385,289,84010,2,0,L|289:288,1,95.5,2|2,0:0|0:0,0:0:0:0:
202,273,84654,1,2,0:0:0:0:
213,175,84977,1,2,0:0:0:0:
292,133,85300,38,0,L|301:37,2,89.999997253418,2|2|2,0:0|0:0|0:0,0:0:0:0:
285,222,86267,1,2,0:0:0:0:
210,270,86590,2,0,L|219:365,2,89.999997253418,2|2|2,0:0|0:0|0:0,0:0:0:0:
203,181,87555,2,0,P|158:165|111:175,1,89.999997253418,2|0,0:0|0:0,0:0:0:0:
