osu file format v14

[General]
AudioFilename: audio.mp3
AudioLeadIn: 0
PreviewTime: 56756
Countdown: 0
SampleSet: Soft
StackLeniency: 0.4
Mode: 0
LetterboxInBreaks: 0
WidescreenStoryboard: 1

[Editor]
DistanceSpacing: 1
BeatDivisor: 2
GridSize: 32
TimelineZoom: 2.5

[Metadata]
Title:Untitled world
TitleUnicode:Untitled world
Artist:ReoNa
ArtistUnicode:ReoNa
Creator:Petal
Version:Normal
Source:明日方舟
Tags:Arknights アークナイツ Japanese Video Game gacha agatsu matha gary00737 アンタイトル ワールド 草野 華余子 (LIVE LAB.) 毛蟹 Akita Horie 堀江晶太 rock jpop j-pop pop j-rock jrock short cut version レオナ
BeatmapID:2649404
BeatmapSetID:1274790

[Difficulty]
HPDrainRate:4
CircleSize:3.5
OverallDifficulty:4
ApproachRate:5
SliderMultiplier:1
SliderTickRate:1

[Events]
//Background and Video events
0,0,"BG.jpg",0,0
//Break Periods
2,36485,45407
//Storyboard Layer 0 (Background)
//Storyboard Layer 1 (Fail)
//Storyboard Layer 2 (Pass)
//Storyboard Layer 3 (Foreground)
//Storyboard Layer 4 (Overlay)
//Storyboard Sound Samples

[TimingPoints]
156,322.58064516129,4,2,1,70,1,0
5478,-100,4,2,1,80,0,0
5639,-100,4,2,1,70,0,0
15639,-111.111111111111,4,2,1,45,0,0
36285,-111.111111111111,4,2,1,35,0,0
36930,-111.111111111111,4,2,1,40,0,0
46607,-99.9999999999999,4,2,1,60,0,0
51768,-99.9999999999999,4,2,1,40,0,0
52091,-99.9999999999999,4,2,1,43,0,0
52414,-99.9999999999999,4,2,1,50,0,0
52736,-99.9999999999999,4,2,1,53,0,0
53059,-99.9999999999999,4,2,1,60,0,0
53381,-99.9999999999999,4,2,1,63,0,0
53704,-99.9999999999999,4,2,1,70,0,0
54349,-99.9999999999999,4,2,1,55,0,0
56607,-99.9999999999999,4,2,1,30,0,0
56930,-99.9999999999999,4,2,2,80,0,1
57091,-99.9999999999999,4,2,1,90,0,1
57252,-99.9999999999999,4,2,1,80,0,1
67252,-99.9999999999999,4,2,2,80,0,1
67414,-99.9999999999999,4,2,1,90,0,1
67575,-99.9999999999999,4,2,1,80,0,1
80639,-99.9999999999999,4,2,1,65,0,1
81123,-99.9999999999999,4,2,1,50,0,1
81446,-99.9999999999999,4,2,1,30,0,0
82724,322.58064516129,4,2,1,43,1,0

[Colours]
Combo1 : 160,213,243
Combo2 : 254,248,129
Combo3 : 105,156,214
Combo4 : 219,148,142
SliderTrackOverride : 30,30,30
SliderBorder : 255,255,250

[HitObjects]
73,29,5317,5,6,3:2:0:0:
73,29,5478,2,0,P|60:90|47:159,1,100,0|0,3:0|0:0,0:0:0:0:
76,171,5962,1,10,0:0:0:0:
168,133,6285,1,2,3:2:0:0:
168,133,6446,2,0,P|224:143|291:153,1,100,0|8,3:0|0:0,0:0:0:0:
309,123,6930,1,2,0:0:0:0:
399,165,7252,2,0,P|420:217|395:278,1,100,10|2,0:0|0:0,0:0:0:0:
361,345,7897,5,2,3:2:0:0:
361,345,8059,2,0,P|289:336|256:335,1,100,0|0,3:0|0:0,0:0:0:0:
224,300,8543,1,10,0:0:0:0:
141,355,8865,1,2,3:2:0:0:
141,355,9026,2,0,P|115:311|130:256,1,100,0|8,3:0|0:0,0:0:0:0:
152,224,9510,1,2,0:0:0:0:
69,166,9833,2,0,L|12:178,2,50,10|0|2,0:0|0:0|0:0,0:0:0:0:
139,95,10478,5,2,3:2:0:0:
139,95,10639,2,0,P|182:125|258:129,1,100,0|0,3:0|0:0,0:0:0:0:
267,102,11123,1,10,0:0:0:0:
366,75,11446,1,2,3:2:0:0:
366,75,11607,2,0,L|351:202,1,100,0|8,3:0|0:0,0:0:0:0:
321,212,12091,1,2,0:0:0:0:
394,280,12414,2,0,P|432:284|482:243,1,100,10|2,0:0|0:0,0:0:0:0:
469,153,13059,5,2,3:2:0:0:
469,153,13220,2,0,P|468:92|475:36,1,100,0|0,3:0|0:0,0:0:0:0:
448,8,13704,1,10,0:0:0:0:
367,67,14026,1,2,3:2:0:0:
367,67,14188,2,0,P|311:78|270:45,1,100,0|8,3:0|0:0,0:0:0:0:
256,10,14672,2,0,L|196:-6,1,50,2|8,3:2|0:0,0:0:0:0:
163,20,14994,2,0,L|101:2,2,50,10|8|4,0:0|3:0|3:0,0:0:0:0:
206,98,15639,6,0,L|225:255,1,134.999995880127,6|2,3:2|0:0,0:0:0:0:
204,274,16285,1,10,0:0:0:0:
315,359,16768,1,2,3:2:0:0:
315,359,16930,2,0,P|357:347|420:338,1,89.9999972534181,2|2,0:0|0:0,0:0:0:0:
451,263,17575,1,8,0:0:0:0:
348,176,18059,1,2,0:0:0:0:
348,176,18220,6,0,P|362:119|372:50,1,89.9999972534181,2|0,3:2|0:0,0:0:0:0:
313,16,18865,2,0,P|265:12|226:62,1,89.9999972534181,10|2,0:0|3:2,0:0:0:0:
204,71,19349,1,2,3:2:0:0:
204,71,19510,2,0,L|102:54,2,89.9999972534181,2|2|10,0:0|0:0|0:0,0:0:0:0:
272,129,20478,1,2,0:0:0:0:
212,196,20801,5,2,3:2:0:0:
212,196,20962,2,0,P|221:253|233:339,1,134.999995880127,0|10,3:0|0:0,0:0:0:0:
152,367,21768,1,2,3:2:0:0:
152,367,21930,2,0,P|86:354|56:347,1,89.9999972534181,0|8,3:0|0:0,0:0:0:0:
28,320,22414,1,0,3:0:0:0:
87,252,22736,2,0,P|100:198|83:154,1,89.9999972534181,8|2,0:0|0:0,0:0:0:0:
20,117,23381,5,2,3:2:0:0:
20,117,23543,2,0,L|46:5,1,89.9999972534181,0|0,3:0|0:0,0:0:0:0:
77,3,24026,1,10,0:0:0:0:
137,69,24349,1,2,3:2:0:0:
221,38,24672,2,0,L|327:19,1,89.9999972534181,2|2,0:0|0:0,0:0:0:0:
398,34,25317,2,0,P|424:82|410:135,1,89.9999972534181,10|0,0:0|0:0,0:0:0:0:
368,189,25962,6,0,L|390:334,1,134.999995880127,2|2,3:2|0:0,0:0:0:0:
356,355,26607,1,10,0:0:0:0:
240,294,27091,1,2,3:2:0:0:
240,294,27252,2,0,L|141:313,1,89.9999972534181,2|2,0:0|0:0,0:0:0:0:
75,262,27897,1,8,0:0:0:0:
132,141,28382,5,2,3:2:0:0:
132,141,28543,2,0,L|228:156,1,89.9999972534181,0|2,3:0|0:0,0:0:0:0:
280,87,29188,1,10,0:0:0:0:
357,133,29510,2,0,L|410:143,1,44.999998626709,2|2,3:2|0:0,0:0:0:0:
445,132,29833,2,0,P|460:177|439:223,1,89.9999972534181,2|2,0:0|0:0,0:0:0:0:
396,290,30478,2,0,L|287:266,1,89.9999972534181,10|2,0:0|0:0,0:0:0:0:
237,224,31123,5,2,3:2:0:0:
237,224,31285,2,0,P|174:254|89:268,1,134.999995880127,0|10,3:0|0:0,0:0:0:0:
42,216,32091,1,2,3:2:0:0:
42,216,32252,2,0,P|55:166|63:115,1,89.9999972534181,0|8,3:0|0:0,0:0:0:0:
32,93,32736,1,0,3:0:0:0:
113,53,33059,2,0,P|159:83|167:128,1,89.9999972534181,8|2,0:0|0:0,0:0:0:0:
241,175,33704,5,2,3:2:0:0:
241,175,33865,2,0,P|218:228|213:271,1,89.9999972534181,0|0,3:0|0:0,0:0:0:0:
227,302,34349,1,10,0:0:0:0:
304,357,34672,1,2,3:2:0:0:
304,357,34833,2,0,L|400:339,1,89.9999972534181,0|8,3:0|0:0,0:0:0:0:
427,311,35317,1,2,3:2:0:0:
390,228,35639,2,0,L|396:180,1,44.999998626709,10|0,0:0|0:0,0:0:0:0:
429,153,35962,2,0,L|435:105,1,44.999998626709,8|8,0:0|0:0,0:0:0:0:
407,72,36285,1,4,0:3:0:0:
61,55,46607,6,0,L|78:174,1,100,4|8,3:2|0:0,0:0:0:0:
56,200,47091,1,8,0:0:0:0:
56,200,47252,1,10,0:0:0:0:
133,263,47575,1,8,0:0:0:0:
214,204,47897,2,0,L|207:120,2,50,10|8|10,3:2|0:0|0:0,0:0:0:0:
292,266,48543,2,0,P|336:272|391:212,1,100,10|10,3:2|0:0,0:0:0:0:
470,197,49188,6,0,P|456:123|456:73,1,100,10|8,3:2|0:0,0:0:0:0:
491,64,49672,1,8,0:0:0:0:
491,64,49833,1,10,0:0:0:0:
412,2,50155,1,8,0:0:0:0:
344,75,50478,2,0,P|350:102|358:136,2,50,10|8|10,3:2|0:0|0:0,0:0:0:0:
247,47,51123,2,0,P|223:87|230:144,1,100,10|10,3:2|0:0,0:0:0:0:
203,235,51768,6,0,B|251:219|251:219|313:250,2,100,14|8|0,3:2|0:0|3:0,0:0:0:0:
121,293,52736,1,8,0:0:0:0:
192,363,53059,2,0,L|314:350,1,100,0|8,3:0|3:2,0:0:0:0:
371,292,53704,1,8,0:0:0:0:
467,315,54026,1,10,3:2:0:0:
256,192,54349,12,0,55801,0:0:0:0:
42,38,56930,6,0,L|102:54,1,50,14|0,3:2|3:0,0:0:0:0:
119,91,57252,2,0,P|167:75|256:76,1,100,2|10,0:0|0:0,0:0:0:0:
316,100,57897,1,2,3:2:0:0:
316,100,58059,2,0,B|330:56|330:56|300:-11,2,100,2|10|2,3:2|0:0|3:2,0:0:0:0:
286,140,58865,1,8,0:0:0:0:
359,207,59188,1,4,3:0:0:0:
295,284,59510,6,0,L|231:269,1,50,6|2,3:2|3:2,0:0:0:0:
208,239,59833,2,0,P|162:255|85:274,1,100,2|10,0:0|0:0,0:0:0:0:
29,221,60478,1,2,3:2:0:0:
29,221,60639,2,0,B|6:269|6:269|38:333,2,100,2|10|2,3:2|0:0|3:2,0:0:0:0:
61,182,61446,1,8,0:0:0:0:
6,98,61768,1,4,3:0:0:0:
89,42,62091,6,0,L|152:59,1,50,6|0,3:2|3:0,0:0:0:0:
179,81,62414,2,0,P|196:137|169:182,1,100,2|10,0:0|0:0,0:0:0:0:
220,263,63059,2,0,L|289:252,1,50,2|2,3:2|3:2,0:0:0:0:
315,273,63381,1,2,0:0:0:0:
315,273,63543,2,0,L|414:258,1,100,10|2,0:0|3:2,0:0:0:0:
449,223,64026,1,8,0:0:0:0:
383,147,64349,1,2,0:0:0:0:
465,78,64672,5,2,3:2:0:0:
465,78,64833,2,0,P|431:29|365:22,1,100,0|2,3:0|0:0,0:0:0:0:
349,37,65317,1,8,0:0:0:0:
253,44,65639,1,2,3:2:0:0:
253,44,65801,2,0,P|270:110|271:167,1,100,0|10,3:0|0:0,0:0:0:0:
241,181,66285,1,2,3:2:0:0:
173,254,66607,1,0,3:0:0:0:
75,232,66930,1,4,3:0:0:0:
41,137,67252,6,0,L|52:69,1,50,14|0,3:2|3:0,0:0:0:0:
51,37,67575,2,0,P|96:19|163:52,1,100,2|10,0:0|0:0,0:0:0:0:
210,114,68220,1,2,3:2:0:0:
210,114,68381,2,0,B|178:157|178:157|175:223,2,100,2|10|2,3:2|0:0|3:2,0:0:0:0:
253,88,69188,1,8,0:0:0:0:
321,160,69510,1,4,3:0:0:0:
396,91,69833,6,0,P|406:51|403:13,1,50,6|0,3:2|3:0,0:0:0:0:
381,1,70155,2,0,L|261:13,1,100,2|10,0:0|0:0,0:0:0:0:
193,56,70801,1,2,3:2:0:0:
193,56,70962,2,0,B|141:45|141:45|107:-9,2,100,2|10|2,3:2|0:0|3:2,0:0:0:0:
223,95,71768,1,8,0:0:0:0:
150,164,72091,1,4,3:0:0:0:
218,236,72414,6,0,L|230:298,1,50,6|0,3:2|3:0,0:0:0:0:
229,334,72736,2,0,P|155:368|98:345,1,100,2|10,0:0|0:0,0:0:0:0:
56,310,73381,1,2,3:2:0:0:
56,310,73543,2,0,P|68:252|74:200,1,100,2|10,3:2|0:0,0:0:0:0:
44,170,74026,1,0,3:0:0:0:
100,87,74349,2,0,L|165:102,1,50,8|8,0:0|3:0,0:0:0:0:
189,128,74672,2,0,L|237:116,1,50,2|0,3:2|3:0,0:0:0:0:
269,78,74994,5,6,3:2:0:0:
353,144,75317,1,0,3:0:0:0:
353,144,75478,2,0,P|365:92|378:35,1,100,10|0,0:0|3:0,0:0:0:0:
420,24,75962,1,10,0:0:0:0:
478,105,76285,2,0,L|490:169,1,50,0|2,3:0|0:0,0:0:0:0:
478,203,76607,2,0,L|498:309,1,100,8|10,0:0|0:0,0:0:0:0:
429,375,77252,1,8,3:0:0:0:
345,319,77575,6,0,P|284:327|245:367,1,100,6|0,3:2|3:0,0:0:0:0:
210,341,78059,1,0,3:0:0:0:
210,341,78220,2,0,P|150:369|91:343,1,100,8|2,0:0|3:2,0:0:0:0:
56,284,78865,2,0,L|79:170,1,100,8|2,0:0|3:2,0:0:0:0:
115,154,79349,1,0,3:0:0:0:
115,154,79510,1,10,0:0:0:0:
196,212,79833,1,2,3:2:0:0:
282,162,80155,6,0,B|281:104|281:104|268:73|268:73|265:-3,2,150,14|8|8,0:0|0:0|0:0,0:0:0:0:
256,192,81446,12,2,82724,0:0:0:0:
