osu file format v14

[General]
AudioFilename: audio.mp3
AudioLeadIn: 0
PreviewTime: 56756
Countdown: 0
SampleSet: Soft
StackLeniency: 0.4
Mode: 0
LetterboxInBreaks: 0
WidescreenStoryboard: 1

[Editor]
DistanceSpacing: 1.8
BeatDivisor: 4
GridSize: 32
TimelineZoom: 2.5

[Metadata]
Title:Untitled world
TitleUnicode:Untitled world
Artist:ReoNa
ArtistUnicode:ReoNa
Creator:Petal
Version:Hard
Source:明日方舟
Tags:Arknights アークナイツ Japanese Video Game gacha agatsu matha gary00737 アンタイトル ワールド 草野 華余子 (LIVE LAB.) 毛蟹 Akita Horie 堀江晶太 rock jpop j-pop pop j-rock jrock short cut version レオナ
BeatmapID:2649427
BeatmapSetID:1274790

[Difficulty]
HPDrainRate:4.8
CircleSize:3.7
OverallDifficulty:6
ApproachRate:7.5
SliderMultiplier:1.25
SliderTickRate:1

[Events]
//Background and Video events
0,0,"BG.jpg",0,0
//Break Periods
2,36485,45782
//Storyboard Layer 0 (Background)
//Storyboard Layer 1 (Fail)
//Storyboard Layer 2 (Pass)
//Storyboard Layer 3 (Foreground)
//Storyboard Layer 4 (Overlay)
//Storyboard Sound Samples

[TimingPoints]
156,322.58064516129,4,2,1,70,1,0
5478,-100,4,2,1,80,0,0
5639,-100,4,2,1,70,0,0
15639,-125,4,2,1,45,0,0
36285,-125,4,2,1,35,0,0
36930,-125,4,2,1,40,0,0
46607,-111.111111111111,4,2,1,60,0,0
51768,-111.111111111111,4,2,1,40,0,0
52091,-111.111111111111,4,2,1,43,0,0
52414,-111.111111111111,4,2,1,50,0,0
52736,-111.111111111111,4,2,1,53,0,0
53059,-111.111111111111,4,2,1,60,0,0
53381,-111.111111111111,4,2,1,63,0,0
53704,-111.111111111111,4,2,1,70,0,0
54349,-111.111111111111,4,2,1,55,0,0
56607,-111.111111111111,4,2,1,30,0,0
56930,-100,4,2,2,80,0,1
57091,-100,4,2,1,90,0,1
57252,-100,4,2,1,80,0,1
67252,-100,4,2,2,80,0,1
67414,-100,4,2,1,90,0,1
67575,-100,4,2,1,80,0,1
80639,-100,4,2,1,65,0,1
81123,-100,4,2,1,50,0,1
81446,-100,4,2,1,30,0,0
82724,322.58064516129,4,2,1,43,1,0

[Colours]
Combo1 : 160,213,243
Combo2 : 254,248,129
Combo3 : 105,156,214
Combo4 : 219,148,142
SliderTrackOverride : 30,30,30
SliderBorder : 255,255,250

[HitObjects]
9,25,5317,5,6,3:2:0:0:
75,81,5478,2,0,P|60:135|46:222,1,125,0|0,3:0|0:0,0:0:0:0:
67,288,5962,2,0,L|142:269,1,62.5,10|0,0:0|0:0,0:0:0:0:
203,317,6285,1,2,3:2:0:0:
259,250,6446,6,0,B|334:262|290:293|389:308,1,125,0|10,3:0|0:0,0:0:0:0:
453,325,6930,2,0,P|478:289|475:253,1,62.5,2|0,0:0|3:0,0:0:0:0:
419,207,7252,2,0,L|403:119,1,62.5,10|0,0:0|0:0,0:0:0:0:
475,89,7575,2,0,L|491:1,1,62.5,2|0,0:0|0:0,0:0:0:0:
401,6,7897,5,2,3:2:0:0:
331,59,8059,2,0,B|256:71|300:102|201:117,1,125,0|0,3:0|0:0,0:0:0:0:
138,82,8543,2,0,L|66:98,1,62.5,10|0,0:0|0:0,0:0:0:0:
23,164,8865,1,2,3:2:0:0:
91,218,9026,2,0,P|110:257|89:341,1,125,0|8,3:0|0:0,0:0:0:0:
173,371,9510,2,0,L|245:361,1,62.5,2|0,0:0|3:0,0:0:0:0:
292,296,9833,2,0,L|282:224,1,62.5,10|0,0:0|0:0,0:0:0:0:
211,184,10155,2,0,L|202:113,1,62.5,2|0,0:0|0:0,0:0:0:0:
257,52,10478,5,2,3:2:0:0:
325,106,10639,2,0,P|391:113|457:146,1,125,0|0,3:0|0:0,0:0:0:0:
506,198,11123,2,0,P|492:233|480:266,1,62.5,10|0,0:0|0:0,0:0:0:0:
492,343,11446,1,2,3:2:0:0:
406,323,11607,6,0,B|333:324|359:373|281:368,1,125,0|8,3:0|0:0,0:0:0:0:
222,316,12091,1,2,0:0:0:0:
150,366,12252,1,0,3:0:0:0:
80,312,12414,2,0,P|64:274|65:230,1,62.5,10|0,0:0|0:0,0:0:0:0:
142,218,12736,2,0,P|158:180|157:136,1,62.5,2|0,0:0|0:0,0:0:0:0:
132,75,13059,5,2,3:2:0:0:
45,84,13220,2,0,P|14:132|-3:207,1,125,0|0,3:0|0:0,0:0:0:0:
61,253,13704,2,0,P|65:283|78:311,1,62.5,10|0,0:0|0:0,0:0:0:0:
150,366,14026,1,2,3:2:0:0:
222,316,14188,6,0,P|274:305|358:338,1,125,0|8,3:0|0:0,0:0:0:0:
420,362,14672,1,2,3:2:0:0:
482,301,14833,2,0,L|520:308,2,31.25,8|8|10,0:0|0:0|0:0,0:0:0:0:
420,238,15155,1,8,3:0:0:0:
474,169,15317,2,0,L|455:86,1,62.5,4|0,3:0|0:0,0:0:0:0:
394,53,15639,6,0,P|341:38|260:97,1,150,6|2,3:2|0:0,0:0:0:0:
214,155,16285,2,0,L|111:132,1,100,10|0,0:0|3:0,0:0:0:0:
35,146,16768,1,2,3:2:0:0:
35,146,16930,2,0,L|42:208,1,50,2|8,0:0|0:0,0:0:0:0:
103,253,17252,2,0,L|108:302,1,50,2|0,0:0|3:0,0:0:0:0:
40,355,17575,1,8,0:0:0:0:
208,378,17897,1,0,0:0:0:0:
307,240,18220,6,0,B|270:166|331:178|290:90,1,150,2|0,3:2|0:0,0:0:0:0:
241,26,18865,2,0,P|292:58|378:21,1,150,10|2,0:0|3:2,0:0:0:0:
452,57,19510,2,0,L|462:114,1,50,2|8,0:0|0:0,0:0:0:0:
390,154,19833,2,0,L|380:211,1,50,2|0,0:0|3:0,0:0:0:0:
425,275,20155,2,0,L|486:265,2,50,10|0|2,0:0|0:0|0:0,0:0:0:0:
291,364,20801,6,0,B|253:356|253:356|235:340|235:340|195:332,1,100,2|2,3:2|0:0,0:0:0:0:
42,299,21446,2,0,P|32:255|67:198,1,100,10|2,0:0|3:2,0:0:0:0:
130,168,21930,1,0,3:0:0:0:
46,32,22252,2,0,L|-3:50,2,50,8|0|0,0:0|3:0|3:0,0:0:0:0:
125,18,22736,2,0,P|170:33|231:55,1,100,8|2,0:0|0:0,0:0:0:0:
318,192,23381,6,0,P|271:200|214:221,1,100,2|2,3:2|0:0,0:0:0:0:
76,305,24026,2,0,P|123:313|180:334,1,100,10|2,0:0|3:2,0:0:0:0:
243,377,24510,1,0,3:0:0:0:
313,328,24672,2,0,P|360:311|409:302,2,100,2|2|10,0:0|0:0|0:0,0:0:0:0:
203,198,25639,1,0,0:0:0:0:
358,60,25962,6,0,P|445:96|451:149,1,150,2|2,3:2|0:0,0:0:0:0:
416,219,26607,2,0,L|310:202,1,100,10|0,0:0|3:0,0:0:0:0:
235,212,27091,1,2,3:2:0:0:
235,212,27252,2,0,L|242:261,1,50,2|8,0:0|0:0,0:0:0:0:
185,324,27575,2,0,P|144:337|124:327,1,50,2|0,0:0|3:0,0:0:0:0:
57,311,27897,1,8,0:0:0:0:
1,149,28220,1,0,0:0:0:0:
149,65,28543,6,0,B|208:75|208:75|230:90|230:90|311:102,1,150,2|2,3:2|0:0,0:0:0:0:
348,163,29188,2,0,P|405:157|436:114,1,100,10|2,0:0|3:2,0:0:0:0:
435,43,29672,1,2,3:2:0:0:
435,43,29833,2,0,L|368:54,1,50,2|8,0:0|0:0,0:0:0:0:
307,18,30155,1,2,0:0:0:0:
137,2,30478,1,10,0:0:0:0:
49,147,30801,2,0,L|68:210,1,50,2|2,0:0|0:0,0:0:0:0:
97,272,31123,6,0,P|144:235|191:240,1,100,2|2,3:2|0:0,0:0:0:0:
360,210,31768,2,0,P|338:255|323:304,1,100,10|2,0:0|3:2,0:0:0:0:
372,378,32252,2,0,B|433:384|412:349|478:346,1,100,0|8,3:0|0:0,0:0:0:0:
512,272,32736,1,0,0:0:0:0:
512,272,32897,1,0,3:0:0:0:
450,206,33059,2,0,L|462:143,1,50,8|0,0:0|0:0,0:0:0:0:
509,82,33381,1,2,0:0:0:0:
351,22,33704,6,0,P|306:40|245:50,1,100,2|0,3:2|0:0,0:0:0:0:
89,12,34349,2,0,P|56:34|41:103,1,100,10|2,0:0|3:2,0:0:0:0:
99,149,34833,1,0,3:0:0:0:
99,149,34994,6,0,L|119:258,1,100,2|2,0:0|3:2,0:0:0:0:
179,314,35478,1,8,0:0:0:0:
179,314,35559,1,8,0:0:0:0:
179,314,35639,2,0,L|243:303,1,50,10|0,0:0|0:0,0:0:0:0:
296,259,35962,2,0,L|345:267,1,50,8|8,0:0|0:0,0:0:0:0:
401,328,36285,5,4,0:3:0:0:
24,39,46607,6,0,P|68:43|144:69,1,112.499996566773,4|8,3:2|0:0,0:0:0:0:
216,50,47091,1,8,0:0:0:0:
216,50,47252,1,10,0:0:0:0:
378,96,47575,2,0,L|418:113,3,28.1249991416931,8|8|8|8,0:0|0:0|0:0|0:0,0:0:0:0:
441,125,47897,2,0,P|428:166|423:189,1,56.2499982833863,10|8,3:2|0:0,0:0:0:0:
347,213,48220,2,0,P|356:255|363:277,1,56.2499982833863,10|8,0:0|0:0,0:0:0:0:
423,323,48543,1,10,3:2:0:0:
258,360,48865,2,0,L|214:353,3,28.1249991416931,10|8|8|8,0:0|0:0|0:0|0:0,0:0:0:0:
197,327,49188,6,0,P|148:291|76:299,1,112.499996566773,10|8,3:2|0:0,0:0:0:0:
31,246,49672,1,8,0:0:0:0:
31,246,49833,1,10,0:0:0:0:
162,141,50155,2,0,L|171:108,3,28.1249991416931,8|8|8|8,0:0|0:0|0:0|0:0,0:0:0:0:
158,72,50478,2,0,L|173:9,1,56.2499982833863,10|8,3:2|0:0,0:0:0:0:
254,5,50801,2,0,L|316:16,1,56.2499982833863,10|8,0:0|0:0,0:0:0:0:
333,95,51123,2,0,L|322:158,1,56.2499982833863,10|0,3:2|0:0,0:0:0:0:
272,217,51446,2,0,L|285:263,3,28.1249991416931,10|8|8|8,0:0|0:0|0:0|0:0,0:0:0:0:
307,276,51768,6,0,P|346:285|409:238,1,112.499996566773,10|8,3:2|0:0,0:0:0:0:
333,95,52414,2,0,P|294:86|231:133,1,112.499996566773,0|8,3:0|0:0,0:0:0:0:
122,335,53059,5,0,3:0:0:0:
284,289,53381,1,8,3:2:0:0:
235,122,53704,1,8,0:0:0:0:
74,174,54026,1,10,3:2:0:0:
256,192,54349,12,0,55962,0:0:0:0:
30,38,56930,6,0,L|103:51,1,62.5,14|0,3:2|3:0,0:0:0:0:
146,116,57252,2,0,L|213:103,1,62.5,2|0,0:0|0:0,0:0:0:0:
281,57,57575,2,0,P|257:115|253:189,1,125,10|2,0:0|3:2,0:0:0:0:
336,200,58059,6,0,P|360:142|364:68,2,125,2|10|2,3:2|0:0|3:2,0:0:0:0:
272,260,58865,1,8,0:0:0:0:
297,343,59026,1,0,3:0:0:0:
383,360,59188,2,0,P|425:341|453:336,1,62.5,4|2,3:0|0:2,0:0:0:0:
489,265,59510,5,6,3:2:0:0:
440,191,59672,1,2,3:2:0:0:
501,128,59833,2,0,L|479:53,1,62.5,2|0,0:0|0:0,0:0:0:0:
401,36,60155,2,0,P|357:62|325:64,1,62.5,10|0,0:0|0:0,0:0:0:0:
267,24,60478,1,2,3:2:0:0:
212,92,60639,6,0,P|221:157|246:216,2,125,2|10|2,3:2|0:0|3:2,0:0:0:0:
267,24,61446,1,8,0:0:0:0:
92,9,61768,2,0,L|77:78,1,62.5,4|2,3:0|0:0,0:0:0:0:
27,141,62091,6,0,L|39:214,1,62.5,6|0,3:2|3:0,0:0:0:0:
98,266,62414,2,0,P|132:247|175:244,1,62.5,2|0,0:0|0:0,0:0:0:0:
215,305,62736,2,0,P|249:324|292:327,1,62.5,10|0,0:0|0:0,0:0:0:0:
338,271,63059,1,2,3:2:0:0:
409,321,63220,1,2,3:2:0:0:
452,245,63381,2,0,L|523:265,2,62.5,2|10|0,0:0|0:0|0:0,0:0:0:0:
423,161,63865,1,2,3:2:0:0:
356,104,64026,2,0,P|314:107|230:157,1,125,8|2,0:0|0:0,0:0:0:0:
69,182,64672,6,0,P|7:138|12:74,1,125,2|0,3:2|0:0,0:0:0:0:
45,17,65155,1,2,0:0:0:0:
121,59,65317,2,0,L|250:38,1,125,8|2,0:0|3:2,0:0:0:0:
318,86,65801,6,0,B|385:105|356:134|449:151,1,125,0|10,3:0|0:0,0:0:0:0:
485,210,66285,1,2,3:2:0:0:
423,271,66446,1,8,0:0:0:0:
340,242,66607,2,0,L|268:258,1,62.5,0|2,3:0|3:2,0:0:0:0:
225,320,66930,1,4,3:0:0:0:
149,279,67091,1,4,3:0:0:0:
83,337,67252,6,0,P|55:303|53:266,1,62.5,14|0,3:2|3:0,0:0:0:0:
11,207,67575,2,0,P|33:169|67:154,1,62.5,2|0,0:0|0:0,0:0:0:0:
116,104,67897,2,0,L|254:137,1,125,10|2,0:0|3:2,0:0:0:0:
260,48,68381,6,0,L|138:18,2,125,2|10|2,3:2|0:0|3:2,0:0:0:0:
322,109,69188,1,8,0:0:0:0:
396,63,69349,1,0,3:0:0:0:
451,130,69510,2,0,L|471:215,1,62.5,4|2,3:0|0:0,0:0:0:0:
417,264,69833,6,0,P|372:288|349:286,1,62.5,6|0,3:2|3:0,0:0:0:0:
288,336,70155,2,0,P|240:317|205:318,1,62.5,2|0,0:0|0:0,0:0:0:0:
155,363,70478,2,0,L|133:223,1,125,10|2,0:0|3:2,0:0:0:0:
49,256,70962,6,0,L|68:379,2,125,2|10|2,3:2|0:0|3:2,0:0:0:0:
86,177,71768,1,8,0:0:0:0:
37,103,71930,1,0,3:0:0:0:
115,64,72091,2,0,L|196:83,1,62.5,4|2,3:0|0:0,0:0:0:0:
220,154,72414,6,0,P|260:142|288:115,1,62.5,6|0,3:2|3:0,0:0:0:0:
333,64,72736,2,0,L|314:0,1,62.5,2|0,0:0|0:0,0:0:0:0:
225,13,73059,2,0,B|140:21|182:61|94:65,1,125,10|2,0:0|3:2,0:0:0:0:
37,103,73543,2,0,P|85:109|132:186,1,125,2|10,3:2|0:0,0:0:0:0:
83,240,74026,1,0,3:0:0:0:
139,314,74188,1,2,3:2:0:0:
139,314,74268,1,8,0:0:0:0:
139,314,74349,2,0,L|215:329,1,62.5,8|8,0:0|3:0,0:0:0:0:
269,377,74672,2,0,L|330:364,1,62.5,2|0,3:2|3:0,0:0:0:0:
406,301,74994,6,0,P|420:238|403:165,1,125,6|0,3:2|3:0,0:0:0:0:
416,92,75478,2,0,B|362:100|362:100|340:115|340:115|278:124,1,125,10|0,0:0|3:0,0:0:0:0:
211,100,75962,2,0,P|205:66|194:32,1,62.5,10|0,0:0|0:0,0:0:0:0:
114,8,76285,5,0,3:0:0:0:
36,49,76446,1,2,0:0:0:0:
78,125,76607,2,0,L|90:203,1,62.5,8|0,0:0|0:0,0:0:0:0:
160,236,76930,2,0,L|227:224,2,41.6666666666667,10|8|8,0:0|0:0|3:0,0:0:0:0:
123,280,77252,2,0,L|81:288,2,41.6666666666667,8|4|4,3:0|3:0|3:0,0:0:0:0:
167,318,77575,6,0,P|205:348|293:328,1,125,6|0,3:2|3:0,0:0:0:0:
363,361,78059,1,0,3:0:0:0:
420,295,78220,2,0,P|411:242|400:149,1,125,8|2,0:0|3:2,0:0:0:0:
440,92,78704,1,2,3:2:0:0:
370,38,78865,5,8,0:0:0:0:
195,21,79188,2,0,L|205:98,1,62.5,2|0,3:2|3:0,0:0:0:0:
279,125,79510,2,0,L|269:202,1,62.5,10|0,0:0|3:0,0:0:0:0:
206,247,79833,1,2,3:2:0:0:
275,321,79994,1,0,3:0:0:0:
275,321,80075,1,0,3:0:0:0:
275,321,80155,6,0,L|415:307,1,125,14|0,0:0|0:0,0:0:0:0:
479,336,80639,2,0,P|484:285|412:231,1,125,8|0,0:0|0:0,0:0:0:0:
352,208,81123,1,8,0:0:0:0:
256,192,81285,12,2,82724,0:0:0:0:
