osu file format v14

[General]
AudioFilename: audio.mp3
AudioLeadIn: 0
PreviewTime: 56756
Countdown: 0
SampleSet: Soft
StackLeniency: 0.4
Mode: 0
LetterboxInBreaks: 0
WidescreenStoryboard: 1

[Editor]
DistanceSpacing: 0.4
BeatDivisor: 4
GridSize: 32
TimelineZoom: 2.5

[Metadata]
Title:Untitled world
TitleUnicode:Untitled world
Artist:ReoNa
ArtistUnicode:ReoNa
Creator:Petal
Version:Agatsu's Insane
Source:明日方舟
Tags:Arknights アークナイツ Japanese Video Game gacha agatsu matha gary00737 アンタイトル ワールド 草野 華余子 (LIVE LAB.) 毛蟹 Akita Horie 堀江晶太 rock jpop j-pop pop j-rock jrock short cut version レオナ
BeatmapID:2649386
BeatmapSetID:1274790

[Difficulty]
HPDrainRate:5
CircleSize:4
OverallDifficulty:7.8
ApproachRate:8.8
SliderMultiplier:1.6
SliderTickRate:1

[Events]
//Background and Video events
0,0,"BG.jpg",0,0
//Break Periods
2,36484,45333
//Storyboard Layer 0 (Background)
//Storyboard Layer 1 (Fail)
//Storyboard Layer 2 (Pass)
//Storyboard Layer 3 (Foreground)
//Storyboard Layer 4 (Overlay)
//Storyboard Sound Samples

[TimingPoints]
156,322.58064516129,4,2,1,70,1,0
5317,-100,4,2,2,70,0,0
5478,-100,4,2,2,80,0,0
5639,-100,4,2,2,70,0,0
5962,-100,4,2,1,70,0,0
15317,-100,4,2,1,55,0,0
15639,-100,4,2,1,45,0,0
15801,-125,4,2,1,45,0,0
36123,-166.666666666667,4,2,1,45,0,0
36284,-166.666666666667,4,2,1,35,0,0
45962,-100,4,2,1,40,0,0
46607,-100,4,2,1,60,0,0
46930,-111.111111111111,4,2,1,60,0,0
51768,-111.111111111111,4,2,1,40,0,0
52090,-111.111111111111,4,2,1,43,0,0
52414,-111.111111111111,4,2,1,50,0,0
52736,-111.111111111111,4,2,1,53,0,0
53059,-111.111111111111,4,2,1,60,0,0
53381,-111.111111111111,4,2,1,63,0,0
53704,-111.111111111111,4,2,1,70,0,0
54349,-200,4,2,1,45,0,0
55962,-333.333333333333,4,2,1,35,0,0
56607,-333.333333333333,4,2,1,30,0,0
56930,-100,4,2,2,80,0,1
57091,-100,4,2,2,90,0,1
57252,-100,4,2,2,80,0,1
57575,-100,4,2,1,80,0,1
67091,-100,4,2,1,80,0,0
67252,-100,4,2,2,80,0,1
67414,-100,4,2,2,90,0,1
67575,-100,4,2,2,80,0,1
67897,-100,4,2,1,80,0,1
77575,-111.111111111111,4,2,1,80,0,1
80155,-100,4,2,1,80,0,1
80639,-100,4,2,1,65,0,1
81123,-100,4,2,1,50,0,1
81446,-100,4,2,1,20,0,0
82724,322.58064516129,4,2,1,30,1,0

[Colours]
Combo1 : 160,213,243
Combo2 : 254,248,129
Combo3 : 105,156,214
Combo4 : 219,148,142
SliderTrackOverride : 30,30,30
SliderBorder : 255,255,250

[HitObjects]
58,289,5317,5,6,3:2:0:0:
202,215,5478,2,0,B|293:229|263:267|344:287,1,160,0|0,3:0|0:0,0:0:0:0:
495,143,5962,2,0,P|455:162|413:178,1,80,10|0,0:0|0:0,0:0:0:0:
483,296,6285,1,2,3:2:0:0:
335,363,6446,6,0,P|330:318|350:272,1,80,0|2,3:0|0:0,0:0:0:0:
495,143,6768,2,0,P|509:217|477:306,1,160,8|0,0:0|3:0,0:0:0:0:
318,186,7252,2,0,B|237:192|253:241|172:256,1,160,10|2,0:0|0:0,0:0:0:0:
10,376,7897,5,2,3:2:0:0:
88,218,8059,2,0,P|135:268|122:360,1,160,0|0,3:0|0:0,0:0:0:0:
269,251,8543,2,0,P|312:264|357:277,1,80,10|0,0:0|0:0,0:0:0:0:
422,342,8865,1,2,3:2:0:0:
499,202,9026,6,0,P|514:249|506:298,1,80,0|2,3:0|0:0,0:0:0:0:
334,146,9349,2,0,B|396:133|396:133|419:106|419:106|492:89,1,160,8|0,0:0|3:0,0:0:0:0:
209,84,9833,2,0,P|227:161|210:238,1,160,10|2,0:0|0:0,0:0:0:0:
17,96,10478,5,2,3:2:0:0:
164,0,10639,2,0,P|257:15|308:64,1,160,0|0,3:0|0:0,0:0:0:0:
309,262,11123,2,0,P|303:218|317:169,1,80,10|0,0:0|0:0,0:0:0:0:
419,51,11446,1,2,3:2:0:0:
487,120,11607,6,0,P|493:164|479:213,1,80,0|0,3:0|0:0,0:0:0:0:
384,159,11930,2,0,P|345:166|309:183,2,80,8|2|0,0:0|0:0|3:0,0:0:0:0:
511,333,12414,2,0,P|457:332|373:251,1,160,10|2,0:0|0:0,0:0:0:0:
183,317,13059,5,2,3:2:0:0:
258,249,13220,2,0,B|249:163|308:179|294:86,1,160,0|0,3:0|0:0,0:0:0:0:
155,216,13704,2,0,P|117:227|61:237,1,80,10|0,0:0|0:0,0:0:0:0:
276,352,14026,1,2,3:2:0:0:
354,286,14188,6,0,P|362:249|344:189,1,80,0|2,3:0|0:0,0:0:0:0:
234,6,14510,2,0,P|222:81|253:171,1,160,8|8,0:0|0:0,0:0:0:0:
246,160,14914,1,8,0:0:0:0:
246,160,14994,1,10,0:0:0:0:
133,288,15155,1,8,3:0:0:0:
233,267,15317,1,4,3:0:0:0:
153,194,15478,1,4,3:0:0:0:
15,330,15639,5,6,3:2:0:0:
19,233,15801,2,0,B|93:242|74:282|154:291,1,128,0|2,3:0|0:0,0:0:0:0:
273,375,16285,2,0,P|333:361|426:349,1,128,10|0,0:0|3:0,0:0:0:0:
398,351,16768,1,2,3:2:0:0:
497,307,16930,6,0,P|507:349|501:387,1,64,2|8,0:0|0:0,0:0:0:0:
405,231,17252,2,0,P|419:169|400:97,2,128,2|8|0,0:0|0:0|0:0,0:0:0:0:
405,231,18059,1,2,0:0:0:0:
286,297,18220,5,2,3:2:0:0:
202,250,18381,2,0,B|134:264|154:297|74:312,1,128,0|0,3:0|0:0,0:0:0:0:
216,120,18865,1,10,0:0:0:0:
222,130,19188,1,2,3:2:0:0:
114,194,19349,1,2,3:2:0:0:
202,250,19510,6,0,P|237:255|275:265,1,64,2|8,0:0|0:0,0:0:0:0:
16,325,19833,2,0,P|0:262|20:182,2,128,2|10|2,0:0|0:0|0:0,0:0:0:0:
207,151,20801,6,0,P|209:116|191:69,1,64,2|0,3:2|3:0,0:0:0:0:
292,226,21123,2,0,P|342:254|365:329,1,128,2|10,0:0|0:0,0:0:0:0:
512,110,21768,1,2,3:2:0:0:
401,172,21930,6,0,P|434:180|482:196,1,64,0|0,3:0|0:0,0:0:0:0:
331,82,22252,2,0,B|265:92|278:123|217:139,1,128,8|0,0:0|3:0,0:0:0:0:
305,278,22736,1,8,0:0:0:0:
295,284,23059,2,0,P|264:275|217:265,1,64,2|0,0:0|0:0,0:0:0:0:
114,376,23381,6,0,P|112:343|132:296,1,64,2|0,3:2|3:0,0:0:0:0:
11,153,23704,2,0,P|16:229|-6:287,2,128,2|10|2,0:0|0:0|3:2,0:0:0:0:
151,203,24510,1,0,3:0:0:0:
175,112,24672,6,0,P|146:110|94:127,1,64,2|8,0:0|0:0,0:0:0:0:
128,295,24994,2,0,P|157:297|209:280,1,64,2|0,0:0|3:0,0:0:0:0:
286,153,25317,2,0,P|281:77|303:19,1,128,10|0,0:0|0:0,0:0:0:0:
469,168,25962,5,2,3:2:0:0:
509,71,26123,2,0,P|451:72|374:110,1,128,0|2,3:0|0:0,0:0:0:0:
380,333,26607,2,0,P|390:283|359:188,1,128,10|0,0:0|3:0,0:0:0:0:
286,318,27091,1,2,3:2:0:0:
197,361,27252,6,0,P|189:323|197:275,1,64,2|8,0:0|0:0,0:0:0:0:
113,236,27575,2,0,B|44:248|62:276|-6:294,1,128,2|8,0:0|0:0,0:0:0:0:
212,108,28220,2,0,P|199:148|193:184,1,64,0|2,0:0|0:0,0:0:0:0:
93,99,28543,5,2,3:2:0:0:
15,56,28704,2,0,P|62:61|126:0,1,128,0|2,3:0|0:0,0:0:0:0:
212,108,29188,2,0,L|357:132,1,128,10|2,0:0|3:2,0:0:0:0:
266,202,29672,1,2,3:2:0:0:
374,258,29833,6,0,L|457:239,1,64,2|8,0:0|0:0,0:0:0:0:
266,202,30155,2,0,P|236:284|246:345,2,128,2|10|2,0:0|0:0|0:0,0:0:0:0:
374,258,30962,1,2,0:0:0:0:
475,142,31123,6,0,P|442:152|403:161,1,64,2|0,3:2|3:0,0:0:0:0:
507,303,31446,2,0,P|452:325|422:403,1,128,2|10,0:0|0:0,0:0:0:0:
248,228,32091,5,2,3:2:0:0:
168,284,32252,2,0,P|157:321|162:358,1,64,0|0,3:0|0:0,0:0:0:0:
339,266,32575,2,0,P|352:209|332:131,1,128,8|0,0:0|3:0,0:0:0:0:
421,4,33059,2,0,L|274:34,1,128,8|2,0:0|0:0,0:0:0:0:
93,189,33704,6,0,P|92:155|108:115,1,64,2|0,3:2|3:0,0:0:0:0:
195,276,34026,2,0,P|247:299|279:370,2,128,2|10|2,0:0|0:0|3:2,0:0:0:0:
109,325,34833,1,0,3:0:0:0:
204,166,34994,2,0,P|238:174|286:184,1,64,2|8,0:0|0:0,0:0:0:0:
416,305,35317,1,2,3:2:0:0:
512,158,35478,5,8,0:0:0:0:
512,158,35559,1,8,0:0:0:0:
512,158,35639,1,10,0:0:0:0:
348,247,35801,1,0,0:0:0:0:
511,353,35962,1,8,0:0:0:0:
453,237,36123,6,0,L|440:291,1,47.9999999999999,8|4,0:0|0:3,0:0:0:0:
58,55,45962,6,0,B|-15:47|-27:141|31:202|65:114|141:180|116:287|33:265,1,320,2|4,3:2|3:2,0:0:0:0:
170,55,46930,6,0,P|206:67|244:76,1,72.0000000000001,8|8,0:0|0:0,0:0:0:0:
353,191,47252,2,0,P|415:222|433:290,1,144,10|8,0:0|0:0,0:0:0:0:
374,340,47736,1,8,0:0:0:0:
275,279,47897,6,0,P|227:291|184:296,1,72.0000000000001,10|8,3:2|0:0,0:0:0:0:
82,384,48220,2,0,P|70:319|99:227,1,144,10|10,0:0|3:2,0:0:0:0:
230,74,48865,1,10,0:0:0:0:
172,16,49026,5,8,0:0:0:0:
172,16,49107,1,8,0:0:0:0:
172,16,49188,2,0,P|116:39|86:120,1,144,10|8,3:2|0:0,0:0:0:0:
140,295,49672,1,8,0:0:0:0:
202,238,49833,2,0,P|206:203|190:152,1,72.0000000000001,10|0,0:0|0:0,0:0:0:0:
355,293,50155,5,8,0:0:0:0:
355,293,50236,1,8,0:0:0:0:
355,293,50317,1,8,0:0:0:0:
355,293,50397,1,8,0:0:0:0:
355,293,50478,2,0,L|520:322,1,144,10|10,3:2|0:0,0:0:0:0:
425,229,50962,1,8,0:0:0:0:
504,118,51123,2,0,L|413:137,1,72.0000000000001,10|0,3:2|0:0,0:0:0:0:
272,10,51446,5,10,0:0:0:0:
272,10,51526,1,8,0:0:0:0:
272,10,51607,1,8,0:0:0:0:
272,10,51688,1,8,0:0:0:0:
272,10,51768,2,0,P|346:40|418:37,1,143.999995605469,10|8,3:2|0:0,0:0:0:0:
152,163,52414,2,0,P|120:174|67:187,1,72.0000000000001,0|0,3:0|0:0,0:0:0:0:
201,381,52736,1,8,0:0:0:0:
260,329,52897,1,0,0:0:0:0:
154,266,53059,6,0,P|135:312|137:360,1,72.0000000000001,0|0,3:0|0:0,0:0:0:0:
326,381,53381,2,0,P|345:335|343:287,1,72.0000000000001,8|0,3:2|0:0,0:0:0:0:
149,149,53704,2,0,P|98:169|65:203,1,71.9999978027344,8|0,0:0|0:2,0:0:0:0:
133,333,54026,1,10,3:2:0:0:
243,156,54188,1,2,0:0:0:0:
22,249,54349,6,0,P|80:259|137:243,1,120,2|2,0:0|0:0,0:0:0:0:
463,230,55317,6,0,P|404:218|346:234,1,120,2|2,0:0|0:0,0:0:0:0:
407,313,55962,6,0,L|461:324,2,48.0000000000001
407,313,56930,6,0,L|311:333,1,80,14|0,3:2|3:0,0:0:0:0:
226,382,57252,2,0,P|214:335|229:274,1,80,2|0,0:0|0:0,0:0:0:0:
282,78,57575,2,0,P|311:193|295:256,1,160,10|2,0:0|3:2,0:0:0:0:
174,136,58059,6,0,P|121:150|87:157,1,80,2|0,3:2|0:0,0:0:0:0:
303,231,58381,2,0,B|394:250|355:294|456:313,1,160,10|2,0:0|3:2,0:0:0:0:
228,384,58865,2,0,P|199:269|215:206,1,160,8|4,0:0|3:0,0:0:0:0:
337,74,59349,1,2,0:2:0:0:
366,151,59510,5,6,3:2:0:0:
247,76,59672,1,2,3:2:0:0:
389,0,59833,2,0,L|484:22,1,80,2|0,0:0|0:0,0:0:0:0:
366,151,60155,2,0,P|311:173|279:278,1,160,10|2,0:0|3:2,0:0:0:0:
431,374,60639,6,0,P|436:334|413:278,1,80,2|0,3:2|0:0,0:0:0:0:
175,254,60962,2,0,P|230:276|262:381,1,160,10|2,0:0|3:2,0:0:0:0:
66,267,61446,2,0,B|55:186|116:201|93:99,1,160,8|4,0:0|3:0,0:0:0:0:
60,42,61930,1,2,0:0:0:0:
208,122,62091,6,0,P|205:73|180:24,1,80,6|0,3:2|3:0,0:0:0:0:
40,204,62414,2,0,P|35:316|60:379,2,160,2|10|2,0:0|0:0|3:2,0:0:0:0:
158,295,63220,1,2,3:2:0:0:
266,194,63381,5,2,0:0:0:0:
165,111,63543,2,0,P|153:158|165:217,1,80,10|0,0:0|0:0,0:0:0:0:
285,316,63865,1,2,3:2:0:0:
353,252,64026,2,0,P|365:205|353:146,1,80,8|0,0:0|0:0,0:0:0:0:
266,194,64349,1,2,0:0:0:0:
481,299,64510,5,0,3:0:0:0:
481,299,64591,1,0,3:0:0:0:
481,299,64672,2,0,P|500:211|484:130,1,160,2|0,3:2|0:0,0:0:0:0:
334,42,65155,1,2,0:0:0:0:
275,116,65317,2,0,P|263:163|275:222,1,80,8|0,0:0|0:0,0:0:0:0:
367,166,65639,1,2,3:2:0:0:
234,20,65801,6,0,B|149:30|170:73|66:89,1,160,0|10,3:0|0:0,0:0:0:0:
213,257,66285,2,0,P|169:245|123:236,1,80,2|8,3:2|0:0,0:0:0:0:
135,238,66526,1,8,0:0:0:0:
135,238,66607,1,0,3:0:0:0:
306,382,66768,2,0,P|313:338|303:297,1,80,2|4,3:2|3:0,0:0:0:0:
207,368,67091,1,4,3:0:0:0:
406,316,67252,6,0,P|445:324|483:335,1,80,14|0,3:2|3:0,0:0:0:0:
229,180,67575,2,0,P|214:215|217:277,1,80,2|0,0:0|0:0,0:0:0:0:
433,224,67897,2,0,P|454:158|434:63,1,160,10|2,0:0|3:2,0:0:0:0:
347,4,68381,6,0,P|332:39|335:101,1,80,2|0,3:2|0:0,0:0:0:0:
433,224,68704,2,0,P|362:267|351:373,1,160,10|2,0:0|3:2,0:0:0:0:
147,255,69188,2,0,B|59:266|87:302|-1:318,1,160,8|4,0:0|3:0,0:0:0:0:
134,362,69672,1,2,0:0:0:0:
240,298,69833,6,0,P|247:246|221:188,1,80,6|0,3:2|3:0,0:0:0:0:
131,145,70155,2,0,P|88:158|42:168,1,80,2|0,0:0|0:0,0:0:0:0:
205,0,70478,2,0,P|262:25|295:123,1,160,10|2,0:0|3:2,0:0:0:0:
431,50,70962,6,0,P|474:63|520:73,1,80,2|0,3:2|0:0,0:0:0:0:
367,204,71285,2,0,P|310:229|277:327,1,160,10|2,0:0|3:2,0:0:0:0:
480,378,71768,2,0,B|476:292|527:310|512:219,1,160,8|4,0:0|3:0,0:0:0:0:
386,322,72252,1,2,0:0:0:0:
294,219,72414,6,0,P|250:231|205:241,1,80,6|0,3:2|3:0,0:0:0:0:
117,291,72736,2,0,P|106:247|128:183,1,80,2|0,0:0|0:0,0:0:0:0:
179,37,73059,2,0,P|98:42|27:94,1,160,10|2,0:0|3:2,0:0:0:0:
266,100,73543,6,0,P|322:112|363:143,1,80,2|0,3:2|0:0,0:0:0:0:
485,294,73865,1,10,0:0:0:0:
493,197,74026,2,0,P|437:209|396:240,1,80,0|2,3:0|3:2,0:0:0:0:
417,220,74268,1,8,0:0:0:0:
417,220,74349,1,8,0:0:0:0:
314,368,74510,1,8,3:0:0:0:
404,333,74672,1,2,3:2:0:0:
323,278,74833,1,4,3:0:0:0:
412,145,74994,6,0,P|435:86|405:-29,1,160,6|0,3:2|3:0,0:0:0:0:
236,155,75478,2,0,P|213:214|243:329,1,160,10|0,0:0|3:0,0:0:0:0:
454,317,75962,2,0,P|414:267|299:236,1,160,10|0,0:0|3:0,0:0:0:0:
228,307,76446,5,2,0:0:0:0:
119,188,76607,2,0,P|108:226|111:267,1,80,8|0,0:0|0:0,0:0:0:0:
271,129,76930,5,10,0:0:0:0:
292,111,77037,2,0,P|336:122|373:140,1,53.3333333333333,8|8,0:0|3:0,0:0:0:0:
444,196,77252,5,8,3:0:0:0:
444,196,77360,1,4,3:0:0:0:
444,196,77467,1,4,3:0:0:0:
444,196,77575,6,0,P|464:125|435:39,1,144,6|0,3:2|3:0,0:0:0:0:
343,124,78059,1,0,3:0:0:0:
246,187,78220,2,0,P|226:116|255:30,1,144,8|2,0:0|3:2,0:0:0:0:
341,226,78704,1,2,3:2:0:0:
262,286,78865,6,0,L|275:372,1,72.0000000000001,8|0,0:0|3:0,0:0:0:0:
105,185,79188,2,0,L|115:113,1,72.0000000000001,2|0,3:2|3:0,0:0:0:0:
92,291,79510,2,0,L|79:377,1,72.0000000000001,10|0,0:0|3:0,0:0:0:0:
246,187,79833,2,0,L|235:115,1,72.0000000000001,2|0,3:2|3:0,0:0:0:0:
235,115,80075,1,0,3:0:0:0:
235,115,80155,6,0,P|303:88|401:110,1,160,14|0,0:0|0:0,0:0:0:0:
414,326,80639,2,0,P|356:281|326:185,1,160,8|0,0:0|0:0,0:0:0:0:
507,66,81123,2,0,P|497:138|429:212,1,160,8|0,0:0|3:0,0:0:0:0:
