osu file format v14

[General]
AudioFilename: audio.ogg
AudioLeadIn: 0
PreviewTime: 56892
Countdown: 0
SampleSet: Soft
StackLeniency: 0.7
Mode: 3
LetterboxInBreaks: 0
SpecialStyle: 0
WidescreenStoryboard: 1

[Editor]
DistanceSpacing: 0.8
BeatDivisor: 4
GridSize: 32
TimelineZoom: 2.2

[Metadata]
Title:Untitled world
TitleUnicode:Untitled world
Artist:ReoNa
ArtistUnicode:ReoNa
Creator:Yuiazu-
Version:Easy
Source:明日方舟
Tags:草野華余子 Kayoko Kusano 毛蟹 Kegani Horie Shota 堀江晶太 Arknights アークナイツ A-1 Pictures Yostar Hypergryph Doctor Amiya Japanese Rock Jrock J-rock Video Game Pin_Point KonGuuuu Paran Onii_ue Sacra Music
BeatmapID:2414963
BeatmapSetID:1157239

[Difficulty]
HPDrainRate:6.5
CircleSize:4
OverallDifficulty:7
ApproachRate:5
SliderMultiplier:1.4
SliderTickRate:1

[Events]
//Background and Video events
0,0,"1.jpg",0,0
//Break Periods
//Storyboard Layer 0 (Background)
//Storyboard Layer 1 (Fail)
//Storyboard Layer 2 (Pass)
//Storyboard Layer 3 (Foreground)
//Storyboard Layer 4 (Overlay)
//Storyboard Sound Samples
Sample,14796,0,"HHOpen.wav",50
Sample,35441,0,"HHOpen.wav",50
Sample,52538,0,"Tom3.wav",50
Sample,52860,0,"Tom3.wav",50
Sample,53505,0,"Tom3.wav",50
Sample,54150,0,"Tom3.wav",50
Sample,57699,0,"HHOpen.wav",50
Sample,58021,0,"HHOpen.wav",50
Sample,58989,0,"HHOpen.wav",50
Sample,60279,0,"HHOpen.wav",50
Sample,60602,0,"HHOpen.wav",50
Sample,61570,0,"HHOpen.wav",50
Sample,62860,0,"HHOpen.wav",50
Sample,63183,0,"HHOpen.wav",50
Sample,64150,0,"HHOpen.wav",50
Sample,64796,0,"HHOpen.wav",50
Sample,65441,0,"HHOpen.wav",50
Sample,65763,0,"HHOpen.wav",50
Sample,66409,0,"Tom1.wav",50
Sample,68021,0,"HHOpen.wav",50
Sample,68344,0,"HHOpen.wav",50
Sample,69312,0,"HHOpen.wav",50
Sample,70602,0,"HHOpen.wav",50
Sample,70925,0,"HHOpen.wav",50
Sample,71892,0,"HHOpen.wav",50
Sample,73183,0,"HHOpen.wav",50
Sample,73505,0,"HHOpen.wav",50
Sample,74150,0,"Tom1.wav",50
Sample,80763,0,"Tom3.wav",50
Sample,81247,0,"Tom3.wav",50

[TimingPoints]
280,322.58064516129,4,2,1,50,1,0
57054,-100,4,2,1,50,0,1
81247,-100,4,2,1,50,0,0

[HitObjects]
64,192,280,5,0,0:0:0:0:
192,192,602,1,0,0:0:0:0:
320,192,925,1,0,0:0:0:0:
64,192,1247,1,0,0:0:0:0:
448,192,1570,1,0,0:0:0:0:
320,192,1892,1,0,0:0:0:0:
192,192,2215,1,0,0:0:0:0:
448,192,2538,1,0,0:0:0:0:
64,192,2860,1,0,0:0:0:0:
192,192,3183,1,0,0:0:0:0:
320,192,3505,1,0,0:0:0:0:
64,192,3828,1,0,0:0:0:0:
448,192,4150,1,0,0:0:0:0:
320,192,4473,1,0,0:0:0:0:
192,192,4796,1,0,0:0:0:0:
448,192,5118,1,0,0:0:0:0:
64,192,5441,1,2,0:0:0:0:
192,192,5441,1,4,0:0:0:0:
320,192,5602,1,2,0:0:0:0:
448,192,6086,1,8,0:0:0:0:
64,192,6409,1,2,0:0:0:0:
192,192,6570,1,2,0:0:0:0:
320,192,6892,1,8,0:0:0:0:
448,192,7215,1,2,0:0:0:0:
192,192,7376,1,8,0:0:0:0:
320,192,7699,1,0,0:0:0:0:
64,192,8021,1,2,0:0:0:0:
192,192,8183,1,2,0:0:0:0:
320,192,8667,1,8,0:0:0:0:
192,192,8989,1,2,0:0:0:0:
448,192,9150,1,2,0:0:0:0:
320,192,9473,1,8,0:0:0:0:
192,192,9796,1,2,0:0:0:0:
64,192,9957,1,8,0:0:0:0:
448,192,10279,1,0,0:0:0:0:
192,192,10602,1,2,0:0:0:0:
320,192,10763,1,2,0:0:0:0:
64,192,11247,1,8,0:0:0:0:
192,192,11570,1,2,0:0:0:0:
448,192,11731,1,2,0:0:0:0:
320,192,12054,1,8,0:0:0:0:
64,192,12376,1,2,0:0:0:0:
192,192,12538,1,8,0:0:0:0:
320,192,12860,1,0,0:0:0:0:
448,192,13183,1,2,0:0:0:0:
320,192,13344,1,2,0:0:0:0:
64,192,13828,1,8,0:0:0:0:
192,192,14150,1,2,0:0:0:0:
320,192,14312,1,2,0:0:0:0:
448,192,14634,1,8,0:0:0:0:
64,192,14796,1,2,0:0:0:0:
192,192,14957,1,8,0:0:0:0:
448,192,15118,128,8,15441:0:0:0:0:
320,192,15441,1,0,0:0:0:50:Tom2.wav
64,192,15763,1,2,0:0:0:0:
192,192,15763,1,4,0:0:0:0:
320,192,15925,1,2,0:0:0:0:
192,192,16409,1,8,0:0:0:0:
448,192,16731,1,2,0:0:0:0:
64,192,16892,1,2,0:0:0:0:
320,192,17215,1,8,0:0:0:0:
192,192,17538,1,2,0:0:0:0:
64,192,17699,1,8,0:0:0:0:
320,192,18021,1,0,0:0:0:0:
448,192,18344,1,2,0:0:0:0:
192,192,18505,1,2,0:0:0:0:
320,192,18989,1,8,0:0:0:0:
64,192,19312,1,2,0:0:0:0:
448,192,19473,1,2,0:0:0:0:
192,192,19796,1,8,0:0:0:0:
320,192,20118,1,2,0:0:0:0:
448,192,20279,1,8,0:0:0:0:
64,192,20602,1,0,0:0:0:50:HHOpen.wav
320,192,20925,1,2,0:0:0:0:
192,192,21086,1,2,0:0:0:0:
448,192,21570,1,8,0:0:0:0:
64,192,21892,1,2,0:0:0:0:
320,192,22054,1,2,0:0:0:0:
192,192,22376,1,8,0:0:0:0:
448,192,22699,1,2,0:0:0:0:
320,192,22860,1,8,0:0:0:0:
64,192,23183,1,0,0:0:0:0:
192,192,23505,1,2,0:0:0:0:
448,192,23667,1,2,0:0:0:0:
320,192,24150,1,8,0:0:0:0:
192,192,24473,1,2,0:0:0:0:
320,192,24634,1,2,0:0:0:0:
64,192,24957,1,8,0:0:0:0:
448,192,25279,1,2,0:0:0:0:
320,192,25441,1,8,0:0:0:0:
192,192,25763,1,0,0:0:0:50:HHOpen.wav
448,192,26086,1,2,0:0:0:0:
64,192,26247,1,2,0:0:0:0:
320,192,26731,1,8,0:0:0:0:
192,192,27054,1,2,0:0:0:0:
448,192,27215,1,2,0:0:0:0:
320,192,27538,1,8,0:0:0:0:
64,192,27860,1,2,0:0:0:0:
192,192,28021,1,8,0:0:0:0:
448,192,28344,1,0,0:0:0:0:
320,192,28667,1,2,0:0:0:0:
64,192,28828,1,2,0:0:0:0:
192,192,29312,1,8,0:0:0:0:
448,192,29634,1,2,0:0:0:0:
192,192,29796,1,2,0:0:0:0:
320,192,30118,1,8,0:0:0:0:
64,192,30441,1,2,0:0:0:0:
192,192,30602,1,8,0:0:0:0:
320,192,30925,1,0,0:0:0:50:HHOpen.wav
448,192,31247,1,2,0:0:0:0:
192,192,31409,1,2,0:0:0:0:
320,192,31892,1,8,0:0:0:0:
64,192,32215,1,2,0:0:0:0:
448,192,32376,1,2,0:0:0:0:
192,192,32699,1,8,0:0:0:0:
448,192,33021,1,2,0:0:0:0:
320,192,33183,1,8,0:0:0:0:
64,192,33505,1,0,0:0:0:0:
192,192,33828,1,2,0:0:0:0:
448,192,33989,1,2,0:0:0:0:
320,192,34473,1,8,0:0:0:0:
448,192,34796,1,2,0:0:0:0:
192,192,34957,1,2,0:0:0:0:
64,192,35279,1,8,0:0:0:0:
320,192,35441,1,2,0:0:0:0:
192,192,35763,1,8,0:0:0:0:
448,192,35925,1,8,0:0:0:0:
64,192,36086,1,8,0:0:0:0:
320,192,36247,1,8,0:0:0:0:
192,192,36409,128,2,36731:0:0:0:0:
448,192,36731,1,0,0:0:0:0:
320,192,37054,128,0,37376:0:0:0:0:
64,192,37376,1,0,0:0:0:0:
192,192,37699,128,0,38021:0:0:0:0:
320,192,38021,1,2,0:0:0:0:
448,192,38344,128,0,38667:0:0:0:0:
192,192,38667,1,0,0:0:0:0:
64,192,38989,128,2,39312:0:0:0:0:
448,192,39312,1,0,0:0:0:0:
320,192,39634,128,0,39957:0:0:0:0:
192,192,39957,1,0,0:0:0:0:
64,192,40279,128,0,40602:0:0:0:0:
320,192,40602,1,2,0:0:0:0:
448,192,40925,128,0,41247:0:0:0:0:
64,192,41247,1,0,0:0:0:0:
192,192,41570,128,2,41892:0:0:0:0:
448,192,41892,1,0,0:0:0:0:
320,192,42215,128,0,42538:0:0:0:0:
192,192,42538,1,0,0:0:0:0:
64,192,42860,128,0,43183:0:0:0:0:
320,192,43183,1,2,0:0:0:0:
448,192,43505,128,0,43828:0:0:0:0:
64,192,43828,1,0,0:0:0:0:
192,192,44150,128,2,44473:0:0:0:0:
448,192,44473,1,0,0:0:0:0:
320,192,44796,128,0,45118:0:0:0:0:
448,192,45118,1,0,0:0:0:0:
192,192,45441,128,0,45763:0:0:0:0:
320,192,45763,1,2,0:0:0:0:
64,192,46086,128,2,46731:0:0:0:0:
192,192,46086,1,0,0:0:0:55:Tom2.wav
320,192,46731,1,2,0:0:0:0:
448,192,46731,1,4,0:0:0:0:
64,192,47054,1,8,0:0:0:0:
192,192,47215,1,8,0:0:0:0:
320,192,47376,1,8,0:0:0:0:
448,192,47699,128,8,48021:0:0:0:0:
64,192,48021,1,10,0:0:0:0:
192,192,48183,1,8,0:0:0:0:
448,192,48344,1,8,0:0:0:0:
320,192,48505,1,8,0:0:0:0:
192,192,48667,1,10,0:0:0:0:
64,192,48989,128,8,49312:0:0:0:0:
448,192,49312,1,10,0:0:0:0:
192,192,49634,1,8,0:0:0:0:
320,192,49796,1,8,0:0:0:0:
64,192,49957,1,10,0:0:0:0:
320,192,50279,128,8,50602:0:0:0:0:
448,192,50602,1,10,0:0:0:0:
64,192,50763,1,8,0:0:0:0:
192,192,50925,1,8,0:0:0:0:
320,192,51086,1,8,0:0:0:0:
448,192,51247,1,10,0:0:0:0:
192,192,51570,128,8,51892:0:0:0:0:
64,192,51892,1,2,0:0:0:0:
448,192,51892,1,4,0:0:0:0:
320,192,52215,1,8,0:0:0:0:
192,192,52538,1,2,0:0:0:0:
448,192,52860,1,8,0:0:0:0:
64,192,53183,1,10,0:0:0:0:
192,192,53183,1,0,0:0:0:50:Tom3.wav
64,192,53505,1,10,0:0:0:0:
320,192,53828,1,10,0:0:0:0:
448,192,53828,1,0,0:0:0:50:Tom3.wav
448,192,54150,1,10,0:0:0:0:
192,192,54473,128,0,55118:0:0:0:0:
320,192,55441,128,0,56086:0:0:0:0:
64,192,57054,128,2,57376:0:0:0:0:
448,192,57054,1,4,0:0:0:0:
320,192,57376,128,0,57699:0:0:0:50:HHOpen.wav
192,192,57699,1,8,0:0:0:0:
320,192,58021,1,2,0:0:0:0:
64,192,58183,1,2,0:0:0:0:
448,192,58505,128,8,58828:0:0:0:0:
320,192,58828,1,2,0:0:0:0:
64,192,58989,1,8,0:0:0:0:
192,192,59473,1,0,0:0:0:0:
320,192,59634,1,2,0:0:0:0:
448,192,59634,1,0,0:0:0:50:HHOpen.wav
64,192,59957,128,0,60279:0:0:0:50:HHOpen.wav
448,192,60279,1,8,0:0:0:0:
320,192,60602,1,2,0:0:0:0:
64,192,60763,1,2,0:0:0:0:
192,192,61086,128,8,61409:0:0:0:0:
448,192,61409,1,2,0:0:0:0:
320,192,61570,1,8,0:0:0:0:
192,192,62054,1,0,0:0:0:0:
64,192,62215,1,2,0:0:0:0:
448,192,62215,1,0,0:0:0:50:HHOpen.wav
320,192,62538,128,0,62860:0:0:0:50:HHOpen.wav
448,192,62860,1,8,0:0:0:0:
192,192,63183,1,2,0:0:0:0:
320,192,63344,1,2,0:0:0:0:
448,192,63505,1,0,0:0:0:50:HHOpen.wav
64,192,63667,1,8,0:0:0:0:
192,192,63989,1,2,0:0:0:0:
320,192,64150,1,8,0:0:0:0:
448,192,64473,128,0,64796:0:0:0:50:HHOpen.wav
64,192,64796,1,2,0:0:0:0:
192,192,64957,1,2,0:0:0:0:
448,192,65441,1,8,0:0:0:0:
320,192,65763,1,2,0:0:0:0:
64,192,65925,1,2,0:0:0:0:
192,192,66247,1,8,0:0:0:0:
320,192,66409,128,2,66731:0:0:0:0:
192,192,66731,1,2,0:0:0:0:
448,192,66892,1,0,0:0:0:50:Tom1.wav
64,192,67054,1,0,0:0:0:50:Tom2.wav
192,192,67215,1,0,0:0:0:50:Tom3.wav
320,192,67376,1,2,0:0:0:0:
448,192,67376,128,4,67699:0:0:0:0:
192,192,67699,128,0,68021:0:0:0:50:HHOpen.wav
64,192,68021,1,8,0:0:0:0:
320,192,68344,1,2,0:0:0:0:
192,192,68505,1,2,0:0:0:0:
64,192,68828,128,8,69150:0:0:0:0:
448,192,69150,1,2,0:0:0:0:
192,192,69312,1,8,0:0:0:0:
320,192,69796,1,0,0:0:0:0:
64,192,69957,1,2,0:0:0:0:
448,192,69957,1,0,0:0:0:50:HHOpen.wav
320,192,70279,128,0,70602:0:0:0:50:HHOpen.wav
192,192,70602,1,8,0:0:0:0:
64,192,70925,1,2,0:0:0:0:
448,192,71086,1,2,0:0:0:0:
192,192,71409,128,8,71731:0:0:0:0:
320,192,71731,1,2,0:0:0:0:
448,192,71892,1,8,0:0:0:0:
320,192,72376,1,0,0:0:0:0:
64,192,72538,1,2,0:0:0:0:
192,192,72538,1,0,0:0:0:50:HHOpen.wav
448,192,72860,128,0,73183:0:0:0:50:HHOpen.wav
192,192,73183,1,8,0:0:0:0:
320,192,73505,1,2,0:0:0:0:
448,192,73667,1,2,0:0:0:0:
64,192,73989,1,8,0:0:0:0:
192,192,74150,1,2,0:0:0:0:
448,192,74312,1,8,0:0:0:0:
320,192,74473,1,10,0:0:0:0:
192,192,74796,1,0,0:0:0:50:Tom2.wav
320,192,74957,1,0,0:0:0:50:Tom3.wav
64,192,75118,128,6,75441:0:0:0:0:
192,192,75441,1,2,0:0:0:0:
320,192,75602,128,8,75925:0:0:0:0:
448,192,75925,1,2,0:0:0:0:
192,192,76086,128,12,76409:0:0:0:0:
320,192,76409,1,2,0:0:0:0:
64,192,76570,1,0,0:0:0:0:
192,192,76731,1,8,0:0:0:0:
448,192,77054,128,8,77376:0:0:0:0:
320,192,77376,128,0,77699:0:0:0:50:Tom1.wav
64,192,77699,1,2,0:0:0:0:
192,192,77699,1,4,0:0:0:0:
320,192,78021,1,2,0:0:0:0:
192,192,78183,1,2,0:0:0:0:
64,192,78344,1,8,0:0:0:0:
448,192,78667,1,2,0:0:0:0:
320,192,78828,1,2,0:0:0:0:
192,192,78989,1,8,0:0:0:0:
64,192,79312,1,2,0:0:0:0:
192,192,79473,1,2,0:0:0:0:
320,192,79634,1,8,0:0:0:0:
192,192,79957,1,2,0:0:0:0:
320,192,80118,1,2,0:0:0:0:
64,192,80279,1,8,0:0:0:0:
448,192,80279,128,4,80763:0:0:0:0:
192,192,80763,128,8,81247:0:0:0:0:
320,192,81247,128,8,81570:0:0:0:0:
320,192,82860,1,0,0:0:0:0:
192,192,83183,1,0,0:0:0:0:
64,192,83505,1,0,0:0:0:0:
448,192,83828,1,0,0:0:0:0:
192,192,84150,1,0,0:0:0:0:
320,192,84473,1,0,0:0:0:0:
448,192,84796,1,0,0:0:0:0:
64,192,85118,1,0,0:0:0:0:
320,192,85441,1,0,0:0:0:0:
192,192,85763,1,0,0:0:0:0:
64,192,86086,1,0,0:0:0:0:
448,192,86409,1,0,0:0:0:0:
192,192,86731,1,0,0:0:0:0:
320,192,87054,1,0,0:0:0:0:
448,192,87376,1,0,0:0:0:0:
192,192,87699,128,0,88021:0:0:0:0:
