osu file format v14

[General]
AudioFilename: audio.mp3
AudioLeadIn: 0
PreviewTime: -1
Countdown: 1
SampleSet: Soft
StackLeniency: 0.7
Mode: 0
LetterboxInBreaks: 0
WidescreenStoryboard: 0

[Editor]
DistanceSpacing: 1
BeatDivisor: 4
GridSize: 4
TimelineZoom: 1

[Metadata]
Title:Sweet Hurt
TitleUnicode:Sweet Hurt
Artist:ReoNa
ArtistUnicode:ReoNa
Creator:kenny518646
Version:Hard
Source:HappySugarLife
Tags:HappySugarLife Sweet Hurt ED
BeatmapID:1788937
BeatmapSetID:856256

[Difficulty]
HPDrainRate:5
CircleSize:4
OverallDifficulty:6
ApproachRate:6
SliderMultiplier:1.4
SliderTickRate:1

[Events]
//Background and Video events
0,0,"未命名.png",0,0
//Break Periods
//Storyboard Layer 0 (Background)
//Storyboard Layer 1 (Fail)
//Storyboard Layer 2 (Pass)
//Storyboard Layer 3 (Foreground)
//Storyboard Sound Samples

[TimingPoints]
125,500,4,2,0,100,1,0

[HitObjects]
74,303,250,5,0,0:0:0:0:
162,246,625,1,0,0:0:0:0:
253,194,1000,1,0,0:0:0:0:
345,145,1375,1,0,0:0:0:0:
414,155,1625,6,0,P|446:167|447:169,1,35
452,270,2000,1,0,0:0:0:0:
358,318,2375,1,0,0:0:0:0:
256,346,2750,1,0,0:0:0:0:
151,353,3125,1,0,0:0:0:0:
46,353,3500,1,0,0:0:0:0:
123,282,3875,1,0,0:0:0:0:
218,237,4250,1,0,0:0:0:0:
279,204,4500,1,0,0:0:0:0:
455,89,5250,1,0,0:0:0:0:
245,91,6000,5,0,0:0:0:0:
140,77,6375,2,0,P|116:111|99:156,1,70
137,148,6750,2,0,P|137:174|111:226,2,70
206,153,7500,2,0,P|157:168|120:167,1,70
103,170,7875,1,0,0:0:0:0:
33,178,8125,1,0,0:0:0:0:
130,216,8500,1,0,0:0:0:0:
233,234,8875,2,0,P|181:259|159:265,1,70
135,271,9250,1,0,0:0:0:0:
38,330,9875,2,0,P|111:349|236:355,2,175
190,244,11750,6,0,L|104:275,1,70
329,221,12750,1,0,0:0:0:0:
299,239,12875,1,0,0:0:0:0:
338,181,13125,2,0,P|294:204|227:217,1,105
185,152,14250,1,0,0:0:0:0:
217,139,14375,1,0,0:0:0:0:
279,106,14625,2,0,P|276:152|252:201,1,70
244,200,15000,1,0,0:0:0:0:
295,246,15250,2,0,P|255:284|215:296,1,70
274,303,15625,1,0,0:0:0:0:
378,299,16000,2,0,P|328:338|252:355,1,140
163,248,17000,6,0,L|239:212,1,70
284,179,17500,2,0,L|192:151,1,70
141,96,18500,1,0,0:0:0:0:
173,82,18625,1,0,0:0:0:0:
239,61,18875,2,0,P|239:122|218:189,1,105
123,177,20000,1,0,0:0:0:0:
154,192,20125,1,0,0:0:0:0:
183,210,20250,2,0,P|246:206|301:180,1,105
412,133,21000,2,0,P|451:155|465:183,1,70
437,278,21750,2,0,B|412:263|395:239|395:239|390:273|363:301,1,105
343,287,22250,1,0,0:0:0:0:
273,292,22500,1,0,0:0:0:0:
149,225,23000,5,0,0:0:0:0:
162,192,23125,2,0,L|259:172,1,70
315,241,24125,2,0,P|355:224|347:194,1,70
333,136,24625,2,0,P|346:104|415:113,1,105
445,275,25625,5,0,0:0:0:0:
412,287,25750,1,0,0:0:0:0:
342,284,26000,2,0,L|303:235,1,35
286,248,26250,2,0,L|277:318,1,70
207,324,26750,2,0,L|165:276,1,35
182,262,27000,2,0,P|128:261|111:274,1,70
58,308,27500,1,0,0:0:0:0:
217,78,28500,5,0,0:0:0:0:
251,79,28625,1,0,0:0:0:0:
309,118,28875,2,0,P|264:150|181:164,1,140
127,208,29625,2,0,P|167:231|261:239,1,140
324,265,30375,2,0,P|298:303|198:323,1,140
177,318,31000,1,0,0:0:0:0:
145,303,31125,1,0,0:0:0:0:
204,265,31375,1,0,0:0:0:0:
201,160,31750,5,0,0:0:0:0:
231,143,31875,1,0,0:0:0:0:
417,197,33125,1,0,0:0:0:0:
396,225,33250,1,0,0:0:0:0:
376,80,34250,6,0,P|318:83|277:93,1,70
294,118,34625,2,0,P|334:150|360:235,1,140
353,266,35250,2,0,P|311:243|220:223,1,140
154,244,36000,1,0,0:0:0:0:
179,268,36125,1,0,0:0:0:0:
269,321,36500,5,0,0:0:0:0:
302,312,36625,1,0,0:0:0:0:
366,285,36875,1,0,0:0:0:0:
407,228,37125,1,0,0:0:0:0:
421,196,37250,1,0,0:0:0:0:
418,126,37500,2,0,P|360:142|324:151,1,70
280,140,38000,1,0,0:0:0:0:
275,105,38125,2,0,P|201:105|117:138,1,140
109,143,38750,1,0,0:0:0:0:
91,173,38875,1,0,0:0:0:0:
84,207,39000,1,0,0:0:0:0:
97,275,39250,1,0,0:0:0:0:
306,292,40000,6,0,L|226:232,1,70
256,215,40375,1,0,0:0:0:0:
289,204,40500,1,0,0:0:0:0:
323,198,40625,1,0,0:0:0:0:
357,190,40750,1,0,0:0:0:0:
424,171,41000,2,0,P|382:141|352:137,1,70
323,80,41500,5,0,0:0:0:0:
263,116,41750,1,0,0:0:0:0:
233,134,41875,1,0,0:0:0:0:
202,150,42000,2,0,L|164:172,1,35
140,184,42250,1,0,0:0:0:0:
175,244,42500,1,0,0:0:0:0:
145,307,42750,2,0,L|65:266,1,70
99,343,43250,2,0,L|81:271,1,70
62,171,43875,1,0,0:0:0:0:
179,95,44375,5,0,0:0:0:0:
214,95,44500,2,0,P|239:127|248:241,1,140
287,230,45125,1,0,0:0:0:0:
321,236,45250,1,0,0:0:0:0:
354,244,45375,1,0,0:0:0:0:
387,253,45500,1,0,0:0:0:0:
420,263,45625,1,4,0:0:0:0:
476,174,46000,6,0,L|408:117,1,70
417,163,46375,2,0,L|356:105,1,70
361,149,46750,2,0,L|307:93,1,70
305,133,47125,2,0,L|248:72,1,70
251,116,47500,2,0,L|206:60,1,70
156,109,48000,5,0,0:0:0:0:
138,139,48125,1,0,0:0:0:0:
125,171,48250,1,0,0:0:0:0:
101,236,48500,2,0,L|102:278,1,35
145,325,48875,2,0,P|200:286|271:271,1,140
261,340,49625,2,0,P|332:322|395:263,1,140
440,241,50375,2,0,P|428:188|353:128,1,140
334,147,51000,5,0,0:0:0:0:
304,166,51125,1,0,0:0:0:0:
236,185,51375,1,0,0:0:0:0:
208,163,51500,1,0,0:0:0:0:
141,141,51750,2,0,P|127:183|126:281,1,140
157,215,52500,2,0,P|205:236|258:291,1,105
264,299,53000,1,0,0:0:0:0:
298,300,53125,1,0,0:0:0:0:
454,159,53875,5,0,0:0:0:0:
423,142,54000,1,0,0:0:0:0:
364,103,54250,1,0,0:0:0:0:
331,89,54375,1,0,0:0:0:0:
261,82,54625,2,0,P|239:118|218:174,1,70
222,178,55000,1,0,0:0:0:0:
187,173,55125,2,0,P|151:196|112:257,1,105
145,265,55625,1,0,0:0:0:0:
191,212,55875,2,0,P|221:243|244:336,1,140
297,289,56625,5,0,0:0:0:0:
326,270,56750,1,0,0:0:0:0:
354,250,56875,1,0,0:0:0:0:
410,209,57125,1,0,0:0:0:0:
436,186,57250,1,0,0:0:0:0:
459,159,57375,2,0,P|400:142|303:149,1,140
286,148,58000,1,0,0:0:0:0:
146,148,58500,1,0,0:0:0:0:
116,166,58625,2,0,P|127:243|179:283,1,140
114,319,59375,5,0,0:0:0:0:
148,312,59500,1,0,0:0:0:0:
216,298,59750,1,0,0:0:0:0:
250,290,59875,1,0,0:0:0:0:
283,280,60000,1,0,0:0:0:0:
348,254,60250,2,0,P|381:219|375:132,1,140
440,157,61000,2,0,P|394:190|302:194,1,140
329,129,61750,2,0,P|366:156|387:234,1,105
355,271,62375,5,0,0:0:0:0:
322,283,62500,1,0,0:0:0:0:
252,288,62750,1,0,0:0:0:0:
217,289,62875,1,0,0:0:0:0:
147,285,63125,2,0,P|173:223|249:191,1,140
167,172,63875,2,0,P|193:229|263:278,1,140
312,236,64625,1,0,0:0:0:0:
376,73,65250,5,0,0:0:0:0:
345,89,65375,1,0,0:0:0:0:
283,123,65625,1,0,0:0:0:0:
253,141,65750,1,0,0:0:0:0:
223,159,65875,2,0,P|237:210|308:263,1,140
336,199,66625,2,0,P|336:238|247:278,1,140
189,261,67375,1,0,0:0:0:0:
93,114,68000,5,0,0:0:0:0:
124,99,68125,1,0,0:0:0:0:
156,86,68250,1,0,0:0:0:0:
173,153,68500,1,0,0:0:0:0:
207,149,68625,1,0,0:0:0:0:
271,175,68875,1,0,0:0:0:0:
277,244,69125,1,0,0:0:0:0:
208,259,69375,1,0,0:0:0:0:
33,268,70000,1,0,0:0:0:0:
51,297,70125,1,0,0:0:0:0:
295,306,71000,6,0,L|346:263,1,35
433,198,71625,2,0,L|391:158,1,35
233,185,72375,2,0,L|282:218,1,35
346,51,73125,1,0,0:0:0:0:
313,64,73250,1,0,0:0:0:0:
249,93,73500,2,0,L|274:138,1,35
392,183,74125,6,0,L|315:240,1,70
278,261,74625,2,0,L|202:202,1,70
91,169,75375,2,0,L|143:227,1,70
97,318,76000,1,0,0:0:0:0:
131,313,76125,1,0,0:0:0:0:
165,307,76250,2,0,L|226:281,1,35
402,247,77125,6,0,L|358:207,1,35
338,164,77500,2,0,L|278:157,1,35
179,93,78125,2,0,L|204:146,1,35
102,273,78875,1,0,0:0:0:0:
136,265,79000,1,0,0:0:0:0:
170,260,79125,2,0,L|237:251,1,35
371,306,79875,6,0,L|321:246,1,70
304,224,80250,2,0,L|217:219,1,70
152,105,81000,2,0,L|229:142,1,70
316,162,81625,1,0,0:0:0:0:
300,193,81750,1,0,0:0:0:0:
284,224,81875,2,0,L|222:281,1,70
