osu file format v14

[General]
AudioFilename: audio.mp3
AudioLeadIn: 0
PreviewTime: 55689
Countdown: 0
SampleSet: Soft
StackLeniency: 0.7
Mode: 3
LetterboxInBreaks: 0
SpecialStyle: 0
WidescreenStoryboard: 1

[Editor]
DistanceSpacing: 1
BeatDivisor: 4
GridSize: 8
TimelineZoom: 2.199999

[Metadata]
Title:Seimeisen
TitleUnicode:生命線
Artist:ReoNa
ArtistUnicode:ReoNa
Creator:by-ad
Version:Envory's Moonlight Dispersion
Source:月姫 -A piece of blue glass moon-
Tags:envory syrion- famoss Tsukihime remake op opening japanese video game pop jpop j-pop type-moon typemoon visual novel
BeatmapID:2771845
BeatmapSetID:1337052

[Difficulty]
HPDrainRate:8
CircleSize:4
OverallDifficulty:8.5
ApproachRate:5
SliderMultiplier:1.4
SliderTickRate:1

[Events]
//Background and Video events
0,0,"y_5fed7999bbac4.jpg",0,0
//Break Periods
//Storyboard Layer 0 (Background)
//Storyboard Layer 1 (Fail)
//Storyboard Layer 2 (Pass)
//Storyboard Layer 3 (Foreground)
//Storyboard Layer 4 (Overlay)
//Storyboard Sound Samples
Sample,46160,0,"LR_Tom Hit.wav",30
Sample,48983,0,"LR_Tom Hit.wav",30

[TimingPoints]
631,352.941176470588,4,2,2,40,1,0
23219,-100,4,2,1,50,0,0
56748,-62.5,4,2,1,50,0,0
56880,-250.000000000001,4,2,1,50,0,0
57013,-100,4,2,1,50,0,0
57101,-100,4,2,1,50,0,1
66983,-100,4,2,1,50,0,0
68395,-100,4,2,1,50,0,1
79689,-100,4,2,1,50,0,0
83925,-100,4,2,2,40,0,0
94160,375,4,2,2,30,1,0
94160,-94.3396226415094,4,2,2,30,0,0
94535,428.571428571429,4,2,2,30,1,0
94535,-82.6446280991736,4,2,2,30,0,0
94978,480,4,2,2,30,1,0
94978,-73.5294117647059,4,2,2,30,0,0
95443,500,4,2,2,30,1,0
95443,-70.4225352112676,4,2,2,30,0,0
95943,600,4,2,2,30,1,0
95943,-58.8235294117647,4,2,2,30,0,0
96557,731.707317073171,4,2,2,30,1,0
96557,-48.3091787439614,4,2,2,30,0,0
97283,833.333333333333,4,2,2,30,1,0
97283,-42.3728813559322,4,2,2,30,0,0

[HitObjects]
64,192,631,128,0,3454:0:0:0:0:
192,192,631,1,0,0:0:0:0:
448,192,631,1,0,0:0:0:0:
320,192,807,1,0,0:0:0:0:
192,192,983,1,0,0:0:0:0:
448,192,1160,1,0,0:0:0:0:
192,192,1336,1,0,0:0:0:0:
320,192,1513,1,0,0:0:0:0:
448,192,1689,1,0,0:0:0:0:
192,192,1866,1,0,0:0:0:0:
448,192,2042,128,0,2219:0:0:0:0:
320,192,2219,1,0,0:0:0:0:
192,192,2395,1,0,0:0:0:0:
448,192,2572,1,0,0:0:0:0:
320,192,2748,1,0,0:0:0:0:
448,192,2925,1,0,0:0:0:0:
192,192,3101,1,0,0:0:0:0:
320,192,3278,1,0,0:0:0:0:
448,192,3366,1,0,0:0:0:0:
192,192,3454,1,0,0:0:0:0:
320,192,3454,128,0,6278:0:0:0:0:
64,192,3630,1,0,0:0:0:0:
192,192,3807,1,0,0:0:0:0:
448,192,3983,1,0,0:0:0:0:
64,192,4160,1,0,0:0:0:0:
192,192,4336,1,0,0:0:0:0:
448,192,4513,1,0,0:0:0:0:
64,192,4689,1,0,0:0:0:0:
448,192,4866,1,0,0:0:0:0:
192,192,5042,1,0,0:0:0:0:
64,192,5219,1,0,0:0:0:0:
448,192,5395,1,0,0:0:0:0:
64,192,5572,1,0,0:0:0:0:
192,192,5748,1,0,0:0:0:0:
64,192,5925,1,0,0:0:0:0:
448,192,6101,1,0,0:0:0:0:
64,192,6278,128,0,9101:0:0:0:0:
192,192,6278,1,0,0:0:0:0:
320,192,6454,1,0,0:0:0:0:
448,192,6630,1,0,0:0:0:0:
192,192,6807,1,0,0:0:0:0:
448,192,6983,1,0,0:0:0:0:
320,192,7160,1,0,0:0:0:0:
192,192,7336,1,0,0:0:0:0:
448,192,7513,1,0,0:0:0:0:
192,192,7689,128,0,7866:0:0:0:0:
320,192,7866,1,0,0:0:0:0:
192,192,8042,1,0,0:0:0:0:
448,192,8219,1,0,0:0:0:0:
192,192,8395,1,0,0:0:0:0:
320,192,8572,1,0,0:0:0:0:
448,192,8748,1,0,0:0:0:0:
192,192,8925,1,0,0:0:0:0:
320,192,9013,1,0,0:0:0:0:
192,192,9101,1,0,0:0:0:0:
448,192,9101,128,0,10513:0:0:0:0:
64,192,9278,1,0,0:0:0:0:
192,192,9454,1,0,0:0:0:0:
320,192,9630,1,0,0:0:0:0:
64,192,9807,1,0,0:0:0:0:
192,192,9983,1,0,0:0:0:0:
320,192,10160,1,0,0:0:0:0:
64,192,10336,1,0,0:0:0:0:
192,192,10425,1,0,0:0:0:0:
64,192,10513,1,0,0:0:0:0:
320,192,10513,128,0,11925:0:0:0:0:
192,192,10689,1,0,0:0:0:0:
448,192,10866,1,0,0:0:0:0:
64,192,11042,1,0,0:0:0:0:
448,192,11219,1,0,0:0:0:0:
192,192,11395,1,0,0:0:0:0:
64,192,11572,1,0,0:0:0:0:
448,192,11748,1,0,0:0:0:0:
64,192,11925,128,0,13336:0:0:0:0:
192,192,11925,1,0,0:0:0:0:
448,192,12101,128,0,12278:0:0:0:0:
192,192,12278,128,0,12454:0:0:0:0:
320,192,12454,128,0,12630:0:0:0:0:
448,192,12630,128,0,12983:0:0:0:0:
320,192,12983,128,0,13160:0:0:0:0:
192,192,13160,1,0,0:0:0:0:
320,192,13248,1,0,0:0:0:0:
192,192,13336,128,0,13513:0:0:0:0:
448,192,13336,128,0,14748:0:0:0:0:
64,192,13513,128,0,13866:0:0:0:0:
320,192,13866,128,0,14042:0:0:0:0:
192,192,14042,128,0,14219:0:0:0:0:
320,192,14219,128,0,14395:0:0:0:0:
64,192,14395,128,0,14572:0:0:0:0:
320,192,14572,1,0,0:0:0:0:
192,192,14660,1,0,0:0:0:0:
64,192,14748,128,0,17572:0:0:0:0:
320,192,14748,1,0,0:0:0:0:
192,192,14925,128,0,15101:0:0:0:0:
320,192,15101,128,0,15278:0:0:0:0:
448,192,15278,128,0,15454:0:0:0:0:
320,192,15454,128,0,15807:0:0:0:0:
448,192,15807,128,0,15983:0:0:0:0:
192,192,15983,1,0,0:0:0:0:
320,192,16072,1,0,0:0:0:0:
192,192,16160,1,0,0:0:0:0:
448,192,16160,128,0,16336:0:0:0:0:
320,192,16336,128,0,16689:0:0:0:0:
448,192,16689,128,0,16866:0:0:0:0:
192,192,16866,128,0,17219:0:0:0:0:
448,192,17219,128,0,17395:0:0:0:0:
320,192,17395,128,0,18807:0:0:0:0:
192,192,17572,128,0,20395:0:0:0:0:
448,192,17572,128,0,18807:0:0:0:0:
64,192,18807,1,0,0:0:0:0:
320,192,18895,1,0,0:0:0:0:
64,192,18983,128,0,19336:0:0:0:0:
448,192,18983,1,0,0:0:0:0:
320,192,20042,128,0,20219:0:0:0:0:
448,192,20219,128,0,21630:0:0:0:0:
64,192,20395,1,0,0:0:0:0:
320,192,20395,128,0,23219:0:0:0:0:
64,192,21630,1,0,0:0:0:0:
192,192,21719,1,0,0:0:0:0:
64,192,21807,128,0,22160:0:0:0:0:
448,192,21807,1,0,0:0:0:0:
64,192,23219,1,2,0:0:0:0:
192,192,23219,1,0,0:0:0:0:
448,192,23219,1,0,0:0:0:0:
320,192,23395,128,0,23572:0:0:0:0:
448,192,23483,1,0,0:0:0:0:
64,192,23572,1,2,0:0:0:0:
192,192,23572,128,0,23748:0:0:0:0:
320,192,23748,128,0,23925:0:0:0:0:
192,192,23925,1,2,0:0:0:0:
448,192,23925,128,0,24278:0:0:0:0:
64,192,24101,1,0,0:0:0:0:
192,192,24278,128,2,24454:0:0:0:0:
320,192,24278,1,0,0:0:0:0:
64,192,24454,128,0,24630:0:0:0:0:
320,192,24630,1,2,0:0:0:0:
448,192,24630,1,0,0:0:0:50:LR_Tom Hit.wav
192,192,24719,1,0,0:0:0:50:LR_Tom Hit.wav
320,192,24807,1,0,0:0:0:50:LR_Tom Hit.wav
192,192,24895,1,0,0:0:0:50:LR_Tom Hit.wav
64,192,24983,1,2,0:0:0:0:
448,192,24983,1,0,0:0:0:50:LR_Tom Hit.wav
320,192,25160,128,0,25336:0:0:0:40:LR_Tom Normal.wav
448,192,25248,1,0,0:0:0:40:LR_Tom Normal.wav
64,192,25336,1,2,0:0:0:0:
192,192,25336,128,0,25513:0:0:0:40:LR_Tom Normal.wav
320,192,25425,1,0,0:0:0:40:LR_Tom Normal.wav
448,192,25513,128,0,25689:0:0:0:40:LR_Tom Normal.wav
64,192,25689,1,2,0:0:0:0:
320,192,25689,128,0,25866:0:0:0:0:
192,192,25866,1,0,0:0:0:0:
64,192,26042,1,2,0:0:0:0:
448,192,26042,1,0,0:0:0:0:
192,192,26219,128,0,26395:0:0:0:0:
64,192,26307,1,0,0:0:0:0:
320,192,26395,1,2,0:0:0:0:
448,192,26395,128,0,26572:0:0:0:0:
192,192,26572,1,0,0:0:0:0:
64,192,26748,128,2,27101:0:0:0:0:
320,192,26748,1,0,0:0:0:0:
448,192,26836,1,0,0:0:0:0:
192,192,26925,1,0,0:0:0:0:
192,192,27101,1,2,0:0:0:0:
448,192,27101,128,0,27278:0:0:0:0:
320,192,27278,128,0,27454:0:0:0:0:
64,192,27454,1,2,0:0:0:0:
448,192,27454,1,0,0:0:0:50:LR_Tom Hit.wav
320,192,27542,1,0,0:0:0:50:LR_Tom Hit.wav
192,192,27630,128,0,27807:0:0:0:50:LR_Tom Hit.wav
320,192,27719,1,0,0:0:0:50:LR_Tom Hit.wav
64,192,27807,1,2,0:0:0:0:
448,192,27807,1,0,0:0:0:50:LR_Tom Hit.wav
448,192,27983,128,0,28160:0:0:0:40:LR_Tom Normal.wav
64,192,28072,1,0,0:0:0:40:LR_Tom Normal.wav
192,192,28160,1,2,0:0:0:0:
320,192,28160,1,0,0:0:0:40:LR_Tom Normal.wav
64,192,28248,1,0,0:0:0:40:LR_Tom Normal.wav
192,192,28336,1,0,0:0:0:40:LR_Tom Normal.wav
64,192,28513,1,2,0:0:0:0:
448,192,28513,1,0,0:0:0:0:
64,192,28689,1,2,0:0:0:0:
320,192,28689,1,0,0:0:0:0:
192,192,28866,1,2,0:0:0:0:
448,192,28866,1,0,0:0:0:0:
320,192,29042,1,0,0:0:0:0:
448,192,29130,1,0,0:0:0:0:
64,192,29219,1,2,0:0:0:0:
192,192,29219,1,0,0:0:0:0:
448,192,29395,1,0,0:0:0:0:
64,192,29572,1,2,0:0:0:0:
320,192,29572,1,0,0:0:0:0:
192,192,29660,1,0,0:0:0:0:
320,192,29748,1,0,0:0:0:0:
64,192,29925,1,2,0:0:0:0:
448,192,29925,1,0,0:0:0:0:
320,192,30101,1,0,0:0:0:0:
64,192,30278,1,2,0:0:0:0:
192,192,30278,1,0,0:0:0:50:LR_Tom Hit.wav
320,192,30366,1,0,0:0:0:50:LR_Tom Hit.wav
192,192,30454,1,0,0:0:0:50:LR_Tom Hit.wav
320,192,30542,1,0,0:0:0:50:LR_Tom Hit.wav
64,192,30630,1,2,0:0:0:0:
448,192,30630,1,0,0:0:0:50:LR_Tom Hit.wav
192,192,30807,1,0,0:0:0:40:LR_Tom Normal.wav
64,192,30895,1,0,0:0:0:40:LR_Tom Normal.wav
320,192,30983,1,2,0:0:0:0:
448,192,30983,1,0,0:0:0:40:LR_Tom Normal.wav
192,192,31072,1,0,0:0:0:40:LR_Tom Normal.wav
320,192,31160,1,0,0:0:0:40:LR_Tom Normal.wav
64,192,31336,1,2,0:0:0:0:
448,192,31336,128,0,31513:0:0:0:0:
320,192,31513,128,0,31689:0:0:0:0:
64,192,31689,1,2,0:0:0:0:
192,192,31689,1,0,0:0:0:0:
64,192,31866,1,2,0:0:0:0:
448,192,31866,1,0,0:0:0:0:
320,192,32042,1,2,0:0:0:0:
448,192,32042,1,0,0:0:0:0:
64,192,32219,1,2,0:0:0:0:
320,192,32219,1,0,0:0:0:0:
64,192,32395,1,2,0:0:0:0:
192,192,32395,1,0,0:0:0:0:
320,192,32572,1,2,0:0:0:0:
448,192,32572,1,0,0:0:0:0:
192,192,32748,1,2,0:0:0:0:
448,192,32748,1,0,0:0:0:0:
64,192,32925,1,2,0:0:0:0:
320,192,32925,1,0,0:0:0:0:
64,192,33101,1,2,0:0:0:0:
192,192,33101,1,0,0:0:0:0:
448,192,33189,1,2,0:0:0:0:
192,192,33278,1,2,0:0:0:0:
320,192,33278,1,0,0:0:0:0:
64,192,33366,1,2,0:0:0:0:
320,192,33454,1,2,0:0:0:0:
448,192,33454,1,0,0:0:0:0:
64,192,33542,1,2,0:0:0:0:
192,192,33542,1,0,0:0:0:0:
320,192,33630,1,2,0:0:0:0:
448,192,33630,1,0,0:0:0:0:
64,192,33719,1,2,0:0:0:0:
192,192,33719,1,0,0:0:0:0:
320,192,34160,1,0,0:0:0:0:
448,192,34336,1,0,0:0:0:0:
64,192,34513,128,2,34866:0:0:0:0:
192,192,34513,128,4,34778:0:0:0:0:
320,192,34513,128,0,34733:0:0:0:0:
448,192,34513,128,0,34689:0:0:0:0:
448,192,34866,128,0,35042:0:0:0:0:
320,192,34954,128,0,35042:0:0:0:0:
64,192,35042,1,2,0:0:0:0:
192,192,35042,1,0,0:0:0:0:
448,192,35130,1,0,0:0:0:0:
64,192,35219,1,0,0:0:0:100:VEC4 Snares 019.wav
192,192,35219,1,0,0:0:0:0:
320,192,35219,1,0,0:0:0:0:
64,192,35395,1,0,0:0:0:0:
192,192,35439,1,0,0:0:0:0:
320,192,35483,1,0,0:0:0:0:
448,192,35572,128,0,35836:0:0:0:0:
320,192,35660,128,0,35836:0:0:0:0:
192,192,35748,128,0,35836:0:0:0:0:
64,192,35836,128,0,35925:0:0:0:0:
192,192,35925,128,2,36189:0:0:0:0:
320,192,35925,128,0,36101:0:0:0:0:
448,192,35925,128,0,36101:0:0:0:0:
320,192,36189,1,2,0:0:0:0:
448,192,36189,1,0,0:0:0:0:
64,192,36278,128,0,36454:0:0:0:0:
192,192,36366,128,0,36454:0:0:0:0:
320,192,36454,1,2,0:0:0:0:
448,192,36454,1,0,0:0:0:0:
64,192,36542,1,0,0:0:0:0:
192,192,36630,1,0,0:0:0:100:VEC4 Snares 019.wav
320,192,36630,1,0,0:0:0:0:
448,192,36630,1,0,0:0:0:0:
448,192,36807,1,0,0:0:0:0:
320,192,36851,1,0,0:0:0:0:
192,192,36895,1,0,0:0:0:0:
64,192,36983,128,0,37248:0:0:0:0:
192,192,37072,128,0,37248:0:0:0:0:
320,192,37160,128,0,37248:0:0:0:0:
448,192,37248,128,0,37336:0:0:0:0:
64,192,37336,128,2,37513:0:0:0:0:
192,192,37336,128,0,37601:0:0:0:0:
320,192,37336,128,0,37689:0:0:0:0:
64,192,37689,128,0,37866:0:0:0:0:
192,192,37778,128,0,37866:0:0:0:0:
320,192,37866,1,2,0:0:0:0:
448,192,37866,1,0,0:0:0:0:
64,192,37954,1,0,0:0:0:0:
192,192,38042,1,0,0:0:0:100:VEC4 Snares 019.wav
320,192,38042,1,0,0:0:0:0:
448,192,38042,1,0,0:0:0:0:
64,192,38219,1,0,0:0:0:0:
192,192,38263,1,0,0:0:0:0:
320,192,38307,1,0,0:0:0:0:
448,192,38395,128,0,38660:0:0:0:0:
320,192,38483,128,0,38660:0:0:0:0:
64,192,38572,128,0,38660:0:0:0:0:
192,192,38660,128,0,38748:0:0:0:0:
64,192,38748,128,2,38925:0:0:0:0:
320,192,38748,128,0,39013:0:0:0:0:
448,192,38748,128,0,38925:0:0:0:0:
64,192,39013,1,2,0:0:0:0:
448,192,39013,1,0,0:0:0:0:
192,192,39101,128,0,39278:0:0:0:0:
320,192,39189,128,0,39278:0:0:0:0:
64,192,39278,1,2,0:0:0:0:
448,192,39278,1,0,0:0:0:0:
192,192,39366,1,0,0:0:0:0:
64,192,39454,1,0,0:0:0:100:VEC4 Snares 019.wav
320,192,39454,1,0,0:0:0:0:
448,192,39454,1,0,0:0:0:0:
448,192,39630,1,0,0:0:0:0:
64,192,39719,1,0,0:0:0:100:VEC4 Snares 019.wav
192,192,39719,1,0,0:0:0:0:
320,192,39719,1,0,0:0:0:0:
448,192,39807,1,0,0:0:0:0:
192,192,39895,1,0,0:0:0:0:
64,192,39983,1,0,0:0:0:100:VEC4 Snares 019.wav
320,192,39983,1,0,0:0:0:0:
448,192,39983,1,0,0:0:0:0:
192,192,40072,1,0,0:0:0:0:
64,192,40160,1,0,0:0:0:0:
320,192,40513,1,2,0:0:0:0:
448,192,40513,1,0,0:0:0:0:
64,192,40601,1,2,0:0:0:0:
192,192,40601,1,0,0:0:0:0:
320,192,40689,1,2,0:0:0:0:
448,192,40689,1,0,0:0:0:0:
64,192,40778,1,2,0:0:0:0:
192,192,40866,1,0,0:0:0:100:VEC4 Snares 019.wav
320,192,40866,1,0,0:0:0:0:
448,192,40866,1,0,0:0:0:0:
192,192,41042,1,0,0:0:0:0:
320,192,41130,1,0,0:0:0:0:
448,192,41219,128,0,41483:0:0:0:0:
320,192,41307,128,0,41483:0:0:0:0:
64,192,41395,128,0,41483:0:0:0:0:
192,192,41483,128,0,41572:0:0:0:0:
64,192,41572,128,2,41836:0:0:0:0:
320,192,41572,128,0,41748:0:0:0:0:
448,192,41572,128,0,41748:0:0:0:0:
320,192,41836,1,2,0:0:0:0:
448,192,41836,1,0,0:0:0:0:
192,192,41925,128,0,42101:0:0:0:0:
320,192,42013,128,0,42101:0:0:0:0:
64,192,42101,1,2,0:0:0:0:
448,192,42101,1,0,0:0:0:0:
320,192,42189,1,0,0:0:0:0:
64,192,42278,1,0,0:0:0:100:VEC4 Snares 019.wav
192,192,42278,1,0,0:0:0:0:
448,192,42278,1,0,0:0:0:0:
448,192,42454,1,0,0:0:0:0:
320,192,42542,1,0,0:0:0:0:
64,192,42630,128,0,42895:0:0:0:0:
192,192,42719,128,0,42895:0:0:0:0:
320,192,42807,128,0,42895:0:0:0:0:
448,192,42895,128,0,42983:0:0:0:0:
64,192,42983,128,2,43160:0:0:0:0:
192,192,42983,128,0,43248:0:0:0:0:
320,192,42983,128,0,43336:0:0:0:0:
64,192,43336,128,0,43513:0:0:0:0:
192,192,43425,128,0,43513:0:0:0:0:
320,192,43513,1,2,0:0:0:0:
448,192,43513,1,0,0:0:0:0:
192,192,43601,1,0,0:0:0:0:
64,192,43689,1,0,0:0:0:100:VEC4 Snares 019.wav
320,192,43689,1,0,0:0:0:0:
448,192,43689,1,0,0:0:0:0:
192,192,43778,1,0,0:0:0:0:
64,192,43866,1,0,0:0:0:0:
320,192,43954,1,0,0:0:0:0:
448,192,44042,128,0,44307:0:0:0:0:
64,192,44130,128,0,44307:0:0:0:0:
192,192,44219,128,0,44307:0:0:0:0:
320,192,44307,128,0,44395:0:0:0:0:
64,192,44395,128,2,44572:0:0:0:0:
192,192,44395,128,0,44572:0:0:0:0:
448,192,44395,128,0,44572:0:0:0:0:
64,192,44660,1,2,0:0:0:0:
192,192,44660,1,0,0:0:0:0:
448,192,44660,1,0,0:0:0:0:
320,192,44748,1,0,0:0:0:0:
192,192,44836,1,0,0:0:0:0:
64,192,44925,1,2,0:0:0:0:
320,192,44925,1,0,0:0:0:0:
448,192,44925,1,0,0:0:0:0:
192,192,45454,1,0,0:0:0:0:
448,192,45630,1,0,0:0:0:0:
192,192,45807,1,2,0:0:0:0:
320,192,45807,1,0,0:0:0:30:LR_Tom Hit.wav
448,192,45895,1,0,0:0:0:30:LR_Tom Hit.wav
64,192,45983,1,0,0:0:0:30:LR_Tom Hit.wav
448,192,46072,1,0,0:0:0:30:LR_Tom Hit.wav
64,192,46160,1,2,0:0:0:0:
320,192,46336,1,0,0:0:0:10:LR_Tom Normal.wav
192,192,46425,1,0,0:0:0:10:LR_Tom Normal.wav
64,192,46513,1,2,0:0:0:0:
448,192,46513,1,0,0:0:0:10:LR_Tom Normal.wav
320,192,46601,1,0,0:0:0:10:LR_Tom Normal.wav
192,192,46689,1,0,0:0:0:10:LR_Tom Normal.wav
64,192,46866,1,2,0:0:0:0:
192,192,46866,1,0,0:0:0:0:
448,192,47042,1,0,0:0:0:0:
320,192,47219,1,2,0:0:0:0:
448,192,47219,1,0,0:0:0:0:
320,192,47572,1,2,0:0:0:0:
448,192,47572,1,0,0:0:0:0:
320,192,47925,1,2,0:0:0:0:
448,192,47925,1,0,0:0:0:0:
320,192,48278,1,2,0:0:0:0:
448,192,48278,1,0,0:0:0:0:
192,192,48454,1,0,0:0:0:0:
64,192,48630,1,2,0:0:0:0:
320,192,48630,1,0,0:0:0:30:LR_Tom Hit.wav
192,192,48719,1,0,0:0:0:30:LR_Tom Hit.wav
64,192,48807,1,0,0:0:0:30:LR_Tom Hit.wav
192,192,48895,1,0,0:0:0:30:LR_Tom Hit.wav
64,192,48983,1,2,0:0:0:0:
320,192,49160,1,0,0:0:0:10:LR_Tom Normal.wav
192,192,49248,1,0,0:0:0:10:LR_Tom Normal.wav
64,192,49336,1,2,0:0:0:0:
320,192,49336,1,0,0:0:0:10:LR_Tom Normal.wav
448,192,49425,1,0,0:0:0:10:LR_Tom Normal.wav
320,192,49513,1,0,0:0:0:10:LR_Tom Normal.wav
64,192,49689,1,2,0:0:0:0:
192,192,49689,1,0,0:0:0:0:
320,192,49866,1,0,0:0:0:0:
64,192,50042,1,2,0:0:0:0:
320,192,50042,1,0,0:0:0:0:
64,192,50395,1,2,0:0:0:0:
320,192,50395,1,0,0:0:0:0:
64,192,50748,1,2,0:0:0:0:
320,192,50748,128,0,50925:0:0:0:0:
192,192,50925,128,0,51101:0:0:0:0:
320,192,51101,1,2,0:0:0:0:
448,192,51101,1,0,0:0:0:0:
64,192,51278,1,2,0:0:0:0:
320,192,51278,1,0,0:0:0:0:
64,192,51454,1,2,0:0:0:0:
192,192,51454,1,4,0:0:0:0:
320,192,51454,1,0,0:0:0:70:VEC4 Snares 019.wav
448,192,51454,1,0,0:0:0:0:
64,192,51630,1,2,0:0:0:0:
192,192,51630,1,0,0:0:0:0:
192,192,51807,1,2,0:0:0:0:
320,192,51807,1,0,0:0:0:70:VEC4 Snares 019.wav
192,192,51983,1,2,0:0:0:0:
320,192,51983,1,0,0:0:0:0:
64,192,52160,1,2,0:0:0:0:
320,192,52160,1,0,0:0:0:70:VEC4 Snares 019.wav
448,192,52160,1,0,0:0:0:0:
320,192,52336,1,2,0:0:0:0:
448,192,52336,1,0,0:0:0:0:
64,192,52513,1,2,0:0:0:0:
448,192,52513,1,0,0:0:0:70:VEC4 Snares 019.wav
64,192,52689,1,2,0:0:0:0:
448,192,52689,1,0,0:0:0:0:
192,192,52866,1,2,0:0:0:0:
320,192,52866,1,0,0:0:0:70:VEC4 Snares 019.wav
448,192,52866,1,0,0:0:0:0:
64,192,53042,1,2,0:0:0:0:
320,192,53042,1,0,0:0:0:0:
192,192,53219,1,2,0:0:0:0:
448,192,53219,1,0,0:0:0:70:VEC4 Snares 019.wav
192,192,53395,1,2,0:0:0:0:
448,192,53395,1,0,0:0:0:0:
320,192,53572,1,2,0:0:0:0:
448,192,53572,1,0,0:0:0:70:VEC4 Snares 019.wav
320,192,53748,1,2,0:0:0:0:
448,192,53748,1,0,0:0:0:0:
64,192,53925,1,2,0:0:0:0:
192,192,53925,1,0,0:0:0:70:VEC4 Snares 019.wav
320,192,53925,1,0,0:0:0:0:
64,192,54101,1,2,0:0:0:0:
192,192,54101,1,0,0:0:0:0:
64,192,54278,1,2,0:0:0:0:
448,192,54278,1,0,0:0:0:70:VEC4 Snares 019.wav
192,192,54366,1,2,0:0:0:0:
320,192,54454,1,2,0:0:0:0:
448,192,54454,1,0,0:0:0:0:
64,192,54542,1,2,0:0:0:0:
192,192,54630,1,2,0:0:0:0:
448,192,54630,1,0,0:0:0:70:VEC4 Snares 019.wav
320,192,54719,1,2,0:0:0:0:
64,192,54807,1,2,0:0:0:0:
448,192,54807,1,0,0:0:0:0:
320,192,54895,1,2,0:0:0:0:
64,192,54983,1,2,0:0:0:0:
192,192,54983,1,0,0:0:0:70:VEC4 Snares 019.wav
320,192,55072,1,2,0:0:0:0:
448,192,55072,1,0,0:0:0:0:
64,192,55160,1,2,0:0:0:0:
192,192,55160,1,0,0:0:0:0:
448,192,55248,1,2,0:0:0:0:
192,192,55336,1,2,0:0:0:0:
320,192,55336,1,0,0:0:0:70:VEC4 Snares 019.wav
64,192,55425,1,2,0:0:0:0:
448,192,55425,1,0,0:0:0:0:
192,192,55513,1,2,0:0:0:0:
320,192,55513,1,0,0:0:0:0:
64,192,55601,1,2,0:0:0:0:
448,192,55601,1,0,0:0:0:0:
448,192,55866,1,0,0:0:0:0:
448,192,56042,1,0,0:0:0:0:
64,192,56219,1,0,0:0:0:0:
64,192,56395,1,0,0:0:0:70:snare_edited1.wav
192,192,56395,1,0,0:0:0:0:
448,192,56483,1,0,0:0:0:50:LR_Tom Hit.wav
320,192,56572,1,2,0:0:0:0:
192,192,56660,1,2,0:0:0:0:
64,192,56748,128,0,57013:0:0:0:100:snare_edited1.wav
320,192,56748,128,0,57013:0:0:0:0:
448,192,56748,128,0,57013:0:0:0:0:
64,192,57101,128,2,58160:0:0:0:0:
192,192,57101,1,4,0:0:0:0:
320,192,57101,1,0,0:0:0:0:
448,192,57101,1,0,0:0:0:0:
448,192,57278,1,0,0:0:0:0:
192,192,57454,1,2,0:0:0:0:
320,192,57454,1,8,0:0:0:0:
448,192,57454,1,0,0:0:0:0:
192,192,57630,1,0,0:0:0:0:
192,192,57807,1,2,0:0:0:0:
320,192,57807,1,0,0:0:0:0:
448,192,57807,1,0,0:0:0:0:
320,192,57983,1,0,0:0:0:0:
192,192,58160,1,2,0:0:0:0:
320,192,58160,128,8,58336:0:0:0:0:
448,192,58160,1,0,0:0:0:0:
448,192,58336,128,0,58689:0:0:0:0:
64,192,58513,1,2,0:0:0:0:
192,192,58513,1,0,0:0:0:0:
320,192,58513,1,0,0:0:0:0:
192,192,58689,1,0,0:0:0:0:
64,192,58866,1,8,0:0:0:0:
320,192,58866,1,2,0:0:0:0:
448,192,58866,1,0,0:0:0:0:
192,192,59042,128,0,59219:0:0:0:0:
320,192,59219,1,2,0:0:0:0:
448,192,59219,128,0,59572:0:0:0:0:
64,192,59307,1,0,0:0:0:0:
192,192,59351,1,0,0:0:0:0:
320,192,59395,1,0,0:0:0:0:
64,192,59572,1,8,0:0:0:0:
192,192,59572,128,2,59925:0:0:0:0:
320,192,59572,1,0,0:0:0:0:
448,192,59748,1,0,0:0:0:0:
64,192,59925,1,2,0:0:0:0:
320,192,59925,128,0,60983:0:0:0:0:
448,192,59925,1,0,0:0:0:0:
64,192,60101,1,0,0:0:0:0:
64,192,60278,1,2,0:0:0:0:
192,192,60278,1,8,0:0:0:0:
448,192,60278,1,0,0:0:0:0:
448,192,60454,1,0,0:0:0:0:
64,192,60630,1,2,0:0:0:0:
192,192,60630,1,0,0:0:0:0:
448,192,60719,1,0,0:0:0:0:
192,192,60763,1,0,0:0:0:0:
64,192,60807,1,0,0:0:0:0:
64,192,60983,1,2,0:0:0:0:
192,192,60983,1,8,0:0:0:0:
448,192,60983,128,0,61160:0:0:0:0:
64,192,61160,128,0,61513:0:0:0:0:
192,192,61336,1,2,0:0:0:0:
320,192,61336,1,0,0:0:0:0:
448,192,61336,1,0,0:0:0:0:
448,192,61513,1,0,0:0:0:0:
64,192,61689,1,8,0:0:0:0:
192,192,61689,1,2,0:0:0:0:
320,192,61689,1,0,0:0:0:0:
192,192,61866,128,0,62042:0:0:0:0:
64,192,62042,1,2,0:0:0:0:
320,192,62042,1,0,0:0:0:0:
448,192,62042,128,0,62219:0:0:0:0:
64,192,62219,128,0,62395:0:0:0:0:
192,192,62219,1,0,0:0:0:0:
192,192,62395,128,8,62572:0:0:0:0:
320,192,62395,1,2,0:0:0:0:
448,192,62395,1,0,0:0:0:0:
320,192,62572,128,0,62748:0:0:0:0:
64,192,62748,128,2,63983:0:0:0:0:
192,192,62748,1,0,0:0:0:0:
448,192,62748,1,0,0:0:0:0:
320,192,62925,1,0,0:0:0:0:
192,192,63101,1,2,0:0:0:0:
320,192,63101,1,8,0:0:0:0:
448,192,63101,1,0,0:0:0:0:
448,192,63278,1,0,0:0:0:0:
192,192,63454,1,2,0:0:0:0:
320,192,63454,1,0,0:0:0:0:
448,192,63542,1,0,0:0:0:0:
320,192,63586,1,0,0:0:0:0:
192,192,63630,1,0,0:0:0:0:
192,192,63807,1,2,0:0:0:0:
320,192,63807,1,8,0:0:0:0:
448,192,63807,1,0,0:0:0:0:
448,192,63983,128,0,64336:0:0:0:0:
64,192,64160,1,2,0:0:0:0:
192,192,64160,1,0,0:0:0:0:
320,192,64160,1,0,0:0:0:0:
64,192,64336,1,0,0:0:0:0:
192,192,64513,1,8,0:0:0:0:
320,192,64513,1,2,0:0:0:0:
448,192,64513,1,0,0:0:0:0:
320,192,64689,128,0,64866:0:0:0:0:
192,192,64866,1,2,0:0:0:0:
448,192,64866,128,0,65219:0:0:0:0:
64,192,64954,1,0,0:0:0:0:
192,192,64998,1,0,0:0:0:0:
320,192,65042,1,0,0:0:0:0:
64,192,65219,128,8,65572:0:0:0:0:
192,192,65219,1,2,0:0:0:0:
320,192,65219,1,0,0:0:0:0:
448,192,65395,1,0,0:0:0:0:
192,192,65572,1,2,0:0:0:0:
320,192,65572,128,0,65925:0:0:0:0:
448,192,65572,1,0,0:0:0:0:
64,192,65748,1,0,0:0:0:0:
64,192,65925,1,2,0:0:0:0:
192,192,65925,1,8,0:0:0:0:
448,192,65925,128,0,66101:0:0:0:0:
192,192,66101,128,0,66454:0:0:0:0:
64,192,66278,1,2,0:0:0:0:
320,192,66278,1,0,0:0:0:0:
448,192,66278,1,0,0:0:0:0:
320,192,66454,128,0,66630:0:0:0:0:
64,192,66630,1,2,0:0:0:0:
192,192,66630,1,8,0:0:0:0:
448,192,66630,128,0,66983:0:0:0:0:
320,192,66807,1,0,0:0:0:0:
64,192,66983,1,2,0:0:0:0:
192,192,66983,1,0,0:0:0:0:
320,192,66983,1,0,0:0:0:0:
64,192,67160,1,8,0:0:0:0:
192,192,67160,1,0,0:0:0:0:
448,192,67160,1,0,0:0:0:0:
320,192,67336,1,2,0:0:0:0:
448,192,67336,1,0,0:0:0:0:
64,192,67425,1,0,0:0:0:0:
192,192,67513,1,8,0:0:0:0:
320,192,67513,1,0,0:0:0:0:
320,192,67689,1,2,0:0:0:0:
448,192,67689,1,0,0:0:0:0:
64,192,67866,1,8,0:0:0:0:
448,192,67866,1,0,0:0:0:0:
64,192,68042,1,2,0:0:0:0:
192,192,68042,1,0,0:0:0:0:
320,192,68130,1,2,0:0:0:0:
448,192,68130,1,0,0:0:0:0:
64,192,68219,1,8,0:0:0:0:
192,192,68219,1,2,0:0:0:0:
320,192,68307,1,2,0:0:0:0:
448,192,68307,1,0,0:0:0:0:
64,192,68395,1,2,0:0:0:0:
192,192,68395,1,4,0:0:0:0:
320,192,68395,128,0,69454:0:0:0:0:
448,192,68395,1,0,0:0:0:0:
192,192,68572,1,0,0:0:0:0:
64,192,68748,1,2,0:0:0:0:
192,192,68748,1,8,0:0:0:0:
448,192,68748,1,0,0:0:0:0:
64,192,68925,1,0,0:0:0:0:
64,192,69101,1,2,0:0:0:0:
192,192,69101,1,0,0:0:0:0:
448,192,69101,1,0,0:0:0:0:
448,192,69278,1,0,0:0:0:0:
64,192,69454,1,2,0:0:0:0:
192,192,69454,128,8,69630:0:0:0:0:
448,192,69454,1,0,0:0:0:0:
64,192,69630,128,0,69983:0:0:0:0:
192,192,69807,1,2,0:0:0:0:
320,192,69807,1,0,0:0:0:0:
448,192,69807,1,0,0:0:0:0:
448,192,69983,1,0,0:0:0:0:
64,192,70160,1,8,0:0:0:0:
192,192,70160,1,2,0:0:0:0:
320,192,70160,1,0,0:0:0:0:
448,192,70336,128,0,70513:0:0:0:0:
64,192,70513,1,2,0:0:0:0:
192,192,70513,128,0,70866:0:0:0:0:
320,192,70513,1,0,0:0:0:0:
448,192,70689,1,0,0:0:0:0:
64,192,70866,1,8,0:0:0:0:
320,192,70866,1,2,0:0:0:0:
448,192,70866,128,0,71219:0:0:0:0:
192,192,71042,1,0,0:0:0:0:
64,192,71219,128,2,71572:0:0:0:0:
192,192,71219,1,0,0:0:0:0:
320,192,71219,1,0,0:0:0:0:
448,192,71395,1,0,0:0:0:0:
192,192,71572,128,2,71748:0:0:0:0:
320,192,71572,1,8,0:0:0:0:
448,192,71572,1,0,0:0:0:0:
448,192,71748,128,0,72101:0:0:0:0:
64,192,71925,1,2,0:0:0:0:
192,192,71925,1,0,0:0:0:0:
320,192,71925,1,0,0:0:0:0:
192,192,72101,128,0,72278:0:0:0:0:
64,192,72278,1,2,0:0:0:0:
320,192,72278,128,8,72630:0:0:0:0:
448,192,72278,1,0,0:0:0:0:
64,192,72454,1,0,0:0:0:0:
64,192,72630,1,2,0:0:0:0:
192,192,72630,1,0,0:0:0:0:
448,192,72630,128,0,72719:0:0:0:0:
448,192,72807,128,0,72895:0:0:0:0:
64,192,72983,1,8,0:0:0:0:
192,192,72983,1,2,0:0:0:0:
320,192,72983,128,0,73072:0:0:0:0:
320,192,73160,128,0,73248:0:0:0:0:
64,192,73336,1,2,0:0:0:0:
192,192,73336,128,0,73689:0:0:0:0:
448,192,73425,1,0,0:0:0:0:
320,192,73469,1,0,0:0:0:0:
64,192,73513,1,0,0:0:0:0:
64,192,73689,1,8,0:0:0:0:
320,192,73689,1,2,0:0:0:0:
448,192,73689,128,0,74042:0:0:0:0:
192,192,73866,1,0,0:0:0:0:
64,192,74042,128,2,75101:0:0:0:0:
192,192,74042,1,0,0:0:0:0:
320,192,74042,1,0,0:0:0:0:
448,192,74219,1,0,0:0:0:0:
192,192,74395,1,2,0:0:0:0:
320,192,74395,1,8,0:0:0:0:
448,192,74395,1,0,0:0:0:0:
192,192,74572,1,0,0:0:0:0:
320,192,74748,1,2,0:0:0:0:
448,192,74748,1,0,0:0:0:0:
192,192,74836,1,0,0:0:0:0:
320,192,74880,1,0,0:0:0:0:
448,192,74925,1,0,0:0:0:0:
192,192,75101,1,2,0:0:0:0:
320,192,75101,128,8,75278:0:0:0:0:
448,192,75101,1,0,0:0:0:0:
192,192,75278,128,0,75630:0:0:0:0:
64,192,75454,1,2,0:0:0:0:
320,192,75454,1,0,0:0:0:0:
448,192,75454,1,0,0:0:0:0:
320,192,75630,1,0,0:0:0:0:
448,192,75630,1,0,0:0:0:0:
192,192,75807,1,8,0:0:0:0:
320,192,75807,1,2,0:0:0:0:
448,192,75807,1,0,0:0:0:0:
64,192,75983,1,0,0:0:0:0:
64,192,76160,128,2,76513:0:0:0:0:
448,192,76160,1,0,0:0:0:0:
192,192,76248,1,0,0:0:0:0:
320,192,76292,1,0,0:0:0:0:
448,192,76336,1,0,0:0:0:0:
192,192,76513,1,8,0:0:0:0:
320,192,76513,1,2,0:0:0:0:
448,192,76513,128,0,76866:0:0:0:0:
320,192,76689,1,0,0:0:0:0:
64,192,76866,1,2,0:0:0:0:
192,192,76866,1,0,0:0:0:0:
64,192,77042,1,2,0:0:0:0:
320,192,77042,1,0,0:0:0:0:
192,192,77219,1,2,0:0:0:0:
448,192,77219,1,8,0:0:0:0:
320,192,77395,1,2,0:0:0:0:
448,192,77395,1,0,0:0:0:0:
64,192,77572,1,2,0:0:0:0:
320,192,77572,1,0,0:0:0:0:
64,192,77748,1,2,0:0:0:0:
192,192,77748,1,0,0:0:0:0:
320,192,77925,1,2,0:0:0:0:
448,192,77925,1,8,0:0:0:0:
64,192,78013,1,2,0:0:0:0:
192,192,78013,1,0,0:0:0:0:
320,192,78101,1,2,0:0:0:0:
448,192,78101,1,0,0:0:0:0:
64,192,78189,1,2,0:0:0:0:
192,192,78189,1,0,0:0:0:0:
320,192,78278,1,2,0:0:0:0:
448,192,78278,1,0,0:0:0:0:
64,192,78366,1,2,0:0:0:0:
192,192,78366,1,0,0:0:0:0:
320,192,78454,1,2,0:0:0:0:
448,192,78454,1,8,0:0:0:0:
192,192,78542,1,2,0:0:0:0:
64,192,78630,1,2,0:0:0:0:
448,192,78630,1,0,0:0:0:0:
192,192,78719,1,2,0:0:0:0:
320,192,78719,1,0,0:0:0:0:
64,192,78807,1,2,0:0:0:0:
448,192,78807,1,8,0:0:0:0:
192,192,78895,1,2,0:0:0:0:
320,192,78895,1,0,0:0:0:0:
64,192,78983,1,2,0:0:0:0:
448,192,78983,1,0,0:0:0:0:
320,192,79160,1,8,0:0:0:0:
192,192,79336,1,2,0:0:0:0:
448,192,79336,1,0,0:0:0:0:
64,192,79513,1,8,0:0:0:0:
64,192,79689,1,2,0:0:0:0:
192,192,79689,1,4,0:0:0:0:
320,192,79689,1,0,0:0:0:0:
448,192,79689,128,0,80748:0:0:0:0:
64,192,80748,1,2,0:0:0:0:
192,192,80748,128,0,80925:0:0:0:0:
320,192,80925,128,0,81278:0:0:0:0:
64,192,81807,1,2,0:0:0:0:
448,192,81807,128,0,82160:0:0:0:0:
64,192,82160,128,0,82513:0:0:0:0:
320,192,82513,128,2,82866:0:0:0:0:
448,192,82513,1,0,0:0:0:0:
192,192,82866,128,0,83042:0:0:0:0:
448,192,83042,128,0,83395:0:0:0:0:
192,192,83395,128,0,83572:0:0:0:0:
320,192,83572,1,2,0:0:0:0:
448,192,83572,128,0,83925:0:0:0:0:
448,192,84454,1,0,0:0:0:0:
320,192,84542,1,0,0:0:0:0:
192,192,84630,1,0,0:0:0:0:
448,192,84630,1,0,0:0:0:0:
64,192,85336,128,0,86748:0:0:0:0:
320,192,85336,128,0,85513:0:0:0:0:
448,192,85513,1,0,0:0:0:0:
192,192,85689,1,0,0:0:0:0:
320,192,85866,1,0,0:0:0:0:
448,192,86042,128,0,86219:0:0:0:0:
192,192,86219,1,0,0:0:0:0:
448,192,86395,1,0,0:0:0:0:
320,192,86572,1,0,0:0:0:0:
192,192,86748,128,0,86925:0:0:0:0:
448,192,86925,1,0,0:0:0:0:
192,192,87101,1,0,0:0:0:0:
320,192,87278,1,0,0:0:0:0:
64,192,87454,128,0,87630:0:0:0:0:
192,192,87630,1,0,0:0:0:0:
320,192,87807,1,0,0:0:0:0:
64,192,87983,1,0,0:0:0:0:
320,192,88160,128,0,88513:0:0:0:0:
192,192,88513,1,0,0:0:0:0:
320,192,88689,1,0,0:0:0:0:
448,192,88866,128,0,89219:0:0:0:0:
320,192,89219,1,0,0:0:0:0:
192,192,89395,1,0,0:0:0:0:
64,192,89572,128,0,89748:0:0:0:0:
192,192,89748,1,0,0:0:0:0:
448,192,89925,1,0,0:0:0:0:
320,192,90101,1,0,0:0:0:0:
192,192,90278,128,0,90454:0:0:0:0:
448,192,90454,1,0,0:0:0:0:
64,192,90630,1,0,0:0:0:0:
192,192,90807,1,0,0:0:0:0:
320,192,90983,128,0,92395:0:0:0:0:
64,192,91160,1,0,0:0:0:0:
448,192,91336,1,0,0:0:0:0:
192,192,91513,1,0,0:0:0:0:
64,192,91689,128,0,91866:0:0:0:0:
448,192,91866,1,0,0:0:0:0:
192,192,92042,1,0,0:0:0:0:
64,192,92219,1,0,0:0:0:0:
448,192,92395,128,0,92572:0:0:0:0:
64,192,92572,1,0,0:0:0:0:
320,192,92748,1,0,0:0:0:0:
448,192,92925,1,0,0:0:0:0:
192,192,93101,128,0,93278:0:0:0:0:
320,192,93278,1,0,0:0:0:0:
64,192,93454,1,0,0:0:0:0:
448,192,93630,1,0,0:0:0:0:
64,192,93807,128,0,93983:0:0:0:0:
320,192,93983,1,0,0:0:0:0:
192,192,94160,1,0,0:0:0:0:
448,192,94347,1,0,0:0:0:0:
320,192,94535,128,0,94749:0:0:0:0:
64,192,94749,1,0,0:0:0:0:
448,192,94978,1,0,0:0:0:0:
192,192,95218,1,0,0:0:0:0:
64,192,95443,128,0,95693:0:0:0:0:
448,192,95693,1,0,0:0:0:0:
320,192,95943,1,0,0:0:0:0:
192,192,96243,1,0,0:0:0:0:
448,192,96557,128,0,96922:0:0:0:0:
320,192,96922,1,0,0:0:0:0:
192,192,97283,1,0,0:0:0:0:
64,192,97699,128,0,98116:0:0:0:0:
