osu file format v14

[General]
AudioFilename: audio.mp3
AudioLeadIn: 0
PreviewTime: 55689
Countdown: 0
SampleSet: Soft
StackLeniency: 0.7
Mode: 3
LetterboxInBreaks: 0
SpecialStyle: 0
WidescreenStoryboard: 1

[Editor]
DistanceSpacing: 1
BeatDivisor: 4
GridSize: 8
TimelineZoom: 1.7

[Metadata]
Title:Seimeisen
TitleUnicode:生命線
Artist:ReoNa
ArtistUnicode:ReoNa
Creator:by-ad
Version:Easy
Source:月姫 -A piece of blue glass moon-
Tags:envory syrion- famoss Tsukihime remake op opening japanese video game pop jpop j-pop type-moon typemoon visual novel
BeatmapID:2771449
BeatmapSetID:1337052

[Difficulty]
HPDrainRate:7
CircleSize:4
OverallDifficulty:7
ApproachRate:5
SliderMultiplier:1.4
SliderTickRate:1

[Events]
//Background and Video events
0,0,"y_5fed7999bbac4.jpg",0,0
//Break Periods
//Storyboard Layer 0 (Background)
//Storyboard Layer 1 (Fail)
//Storyboard Layer 2 (Pass)
//Storyboard Layer 3 (Foreground)
//Storyboard Layer 4 (Overlay)
//Storyboard Sound Samples
Sample,24630,0,"LR_Tom Hit.wav",50
Sample,24983,0,"LR_Tom Hit.wav",50
Sample,25336,0,"LR_Tom Normal.wav",40
Sample,27454,0,"LR_Tom Hit.wav",50
Sample,27807,0,"LR_Tom Hit.wav",50
Sample,28160,0,"LR_Tom Normal.wav",40
Sample,30278,0,"LR_Tom Hit.wav",50
Sample,30630,0,"LR_Tom Hit.wav",50
Sample,30983,0,"LR_Tom Normal.wav",40
Sample,46160,0,"LR_Tom Hit.wav",30
Sample,46513,0,"LR_Tom Normal.wav",10
Sample,48983,0,"LR_Tom Hit.wav",30
Sample,49336,0,"LR_Tom Normal.wav",10
Sample,51807,0,"VEC4 Snares 019.wav",70
Sample,52160,0,"VEC4 Snares 019.wav",70
Sample,52513,0,"VEC4 Snares 019.wav",70
Sample,52866,0,"VEC4 Snares 019.wav",70
Sample,53219,0,"VEC4 Snares 019.wav",70
Sample,53572,0,"VEC4 Snares 019.wav",70
Sample,53925,0,"VEC4 Snares 019.wav",70
Sample,54278,0,"VEC4 Snares 019.wav",70
Sample,54630,0,"VEC4 Snares 019.wav",70
Sample,54983,0,"VEC4 Snares 019.wav",70
Sample,55336,0,"VEC4 Snares 019.wav",70

[TimingPoints]
631,352.941176470588,4,2,2,40,1,0
23219,-100.0,4,2,1,50,0,0
57101,-100.0,4,2,1,50,0,1
66983,-100.0,4,2,1,50,0,0
68395,-100.0,4,2,1,50,0,1
79689,-100.0,4,2,1,50,0,0
83925,-100.0,4,2,2,40,0,0
94160,375.0,4,2,2,30,1,0
94160,-94.3396226415094,4,2,2,30,0,0
94535,428.571428571429,4,2,2,30,1,0
94535,-82.6446280991736,4,2,2,30,0,0
94978,480.0,4,2,2,30,1,0
94978,-73.5294117647059,4,2,2,30,0,0
95443,500.0,4,2,2,30,1,0
95443,-70.4225352112676,4,2,2,30,0,0
95943,600.0,4,2,2,30,1,0
95943,-58.8235294117647,4,2,2,30,0,0
96557,731.707317073171,4,2,2,30,1,0
96557,-48.3091787439614,4,2,2,30,0,0
97283,833.333333333333,4,2,2,30,1,0
97283,-42.3728813559322,4,2,2,30,0,0

[HitObjects]
192,192,631,128,0,3454:0:0:0:0:
448,192,2042,1,0,0:0:0:0:
64,192,3278,1,0,0:0:0:0:
320,192,3454,128,0,6278:0:0:0:0:
64,192,6278,128,0,9101:0:0:0:0:
320,192,7689,1,0,0:0:0:0:
448,192,8925,1,0,0:0:0:0:
192,192,9101,128,0,10513:0:0:0:0:
64,192,10336,1,0,0:0:0:0:
320,192,10513,128,0,11925:0:0:0:0:
448,192,11925,128,0,14748:0:0:0:0:
64,192,12278,1,0,0:0:0:0:
320,192,12630,1,0,0:0:0:0:
64,192,12983,1,0,0:0:0:0:
320,192,13336,1,0,0:0:0:0:
192,192,13689,1,0,0:0:0:0:
64,192,14042,1,0,0:0:0:0:
320,192,14395,1,0,0:0:0:0:
64,192,14748,128,0,17572:0:0:0:0:
320,192,15101,1,0,0:0:0:0:
192,192,15454,1,0,0:0:0:0:
448,192,15807,1,0,0:0:0:0:
192,192,16160,1,0,0:0:0:0:
320,192,16513,1,0,0:0:0:0:
448,192,16866,1,0,0:0:0:0:
192,192,17219,1,0,0:0:0:0:
320,192,17572,128,0,20395:0:0:0:0:
448,192,17925,1,0,0:0:0:0:
64,192,18278,1,0,0:0:0:0:
192,192,18630,1,0,0:0:0:0:
448,192,18983,1,0,0:0:0:0:
192,192,19336,1,0,0:0:0:0:
448,192,19689,1,0,0:0:0:0:
64,192,20042,1,0,0:0:0:0:
192,192,20395,128,0,23219:0:0:0:0:
320,192,20748,1,0,0:0:0:0:
448,192,21101,1,0,0:0:0:0:
64,192,21454,1,0,0:0:0:0:
448,192,21807,1,0,0:0:0:0:
320,192,22160,1,0,0:0:0:0:
64,192,22513,1,0,0:0:0:0:
320,192,22866,1,0,0:0:0:0:
64,192,23219,1,2,0:0:0:0:
448,192,23219,1,0,0:0:0:0:
320,192,23572,1,2,0:0:0:0:
192,192,23925,1,2,0:0:0:0:
64,192,24278,1,2,0:0:0:0:
320,192,24630,1,2,0:0:0:0:
192,192,24807,1,0,0:0:0:50:LR_Tom Hit.wav
64,192,24983,1,2,0:0:0:0:
448,192,25336,1,2,0:0:0:0:
192,192,25689,1,2,0:0:0:0:
448,192,26042,1,2,0:0:0:0:
64,192,26395,1,2,0:0:0:0:
320,192,26748,1,2,0:0:0:0:
64,192,27101,1,2,0:0:0:0:
192,192,27454,1,2,0:0:0:0:
320,192,27630,1,0,0:0:0:50:LR_Tom Hit.wav
448,192,27807,1,2,0:0:0:0:
64,192,28160,1,2,0:0:0:0:
320,192,28513,1,2,0:0:0:0:
192,192,28689,1,2,0:0:0:0:
448,192,28866,1,2,0:0:0:0:
64,192,29219,1,2,0:0:0:0:
192,192,29572,1,2,0:0:0:0:
448,192,29925,1,2,0:0:0:0:
320,192,30278,1,2,0:0:0:0:
64,192,30454,1,0,0:0:0:50:LR_Tom Hit.wav
448,192,30630,1,2,0:0:0:0:
192,192,30983,1,2,0:0:0:0:
320,192,31336,1,2,0:0:0:0:
64,192,31689,128,2,33101:0:0:0:0:
192,192,31689,1,0,0:0:0:0:
448,192,32042,1,2,0:0:0:0:
192,192,32395,1,2,0:0:0:0:
320,192,32748,1,2,0:0:0:0:
448,192,33101,128,2,33807:0:0:0:0:
192,192,33454,128,2,33807:0:0:0:0:
320,192,34160,1,0,0:0:0:0:
64,192,34513,1,2,0:0:0:0:
448,192,34513,1,4,0:0:0:0:
192,192,35042,1,2,0:0:0:0:
320,192,35219,1,0,0:0:0:100:VEC4 Snares 019.wav
64,192,35925,1,2,0:0:0:0:
448,192,36189,1,2,0:0:0:0:
64,192,36454,1,2,0:0:0:0:
320,192,36630,1,0,0:0:0:100:VEC4 Snares 019.wav
192,192,37336,1,2,0:0:0:0:
448,192,37866,1,2,0:0:0:0:
64,192,38042,1,0,0:0:0:100:VEC4 Snares 019.wav
320,192,38748,1,2,0:0:0:0:
192,192,39013,1,2,0:0:0:0:
448,192,39278,1,2,0:0:0:0:
64,192,39454,1,0,0:0:0:100:VEC4 Snares 019.wav
320,192,39719,1,0,0:0:0:100:VEC4 Snares 019.wav
192,192,39983,1,0,0:0:0:100:VEC4 Snares 019.wav
448,192,40513,128,2,40866:0:0:0:0:
64,192,40866,1,0,0:0:0:100:VEC4 Snares 019.wav
320,192,41572,1,2,0:0:0:0:
64,192,41836,1,2,0:0:0:0:
192,192,42101,1,2,0:0:0:0:
448,192,42278,1,0,0:0:0:100:VEC4 Snares 019.wav
320,192,42983,1,2,0:0:0:0:
64,192,43513,1,2,0:0:0:0:
448,192,43689,1,0,0:0:0:100:VEC4 Snares 019.wav
192,192,44395,1,2,0:0:0:0:
448,192,44660,1,2,0:0:0:0:
192,192,44925,1,2,0:0:0:0:
320,192,45454,1,0,0:0:0:0:
64,192,45807,128,2,48630:0:0:0:0:
448,192,45807,1,0,0:0:0:30:LR_Tom Hit.wav
192,192,46160,1,2,0:0:0:0:
448,192,46513,1,2,0:0:0:0:
320,192,46866,1,2,0:0:0:0:
192,192,47219,1,2,0:0:0:0:
320,192,47572,1,2,0:0:0:0:
448,192,47925,1,2,0:0:0:0:
192,192,48278,1,2,0:0:0:0:
320,192,48630,1,2,0:0:0:0:
448,192,48630,128,0,51101:0:0:0:30:LR_Tom Hit.wav
64,192,48983,1,2,0:0:0:0:
320,192,49336,1,2,0:0:0:0:
192,192,49689,1,2,0:0:0:0:
64,192,50042,1,2,0:0:0:0:
192,192,50395,1,2,0:0:0:0:
320,192,50748,1,2,0:0:0:0:
64,192,51101,128,2,51454:0:0:0:0:
320,192,51454,1,6,0:0:0:0:
448,192,51454,1,0,0:0:0:70:VEC4 Snares 019.wav
192,192,51807,1,2,0:0:0:0:
448,192,52160,1,2,0:0:0:0:
192,192,52513,1,2,0:0:0:0:
320,192,52866,1,2,0:0:0:0:
64,192,53219,1,2,0:0:0:0:
320,192,53572,1,2,0:0:0:0:
192,192,53925,1,2,0:0:0:0:
64,192,54278,128,2,55689:0:0:0:0:
448,192,54630,1,2,0:0:0:0:
192,192,54983,1,2,0:0:0:0:
448,192,55336,1,2,0:0:0:0:
320,192,56395,128,0,56748:0:0:0:70:snare_edited1.wav
192,192,56748,128,0,57101:0:0:0:100:snare_edited1.wav
64,192,57101,1,2,0:0:0:0:
448,192,57101,128,4,59925:0:0:0:0:
320,192,57454,1,10,0:0:0:0:
64,192,57807,1,2,0:0:0:0:
192,192,58160,1,10,0:0:0:0:
320,192,58513,1,2,0:0:0:0:
64,192,58866,1,10,0:0:0:0:
320,192,59219,1,2,0:0:0:0:
192,192,59572,1,10,0:0:0:0:
64,192,59925,128,2,62748:0:0:0:0:
320,192,59925,1,0,0:0:0:0:
448,192,60278,1,10,0:0:0:0:
192,192,60630,1,2,0:0:0:0:
320,192,60983,1,10,0:0:0:0:
448,192,61336,1,2,0:0:0:0:
192,192,61689,1,10,0:0:0:0:
320,192,62042,1,2,0:0:0:0:
448,192,62395,1,10,0:0:0:0:
192,192,62748,1,2,0:0:0:0:
320,192,62748,128,0,65572:0:0:0:0:
64,192,63101,1,10,0:0:0:0:
192,192,63454,1,2,0:0:0:0:
448,192,63807,1,10,0:0:0:0:
64,192,64160,1,2,0:0:0:0:
448,192,64513,1,10,0:0:0:0:
192,192,64866,1,2,0:0:0:0:
64,192,65219,1,10,0:0:0:0:
448,192,65572,1,2,0:0:0:0:
192,192,65925,1,10,0:0:0:0:
448,192,66278,1,2,0:0:0:0:
64,192,66630,1,10,0:0:0:0:
192,192,66983,1,2,0:0:0:0:
320,192,67160,1,8,0:0:0:0:
64,192,67336,128,2,67689:0:0:0:0:
320,192,67689,128,2,68042:0:0:0:0:
192,192,68042,128,2,68395:0:0:0:0:
64,192,68395,128,2,71219:0:0:0:0:
448,192,68395,1,4,0:0:0:0:
320,192,68748,1,10,0:0:0:0:
192,192,69101,1,2,0:0:0:0:
448,192,69454,1,10,0:0:0:0:
192,192,69807,1,2,0:0:0:0:
448,192,70160,1,10,0:0:0:0:
320,192,70513,1,2,0:0:0:0:
192,192,70866,1,10,0:0:0:0:
320,192,71219,1,2,0:0:0:0:
448,192,71219,128,0,74042:0:0:0:0:
64,192,71572,1,10,0:0:0:0:
320,192,71925,1,2,0:0:0:0:
64,192,72278,1,10,0:0:0:0:
192,192,72630,1,2,0:0:0:0:
320,192,72983,1,10,0:0:0:0:
64,192,73336,1,2,0:0:0:0:
320,192,73689,1,10,0:0:0:0:
64,192,74042,1,2,0:0:0:0:
192,192,74042,128,0,76866:0:0:0:0:
448,192,74395,1,10,0:0:0:0:
64,192,74748,1,2,0:0:0:0:
320,192,75101,1,10,0:0:0:0:
448,192,75454,1,2,0:0:0:0:
64,192,75807,1,10,0:0:0:0:
320,192,76160,1,2,0:0:0:0:
64,192,76513,1,10,0:0:0:0:
320,192,76866,128,2,77925:0:0:0:0:
448,192,76866,1,0,0:0:0:0:
64,192,77219,1,10,0:0:0:0:
448,192,77572,1,2,0:0:0:0:
192,192,77925,128,10,78278:0:0:0:0:
64,192,78278,128,2,78630:0:0:0:0:
448,192,78630,128,2,78983:0:0:0:0:
192,192,78983,1,2,0:0:0:0:
192,192,79336,1,2,0:0:0:0:
64,192,79689,128,2,82513:0:0:0:0:
448,192,79689,1,4,0:0:0:0:
320,192,80748,1,2,0:0:0:0:
192,192,81807,1,2,0:0:0:0:
320,192,82513,128,2,83572:0:0:0:0:
64,192,83572,1,2,0:0:0:0:
448,192,83572,128,0,84630:0:0:0:0:
64,192,84630,128,0,85336:0:0:0:0:
192,192,85336,128,0,88160:0:0:0:0:
448,192,85689,1,0,0:0:0:0:
64,192,86042,1,0,0:0:0:0:
320,192,86395,1,0,0:0:0:0:
448,192,86748,1,0,0:0:0:0:
64,192,87101,1,0,0:0:0:0:
448,192,87454,1,0,0:0:0:0:
64,192,87807,1,0,0:0:0:0:
320,192,88160,1,0,0:0:0:0:
192,192,88513,1,0,0:0:0:0:
64,192,88866,1,0,0:0:0:0:
448,192,89219,1,0,0:0:0:0:
192,192,89572,1,0,0:0:0:0:
320,192,89925,1,0,0:0:0:0:
64,192,90278,1,0,0:0:0:0:
192,192,90630,1,0,0:0:0:0:
448,192,90983,128,0,93807:0:0:0:0:
320,192,91336,1,0,0:0:0:0:
64,192,91689,1,0,0:0:0:0:
320,192,92042,1,0,0:0:0:0:
192,192,92395,1,0,0:0:0:0:
320,192,92748,1,0,0:0:0:0:
64,192,93101,1,0,0:0:0:0:
192,192,93454,1,0,0:0:0:0:
320,192,93807,1,0,0:0:0:0:
64,192,94160,1,0,0:0:0:0:
192,192,94535,1,0,0:0:0:0:
320,192,94978,1,0,0:0:0:0:
448,192,95443,1,0,0:0:0:0:
64,192,95943,1,0,0:0:0:0:
192,192,96557,1,0,0:0:0:0:
320,192,97283,1,0,0:0:0:0:
64,192,97699,1,0,0:0:0:0:
