osu file format v14

[General]
AudioFilename: audio.mp3
AudioLeadIn: 0
PreviewTime: 55779
Countdown: 0
SampleSet: Soft
StackLeniency: 0.7
Mode: 0
LetterboxInBreaks: 0
WidescreenStoryboard: 1

[Editor]
Bookmarks: 6279,11926,54279,75631,79690
DistanceSpacing: 0.8
BeatDivisor: 4
GridSize: 8
TimelineZoom: 1.6

[Metadata]
Title:Seimeisen
TitleUnicode:生命線
Artist:ReoNa
ArtistUnicode:ReoNa
Creator:NexusQI
Version:Insane
Source:月姫 -A piece of blue glass moon-
Tags:tsukihime remake j-pop jpop pop japanese video game visual novel type moon type-moon op opening nexus electronic wub
BeatmapID:2787050
BeatmapSetID:1345793

[Difficulty]
HPDrainRate:5
CircleSize:3.8
OverallDifficulty:8
ApproachRate:9
SliderMultiplier:1.6
SliderTickRate:1

[Events]
//Background and Video events
0,0,"bg.jpg",0,0
//Break Periods
//Storyboard Layer 0 (Background)
//Storyboard Layer 1 (Fail)
//Storyboard Layer 2 (Pass)
//Storyboard Layer 3 (Foreground)
//Storyboard Layer 4 (Overlay)
//Storyboard Sound Samples

[TimingPoints]
632,352.941176470588,4,2,1,30,1,0
632,-133.333333333333,4,2,1,30,0,0
1337,-153.846153846153,4,2,1,30,0,0
6279,-133.333333333333,4,2,1,30,0,0
6984,-153.846153846153,4,2,1,30,0,0
9014,-153.846153846153,4,2,1,30,0,0
11926,-133.333333333333,4,2,1,40,0,0
23220,-105.263157894737,4,2,1,55,0,0
34161,-212.765957446809,4,2,1,55,0,0
34514,-74.0740740740741,4,2,1,70,0,0
35043,-90.9090909090909,4,2,1,70,0,0
35926,-80,4,2,1,70,0,0
36455,-90.9090909090909,4,2,1,70,0,0
37337,-74.0740740740741,4,2,1,70,0,0
37867,-90.9090909090909,4,2,1,70,0,0
38749,-80,4,2,1,70,0,0
39279,-90.9090909090909,4,2,1,70,0,0
39455,-74.0740740740741,4,2,1,70,0,0
40161,-200,4,2,1,70,0,0
40514,-90.9090909090909,4,2,1,70,0,0
41573,-80,4,2,1,70,0,0
42102,-90.9090909090909,4,2,1,70,0,0
42984,-74.0740740740741,4,2,1,70,0,0
43514,-90.9090909090909,4,2,1,70,0,0
44396,-76.9230769230769,4,2,1,70,0,0
45455,-105.263157894737,4,2,1,45,0,0
46337,-153.846153846154,4,2,1,45,0,0
48631,-105.263157894737,4,2,1,45,0,0
49161,-153.846153846154,4,2,1,45,0,0
51455,-100,4,2,1,65,0,0
56749,-250,4,2,1,65,0,0
57102,-80,4,2,3,75,0,1
79690,-111.111111111111,4,2,1,75,0,0
82514,-181.818181818182,4,2,1,45,0,0
84455,-181.818181818182,4,2,1,35,0,0

[Colours]
Combo1 : 145,160,249
Combo2 : 240,224,108

[HitObjects]
444,348,632,6,0,L|430:283,3,60.0000022888184,2|0|0|0,0:0|0:0|0:0|0:0,0:0:0:0:
365,362,1337,2,0,L|354:306,3,51.999997619629,2|0|0|0,0:0|0:0|0:0|0:0,0:0:0:0:
380,226,2043,5,2,0:0:0:0:
382,219,2220,1,0,0:0:0:0:
385,211,2396,1,0,0:0:0:0:
388,203,2573,1,0,0:0:0:0:
457,130,2749,2,0,P|464:95|451:73,1,51.999997619629,2|0,0:0|0:0,0:0:0:0:
372,8,3102,2,0,L|382:76,1,51.999997619629,0|2,0:0|0:0,0:0:0:0:
360,103,3367,1,2,0:0:0:0:
360,103,3455,6,0,L|306:95,3,51.999997619629,2|0|0|0,0:0|0:0|0:0|0:0,0:0:0:0:
233,58,4161,2,0,L|224:114,1,51.999997619629,2|0,0:0|0:0,0:0:0:0:
157,45,4514,2,0,L|146:107,1,51.999997619629
140,226,4867,5,2,0:0:0:0:
140,226,5043,1,0,0:0:0:0:
140,226,5220,1,0,0:0:0:0:
140,226,5396,1,0,0:0:0:0:
67,171,5573,2,0,L|59:101,1,51.999997619629,2|0,0:0|0:0,0:0:0:0:
13,233,5926,2,0,P|7:266|26:298,1,51.999997619629
107,367,6279,6,0,B|137:377|137:377|181:349,3,60.0000022888184,2|0|0|0,0:0|0:0|0:0|0:0,0:0:0:0:
236,317,6984,2,0,L|248:384,3,51.999997619629,2|0|0|0,0:0|0:0|0:0|0:0,0:0:0:0:
157,236,7690,5,2,0:0:0:0:
164,238,7867,1,0,0:0:0:0:
172,241,8043,1,0,0:0:0:0:
180,244,8220,1,0,0:0:0:0:
290,308,8396,2,0,L|226:320,1,51.999997619629,2|0,0:0|0:0,0:0:0:0:
341,223,8749,2,0,L|279:231,1,51.999997619629,0|2,0:0|0:0,0:0:0:0:
262,229,9014,6,0,L|267:139,1,77.9999964294435,2|0,0:0|0:0,0:0:0:0:
202,53,9455,2,0,L|200:124,1,51.999997619629
332,29,9808,2,0,P|310:15|272:18,1,51.999997619629,2|0,0:0|0:0,0:0:0:0:
369,105,10161,2,0,L|439:101,1,51.999997619629,0|2,0:0|0:0,0:0:0:0:
462,99,10426,1,2,0:0:0:0:
462,99,10514,6,0,L|453:165,3,51.999997619629,2|0|0|0,0:0|0:0|0:0|0:0,0:0:0:0:
497,218,11220,2,0,L|491:276,3,51.999997619629,2|0|0|0,0:0|0:0|0:0|0:0,0:0:0:0:
348,338,11926,6,0,B|416:326|416:326|426:359|465:368,1,120.000004577637,2|0,0:0|0:0,0:0:0:0:
323,265,12455,1,2,0:0:0:0:
323,265,12631,2,0,P|269:248|217:287,1,120.000004577637,2|0,0:0|0:0,0:0:0:0:
112,374,13161,1,2,0:0:0:0:
112,374,13249,1,2,0:0:0:0:
112,374,13337,5,2,0:0:0:0:
56,300,13514,2,0,L|78:169,1,120.000004577637,2|0,0:0|0:0,0:0:0:0:
92,9,14043,1,2,0:0:0:0:
76,91,14219,1,2,0:0:0:0:
14,38,14396,1,2,0:0:0:0:
153,138,14573,1,2,0:0:0:0:
156,145,14661,1,2,0:0:0:0:
159,151,14749,6,0,L|236:139,1,60.0000022888184,2|0,0:0|0:0,0:0:0:0:
325,146,15102,1,2,0:0:0:0:
380,92,15279,1,2,0:0:0:0:
416,200,15455,2,0,B|379:195|359:223|359:223|360:254|316:272,1,120.000004577637,2|0,0:0|0:0,0:0:0:0:
447,335,15984,1,2,0:0:0:0:
441,315,16073,1,2,0:0:0:0:
436,296,16161,5,2,0:0:0:0:
495,221,16337,2,0,P|524:158|495:92,1,120.000004577637,2|0,0:0|0:0,0:0:0:0:
434,2,16867,2,0,L|431:82,1,60.0000022888184,2|0,0:0|0:0,0:0:0:0:
301,152,17220,1,2,0:0:0:0:
376,116,17396,1,2,0:0:0:0:
285,33,17573,6,0,L|301:155,1,120.000004577637,2|0,0:0|0:0,0:0:0:0:
314,235,18102,1,0,0:0:0:0:
164,173,18279,2,0,L|240:182,1,60.0000022888184
87,228,18631,2,0,L|79:165,1,60.0000022888184,2|2,0:0|0:0,0:0:0:0:
54,137,18896,1,2,0:0:0:0:
54,137,18984,6,0,B|40:72|40:72|56:37|102:59,1,120.000004577637,2|0,0:0|0:0,0:0:0:0:
149,96,19514,1,0,0:0:0:0:
250,8,19690,2,0,L|164:-4,1,60.0000022888184
303,69,20043,1,2,0:0:0:0:
250,8,20220,1,2,0:0:0:0:
280,163,20396,6,0,B|329:157|329:157|344:139|344:139|400:134,1,120.000004577637,2|0,0:0|0:0,0:0:0:0:
468,158,20926,1,0,0:0:0:0:
382,274,21102,2,0,L|392:207,1,60.0000022888184
435,334,21455,1,2,0:0:0:0:
304,293,21631,1,2,0:0:0:0:
297,290,21720,1,2,0:0:0:0:
289,287,21808,6,0,B|214:292|214:292|216:318|192:341,1,120.000004577637,2|0,0:0|0:0,0:0:0:0:
117,363,22337,1,0,0:0:0:0:
140,204,22514,5,2,0:0:0:0:
142,211,22691,1,0,0:0:0:0:
145,219,22867,1,0,0:0:0:0:
148,227,23044,1,0,0:0:0:0:
261,133,23220,6,0,B|276:46|276:46|257:6|207:34,1,151.999995941162,4|2,1:2|1:2,0:0:0:0:
84,144,23749,1,2,0:2:0:0:
132,1,23926,2,0,L|155:87,1,75.9999979705811,2|0,1:2|0:0,0:0:0:0:
50,217,24279,1,2,1:2:0:0:
151,74,24455,1,2,0:0:0:0:
50,217,24631,5,8,1:3:0:0:
36,235,24719,1,8,0:3:0:0:
30,257,24807,1,8,0:3:0:0:
31,279,24895,1,8,0:3:0:0:
40,300,24983,1,8,1:3:0:0:
190,218,25161,6,0,L|150:226,4,37.9999989852906,4|4|4|4|4,0:3|0:3|1:3|0:3|0:3,0:0:0:0:
273,329,25690,2,0,B|335:319|335:319|351:297|351:297|414:287,1,151.999995941162,2|0,1:2|1:2,0:0:0:0:
504,133,26220,5,2,0:2:0:0:
504,133,26396,2,0,P|478:183|402:178,1,113.999996955872,2|0,1:2|0:0,0:0:0:0:
425,191,26749,2,0,P|380:170|334:180,1,75.9999979705811,2|0,1:2|0:0,0:0:0:0:
204,267,27102,1,2,1:2:0:0:
354,171,27279,1,2,0:0:0:0:
278,292,27456,5,8,1:3:0:0:
282,270,27544,1,8,0:3:0:0:
285,249,27632,1,8,0:3:0:0:
287,228,27720,1,8,0:3:0:0:
290,206,27808,1,8,1:3:0:0:
205,36,27984,6,0,L|215:79,4,37.9999989852906,4|4|4|4|4,0:3|0:3|1:3|0:3|0:3,0:0:0:0:
307,0,28514,1,2,1:2:0:0:
219,158,28690,1,2,1:2:0:0:
411,94,28867,6,0,B|404:62|404:62|320:78,1,113.999996955872,0|0,1:2|3:0,0:0:0:0:
324,77,29220,1,0,1:2:0:0:
486,134,29396,1,0,3:0:0:0:
361,196,29573,2,0,L|355:134,2,37.9999989852906,0|0|0,1:2|3:0|3:0,0:0:0:0:
457,286,29926,1,2,1:2:0:0:
361,196,30102,1,0,3:0:0:0:
288,347,30279,5,8,1:3:0:0:
310,350,30367,1,8,0:3:0:0:
332,347,30455,1,8,0:3:0:0:
352,336,30543,1,8,0:3:0:0:
367,319,30631,1,8,1:3:0:0:
207,330,30808,6,0,L|218:385,4,37.9999989852906,4|4|4|4|4,0:3|0:3|1:3|0:3|0:3,0:0:0:0:
210,178,31337,1,2,1:2:0:0:
304,268,31514,1,2,0:2:0:0:
233,94,31690,6,0,L|134:106,1,75.9999979705811,0|0,1:2|1:2,0:0:0:0:
80,247,32043,2,0,P|119:251|166:210,1,75.9999979705811,0|0,1:2|1:2,0:0:0:0:
90,54,32396,5,0,1:2:0:0:
210,178,32573,1,0,1:2:0:0:
11,189,32749,5,2,1:2:0:0:
157,103,32926,1,2,1:2:0:0:
75,279,33102,1,2,1:2:0:0:
80,247,33190,1,0,1:2:0:0:
84,216,33278,1,2,1:2:0:0:
89,185,33366,1,0,1:2:0:0:
93,153,33455,2,0,L|99:203,1,37.9999989852906,2|0,1:2|1:2,0:0:0:0:
172,291,33631,2,0,L|167:253,1,37.9999989852906,2|0,1:2|1:2,0:0:0:0:
184,300,34161,6,0,L|178:253,1,37.5999994262695,2|2,0:0|0:0,0:0:0:0:
272,359,34514,6,0,B|328:348|328:348|344:306|344:306|340:297|340:297|359:256|359:256|420:241,1,216.000000823975,4|0,1:2|0:0,0:0:0:0:
438,372,35043,2,0,L|428:307,1,44.0000013427735,0|0,1:0|0:0,0:0:0:0:
499,260,35220,2,0,B|515:217|515:217|469:166,1,88.000002685547,8|0,0:0|0:0,0:0:0:0:
486,185,35573,1,2,0:0:0:0:
417,242,35749,1,2,0:0:0:0:
321,88,35926,6,0,B|363:98|363:98|369:110|369:110|410:121,1,100,0|0,1:0|0:0,0:0:0:0:
408,133,36190,2,0,B|366:123|366:123|360:110|360:110|319:100,1,100,0|0,1:0|0:0,0:0:0:0:
249,37,36455,2,0,B|229:50|229:50|243:91,1,44.0000013427735,0|0,1:0|0:0,0:0:0:0:
274,179,36631,2,0,B|259:152|259:152|194:179,1,88.000002685547,8|0,0:0|0:0,0:0:0:0:
206,173,36984,1,2,0:0:0:0:
146,123,37161,1,2,0:0:0:0:
282,269,37337,6,0,B|216:256|187:301|187:301|178:366|113:374,1,216.000000823975,0|0,1:0|0:0,0:0:0:0:
27,237,37867,2,0,B|37:283,1,44.0000013427735,0|0,1:0|0:0,0:0:0:0:
117,373,38043,2,0,B|134:353|134:353|115:287,1,88.000002685547,8|0,0:0|0:0,0:0:0:0:
116,293,38396,1,2,0:0:0:0:
168,231,38573,1,2,0:0:0:0:
39,141,38749,6,0,B|88:156|88:156|131:99,1,100,0|0,1:0|0:0,0:0:0:0:
118,104,39014,2,0,B|88:142|88:142|33:130,1,100,0|0,1:0|0:0,0:0:0:0:
9,42,39279,2,0,L|65:57,1,44.0000013427735,0|0,1:0|0:0,0:0:0:0:
159,6,39455,6,0,P|173:27|155:11,1,54.0000002059937,10|0,0:0|0:0,0:0:0:0:
218,89,39631,2,0,P|210:112|211:89,1,54.0000002059937,2|8,0:2|0:0,0:0:0:0:
164,213,39808,5,2,0:2:0:0:
164,213,39896,1,2,0:2:0:0:
164,213,39984,1,10,0:2:0:0:
164,213,40073,1,2,0:2:0:0:
164,213,40161,6,0,L|237:206,1,60,2|0,0:2|0:0,0:0:0:0:
252,221,40514,5,0,1:0:0:0:
288,218,40602,1,0,1:0:0:0:
324,214,40690,1,0,1:0:0:0:
360,211,40778,1,0,1:0:0:0:
396,206,40867,2,0,B|417:168|417:168|381:120,1,88.000002685547,8|0,0:0|0:0,0:0:0:0:
390,132,41220,1,2,0:0:0:0:
311,136,41396,1,2,0:0:0:0:
468,246,41573,6,0,B|457:291|457:291|461:299|461:299|448:361,1,100,0|0,1:0|0:0,0:0:0:0:
460,355,41837,2,0,B|469:310|469:310|465:302|465:302|476:257,1,100,0|0,1:0|0:0,0:0:0:0:
512,177,42102,2,0,L|504:124,1,44.0000013427735,0|0,1:0|0:0,0:0:0:0:
500,9,42279,2,0,B|488:37|488:37|406:14,1,88.000002685547,8|0,0:0|0:0,0:0:0:0:
432,21,42631,1,2,0:0:0:0:
362,75,42808,1,2,0:0:0:0:
236,9,42984,6,0,B|221:23|221:23|228:93|228:93|239:104|239:104|245:185|245:185|226:208,1,216.000000823975,0|0,1:0|0:0,0:0:0:0:
345,243,43514,2,0,L|303:253,1,44.0000013427735,0|0,1:0|0:0,0:0:0:0:
227,208,43690,2,0,B|187:199|187:199|180:189|180:189|122:177,1,88.000002685547,8|0,0:0|0:0,0:0:0:0:
145,181,44043,1,2,0:0:0:0:
85,244,44220,1,2,0:0:0:0:
208,339,44396,6,0,B|259:352|259:352|311:305,1,103.999995239258,0|0,1:0|0:0,0:0:0:0:
207,328,44661,2,0,B|258:341|258:341|310:294,1,103.999995239258,0|0,1:0|0:0,0:0:0:0:
345,243,44926,1,0,1:0:0:0:
207,328,45808,6,0,L|201:269,4,37.9999989852906,8|8|8|8|8,1:3|0:3|0:3|0:3|1:3,0:0:0:0:
248,200,46337,2,0,L|252:242,4,25.9999988098145,4|4|4|4|4,0:3|0:3|1:3|0:3|0:3,0:0:0:0:
185,144,46867,1,0,1:2:0:0:
355,10,47220,5,0,1:2:0:0:
370,85,47573,1,0,1:2:0:0:
292,99,47926,1,0,1:2:0:0:
277,22,48279,1,0,1:2:0:0:
512,130,48631,6,0,P|517:151|504:178,4,37.9999989852906,8|8|8|8|8,1:3|0:3|0:3|0:3|1:3,0:0:0:0:
450,249,49161,2,0,L|453:215,4,25.9999988098145,4|4|4|4|4,0:3|0:3|1:3|0:3|0:3,0:0:0:0:
498,313,49690,1,0,1:2:0:0:
340,355,50043,5,0,1:2:0:0:
356,273,50396,1,0,1:2:0:0:
276,299,50749,1,2,1:2:0:0:
276,299,50926,1,2,0:0:0:0:
191,320,51102,2,0,B|156:313|156:313|148:304|148:304|108:296,1,77.9999964294435,2|0,1:3|0:0,0:0:0:0:
75,313,51455,6,0,L|62:225,1,80,8|0,1:2|1:0,0:0:0:0:
109,84,51808,2,0,L|120:163,1,80,8|0,1:2|1:0,0:0:0:0:
294,221,52161,2,0,B|235:209|235:209|267:201,1,80,8|0,1:2|1:0,0:0:0:0:
413,91,52514,1,10,1:2:0:0:
322,145,52690,1,2,1:2:0:0:
479,50,52867,6,0,B|509:79|509:79|476:138,1,80,8|0,1:2|1:0,0:0:0:0:
378,205,53220,1,8,1:2:0:0:
322,145,53396,1,0,1:0:0:0:
423,279,53573,1,8,1:2:0:0:
510,188,53749,1,0,1:0:0:0:
334,274,53926,1,10,1:2:0:0:
512,343,54102,1,2,1:2:0:0:
371,384,54279,6,0,L|377:342,3,40,0|0|0|0,1:2|1:2|1:2|1:2,0:0:0:0:
258,249,54631,1,2,1:2:0:0:
258,249,54720,1,0,1:2:0:0:
258,249,54808,2,0,B|248:272|248:272|263:308,1,40,2|0,1:2|1:2,0:0:0:0:
358,136,54984,1,2,1:2:0:0:
327,158,55072,1,0,1:2:0:0:
289,168,55160,1,2,1:2:0:0:
251,161,55248,1,0,1:2:0:0:
218,139,55337,6,0,P|199:126|159:129,1,40,2|0,1:2|1:2,0:0:0:0:
81,240,55514,2,0,P|100:235|116:223,1,40,2|0,1:2|1:2,0:0:0:0:
512,0,56396,5,10,0:2:0:0:
482,1,56484,1,8,0:3:0:0:
457,17,56572,1,2,1:2:0:0:
442,43,56660,1,0,1:0:0:0:
442,73,56749,2,0,L|449:130,1,48,10|0,0:2|0:0,0:0:0:0:
505,193,57102,6,0,B|423:208|423:208|403:238|403:238|313:254,1,200,4|8,1:0|0:0,0:0:0:0:
193,111,57631,1,0,3:0:0:0:
226,296,57808,2,0,L|242:186,1,100,0|0,1:0|3:0,0:0:0:0:
274,22,58161,1,10,0:2:0:0:
135,182,58337,6,0,B|95:155|95:155|122:46|122:46|75:16,1,200,2|0,3:2|3:0,0:0:0:0:
12,216,58867,1,8,0:0:0:0:
88,24,59043,1,2,3:2:0:0:
23,223,59220,2,0,L|0:106,1,100,2|0,1:2|3:0,0:0:0:0:
157,257,59573,2,0,B|105:248|87:280|87:280|82:324|37:338,1,150,10|0,0:2|0:0,0:0:0:0:
2,341,59926,6,0,B|91:353|91:353|106:371|106:371|213:387,1,200,2|8,1:2|0:0,0:0:0:0:
348,341,60455,1,0,3:0:0:0:
265,171,60631,2,0,B|226:203|226:203|254:271,1,100,0|0,1:0|3:0,0:0:0:0:
358,90,60984,1,10,0:2:0:0:
471,261,61161,6,0,B|334:235|334:235|372:249|388:275,1,200,2|0,3:2|3:0,0:0:0:0:
512,341,61690,1,8,0:0:0:0:
444,171,61867,1,2,3:2:0:0:
293,339,62043,5,2,1:2:0:0:
471,261,62220,1,2,3:2:0:0:
268,227,62396,5,10,0:2:0:0:
471,261,62573,1,2,3:2:0:0:
327,139,62749,6,0,B|287:99|231:107|231:107|205:156|143:151,1,200,2|8,1:2|0:0,0:0:0:0:
268,227,63278,1,0,3:0:0:0:
197,323,63455,2,0,P|176:268|200:218,1,100,0|0,1:0|3:0,0:0:0:0:
231,114,63808,1,10,0:2:0:0:
95,255,63984,6,0,B|-28:231|-28:231|15:238|64:203,1,200,2|0,3:2|3:0,0:0:0:0:
170,53,64514,1,8,0:0:0:0:
43,215,64690,1,2,3:2:0:0:
76,0,64867,2,0,B|108:153,1,150,2|2,1:2|0:0,0:0:0:0:
107,146,65220,2,0,P|157:152|208:119,1,100,10|0,0:2|3:2,0:0:0:0:
375,7,65573,6,0,B|473:22|473:22|455:47|464:87,1,150,2|0,1:2|0:0,0:0:0:0:
461,70,65926,1,10,0:0:0:0:
285,183,66102,2,0,B|383:168|383:168|365:143|374:103,1,150,2|0,3:2|0:0,0:0:0:0:
371,119,66455,1,2,3:2:0:0:
176,0,66631,6,0,B|205:116|205:116|164:147|170:201,1,200,10|0,0:2|1:2,0:0:0:0:
326,286,67161,2,0,B|276:304|276:304|229:270,1,100,2|8,3:2|0:0,0:0:0:0:
232,247,67426,1,8,0:0:0:0:
232,247,67514,1,2,3:2:0:0:
371,373,67690,1,2,1:2:0:0:
295,184,67867,1,2,1:2:0:0:
184,354,68043,1,10,0:2:0:0:
151,373,68131,1,0,1:0:0:0:
108,372,68219,1,0,1:0:0:0:
74,357,68307,1,0,1:0:0:0:
51,328,68396,6,0,B|34:190|34:190|50:233|74:240,1,200,6|8,1:2|0:0,0:0:0:0:
198,140,68926,1,0,3:0:0:0:
93,54,69102,2,0,L|115:164,1,100,0|0,1:0|3:0,0:0:0:0:
21,7,69455,1,10,0:2:0:0:
208,151,69631,6,0,B|195:277|195:277|159:288|131:254,1,200,2|0,3:2|3:0,0:0:0:0:
208,151,70161,1,8,0:0:0:0:
266,330,70337,1,2,3:2:0:0:
266,330,70426,1,2,0:0:0:0:
266,330,70514,2,0,P|325:336|368:303,1,100,2|0,1:2|3:0,0:0:0:0:
474,164,70867,2,0,B|509:195|509:195|396:179,1,150,10|0,0:2|0:0,0:0:0:0:
373,197,71220,6,0,B|360:112|360:112|378:87|378:87|362:5,1,200,2|10,1:2|0:0,0:0:0:0:
189,47,71749,2,0,B|297:61,1,100,2|0,3:2|1:0,0:0:0:0:
115,95,72102,1,2,3:2:0:0:
286,175,72279,6,0,B|169:187|169:187|126:229|174:265,1,200,10|0,0:2|1:0,0:0:0:0:
307,376,72808,1,0,3:0:0:0:
147,343,72984,2,0,L|252:327,1,100,8|0,0:0|3:2,0:0:0:0:
76,311,73337,1,2,1:2:0:0:
245,327,73514,1,8,0:0:0:0:
68,319,73690,2,0,B|50:313|50:313|62:181,1,150,10|0,0:2|0:0,0:0:0:0:
82,163,74043,6,0,B|62:17|62:17|61:56|42:74,1,200,2|8,1:2|0:0,0:0:0:0:
224,57,74572,1,0,3:0:0:0:
174,232,74749,2,0,L|159:115,1,100,0|0,1:0|3:0,0:0:0:0:
136,0,75102,1,10,0:2:0:0:
254,187,75279,6,0,B|342:174|342:174|357:151|357:151|448:139,1,200,2|0,3:2|3:0,0:0:0:0:
315,261,75808,1,8,0:0:0:0:
439,140,75984,1,0,3:0:0:0:
410,318,76161,2,0,B|392:307|392:307|405:215,1,100,2|0,1:2|3:0,0:0:0:0:
451,40,76514,2,0,B|275:60,1,150,10|0,0:2|0:0,0:0:0:0:
270,46,76867,5,2,1:2:0:0:
189,83,77043,1,0,1:2:0:0:
15,126,77220,5,2,1:2:0:0:
128,149,77396,1,2,1:2:0:0:
269,173,77573,5,0,1:2:0:0:
100,230,77749,1,2,1:2:0:0:
262,179,77926,2,0,L|256:240,3,50,2|0|0|0,1:2|1:2|1:2|1:2,0:0:0:0:
271,262,78279,5,0,1:2:0:0:
253,308,78367,1,0,1:2:0:0:
213,337,78455,1,0,1:2:0:0:
164,338,78543,1,0,1:2:0:0:
123,312,78631,2,0,L|180:320,1,50,0|0,1:2|1:2,0:0:0:0:
324,373,78808,2,0,L|274:379,1,50,0|0,1:2|1:2,0:0:0:0:
361,226,78984,6,0,B|392:269|392:269|371:327,1,100,2|0,1:2|3:0,0:0:0:0:
302,154,79337,2,0,B|396:136|396:136|404:173|455:190,1,150,2|0,1:2|0:0,0:0:0:0:
507,209,79690,6,0,B|536:-12|536:-12|517:72|473:110,1,359.999989013672,6|0,1:2|0:0,0:0:0:0:
356,231,80749,2,0,B|267:290|135:203|135:203|220:210|248:159,1,359.999989013672,2|0,1:2|0:0,0:0:0:0:
98,125,81808,2,0,P|49:188|80:261,1,143.999995605469,2|2,1:2|0:0,0:0:0:0:
187,350,82514,6,0,B|237:325|242:258|242:258|272:318|342:328,1,220.000006713867,2|2,1:2|0:0,0:0:0:0:
328,228,83573,1,2,1:2:0:0:
447,335,84455,1,2,0:0:0:0:
441,315,84544,1,2,0:0:0:0:
436,296,84632,1,2,0:0:0:0:
256,192,85337,5,2,0:0:0:0:
