osu file format v14

[General]
AudioFilename: audio.mp3
AudioLeadIn: 0
PreviewTime: 55867
Countdown: 0
SampleSet: Soft
StackLeniency: 0.7
Mode: 3
LetterboxInBreaks: 0
SpecialStyle: 0
WidescreenStoryboard: 0

[Editor]
DistanceSpacing: 0.5
BeatDivisor: 4
GridSize: 16
TimelineZoom: 2

[Metadata]
Title:Seimeisen
TitleUnicode:生命線
Artist:ReoNa
ArtistUnicode:ReoNa
Creator:Hoto Cocoa
Version:Ping's Hard
Source:月姫 -A piece of blue glass moon-
Tags:tsukihime remake typemoon paran nabi- [ping] TheNewBungping op opening video games visual novel japanese pop jpop j-pop
BeatmapID:2884637
BeatmapSetID:1397914

[Difficulty]
HPDrainRate:7.7
CircleSize:4
OverallDifficulty:7.7
ApproachRate:5
SliderMultiplier:1.4
SliderTickRate:1

[Events]
//Background and Video events
0,0,"Bgnotlewd.jpg",0,0
//Break Periods
//Storyboard Layer 0 (Background)
//Storyboard Layer 1 (Fail)
//Storyboard Layer 2 (Pass)
//Storyboard Layer 3 (Foreground)
//Storyboard Layer 4 (Overlay)
//Storyboard Sound Samples
Sample,52690,0,"whistle.wav",50
Sample,68043,0,"finish-m.wav",50

[TimingPoints]
632,352.941176470588,4,2,1,70,1,0
57102,-100,4,2,1,70,0,1
66984,-100,4,2,1,70,0,0
68396,-100,4,2,1,70,0,1
79690,-100,4,2,1,70,0,0
85331,352.941176470588,4,2,1,70,1,0
94154,375,4,2,1,70,1,0
94154,-94.1176470588235,4,2,1,70,0,0
94529,428.571428571429,4,2,1,70,1,0
94529,-82.3723228995058,4,2,1,70,0,0
94957,480,4,2,1,70,1,0
94957,-73.5294117647059,4,2,1,70,0,0
95437,500,4,2,1,70,1,0
95437,-70.4225352112676,4,2,1,70,0,0
95937,600,4,2,1,70,1,0
95937,-58.8235294117647,4,2,1,70,0,0
96537,731.707317073171,4,2,1,70,1,0
96537,-48.3091787439614,4,2,1,70,0,0
97268,833.333333333333,4,2,1,70,1,0
97268,-42.3728813559322,4,2,1,70,0,0

[HitObjects]
448,192,632,128,0,1161:0:0:0:70:longwhistle.wav
320,192,632,1,0,0:0:0:50:whistle.wav
64,192,632,1,0,0:0:0:0:
192,192,808,1,0,0:0:0:40:tick.wav
320,192,984,1,0,0:0:0:40:tick.wav
192,192,1161,1,0,0:0:0:40:tick.wav
192,192,1337,1,0,0:0:0:40:tick.wav
448,192,1337,128,0,1867:0:0:0:0:
320,192,1514,1,0,0:0:0:40:tick.wav
192,192,1690,1,0,0:0:0:40:tick.wav
320,192,1867,1,0,0:0:0:40:tick.wav
320,192,2043,1,0,0:0:0:40:tick.wav
64,192,2043,128,0,2573:0:0:0:0:
192,192,2220,1,0,0:0:0:40:tick.wav
320,192,2396,1,0,0:0:0:40:tick.wav
192,192,2573,1,0,0:0:0:40:tick.wav
192,192,2749,1,0,0:0:0:40:tick.wav
64,192,2749,128,0,3367:0:0:0:0:
320,192,2926,1,0,0:0:0:40:tick.wav
192,192,3102,1,0,0:0:0:40:tick.wav
320,192,3279,128,0,3367:0:0:0:50:whistle.wav
320,192,3455,1,0,0:0:0:70:longwhistle.wav
448,192,3455,1,0,0:0:0:0:
64,192,3631,1,0,0:0:0:40:tick.wav
320,192,3808,1,0,0:0:0:40:tick.wav
192,192,3984,1,0,0:0:0:40:tick.wav
192,192,4161,1,0,0:0:0:40:tick.wav
448,192,4337,1,0,0:0:0:40:tick.wav
192,192,4514,1,0,0:0:0:40:tick.wav
320,192,4690,1,0,0:0:0:40:tick.wav
320,192,4867,1,0,0:0:0:40:tick.wav
64,192,5043,1,0,0:0:0:40:tick.wav
320,192,5220,1,0,0:0:0:40:tick.wav
192,192,5396,1,0,0:0:0:40:tick.wav
192,192,5573,1,0,0:0:0:40:tick.wav
448,192,5749,1,0,0:0:0:40:tick.wav
192,192,5926,1,0,0:0:0:40:tick.wav
448,192,6102,1,0,0:0:0:40:tick.wav
64,192,6279,1,0,0:0:0:70:longwhistle.wav
192,192,6279,1,0,0:0:0:50:whistle.wav
448,192,6279,128,0,6808:0:0:0:0:
320,192,6455,1,0,0:0:0:40:tick.wav
192,192,6631,1,0,0:0:0:40:tick.wav
320,192,6808,1,0,0:0:0:40:tick.wav
320,192,6984,1,0,0:0:0:40:tick.wav
448,192,6984,128,0,7514:0:0:0:0:
192,192,7161,1,0,0:0:0:40:tick.wav
320,192,7337,1,0,0:0:0:40:tick.wav
192,192,7514,1,0,0:0:0:40:tick.wav
192,192,7690,1,0,0:0:0:40:tick.wav
64,192,7690,128,0,8220:0:0:0:0:
320,192,7867,1,0,0:0:0:40:tick.wav
192,192,8043,1,0,0:0:0:40:tick.wav
320,192,8220,1,0,0:0:0:40:tick.wav
320,192,8396,1,0,0:0:0:40:tick.wav
64,192,8396,128,0,9014:0:0:0:0:
192,192,8573,1,0,0:0:0:40:tick.wav
320,192,8749,1,0,0:0:0:40:tick.wav
192,192,8926,128,0,9014:0:0:0:50:whistle.wav
192,192,9102,1,0,0:0:0:70:longwhistle.wav
64,192,9102,1,0,0:0:0:0:
448,192,9279,1,0,0:0:0:40:tick.wav
192,192,9455,1,0,0:0:0:40:tick.wav
320,192,9631,1,0,0:0:0:40:tick.wav
320,192,9808,1,0,0:0:0:40:tick.wav
64,192,9984,1,0,0:0:0:40:tick.wav
320,192,10161,1,0,0:0:0:40:tick.wav
192,192,10337,128,0,10426:0:0:0:50:whistle.wav
192,192,10514,1,0,0:0:0:50:whistle.wav
320,192,10514,1,0,0:0:0:0:
448,192,10690,1,0,0:0:0:40:tick.wav
192,192,10867,1,0,0:0:0:40:tick.wav
320,192,11043,1,0,0:0:0:40:tick.wav
320,192,11220,1,0,0:0:0:40:tick.wav
64,192,11396,1,0,0:0:0:40:tick.wav
320,192,11573,128,0,11837:0:0:0:40:tick.wav
64,192,11749,128,0,11837:0:0:0:40:tick.wav
64,192,11926,1,0,0:0:0:70:longwhistle.wav
448,192,11926,128,0,12455:0:0:0:0:
320,192,11926,1,0,0:0:0:0:
192,192,12102,1,0,0:0:0:40:tick.wav
320,192,12279,1,0,0:0:0:40:tick.wav
192,192,12455,1,0,0:0:0:40:tick.wav
192,192,12631,128,0,12808:0:0:0:40:tick.wav
448,192,12631,128,0,13249:0:0:0:0:
320,192,12808,1,0,0:0:0:40:tick.wav
192,192,12984,1,0,0:0:0:40:tick.wav
320,192,13161,128,0,13249:0:0:0:50:whistle.wav
320,192,13337,1,0,0:0:0:50:whistle.wav
64,192,13337,128,0,13867:0:0:0:0:
192,192,13514,128,0,13690:0:0:0:40:tick.wav
320,192,13690,1,0,0:0:0:40:tick.wav
192,192,13867,1,0,0:0:0:40:tick.wav
192,192,14043,1,0,0:0:0:40:tick.wav
64,192,14043,128,0,14661:0:0:0:0:
320,192,14220,1,0,0:0:0:40:tick.wav
192,192,14396,1,0,0:0:0:40:tick.wav
320,192,14573,128,0,14661:0:0:0:50:whistle.wav
320,192,14749,1,0,0:0:0:50:whistle.wav
192,192,14749,1,0,0:0:0:0:
64,192,14926,1,0,0:0:0:40:tick.wav
320,192,15102,1,0,0:0:0:40:tick.wav
192,192,15279,1,0,0:0:0:40:tick.wav
192,192,15455,128,0,15631:0:0:0:40:tick.wav
448,192,15631,1,0,0:0:0:40:tick.wav
192,192,15808,1,0,0:0:0:40:tick.wav
320,192,15984,128,0,16073:0:0:0:50:whistle.wav
320,192,16161,1,0,0:0:0:50:whistle.wav
448,192,16161,1,0,0:0:0:0:
64,192,16337,128,0,16514:0:0:0:40:tick.wav
320,192,16514,1,0,0:0:0:40:tick.wav
192,192,16690,1,0,0:0:0:40:tick.wav
192,192,16867,128,0,17043:0:0:0:40:tick.wav
448,192,17043,1,0,0:0:0:40:tick.wav
320,192,17220,128,0,17396:0:0:0:40:tick.wav
448,192,17396,1,0,0:0:0:40:tick.wav
192,192,17573,1,0,0:0:0:70:longwhistle.wav
448,192,17573,128,0,18102:0:0:0:0:
64,192,17573,128,0,17749:0:0:0:0:
320,192,17749,1,0,0:0:0:40:tick.wav
192,192,17926,1,0,0:0:0:40:tick.wav
64,192,17926,128,0,18102:0:0:0:0:
320,192,18102,1,0,0:0:0:40:tick.wav
320,192,18279,1,0,0:0:0:40:tick.wav
448,192,18279,128,0,18896:0:0:0:0:
64,192,18279,128,0,18455:0:0:0:0:
192,192,18455,1,0,0:0:0:40:tick.wav
320,192,18631,128,0,18896:0:0:0:40:tick.wav
192,192,18808,128,0,18896:0:0:0:50:whistle.wav
192,192,18984,1,0,0:0:0:50:whistle.wav
64,192,18984,128,0,19514:0:0:0:0:
320,192,19161,1,0,0:0:0:40:tick.wav
192,192,19337,1,0,0:0:0:40:tick.wav
320,192,19514,1,0,0:0:0:40:tick.wav
64,192,19690,128,0,20220:0:0:0:40:tick.wav
320,192,19690,1,0,0:0:0:0:
192,192,19867,1,0,0:0:0:40:tick.wav
320,192,20043,128,0,20220:0:0:0:40:tick.wav
192,192,20220,1,0,0:0:0:40:tick.wav
192,192,20396,1,0,0:0:0:40:tick.wav
448,192,20396,128,0,20573:0:0:0:70:longwhistle.wav
64,192,20396,1,0,0:0:0:0:
320,192,20573,1,0,0:0:0:40:tick.wav
448,192,20749,128,0,20926:0:0:0:40:tick.wav
192,192,20749,1,0,0:0:0:0:
320,192,20926,1,0,0:0:0:40:tick.wav
448,192,21102,128,0,21279:0:0:0:40:tick.wav
320,192,21102,1,0,0:0:0:0:
192,192,21279,1,0,0:0:0:40:tick.wav
320,192,21455,1,0,0:0:0:40:tick.wav
64,192,21455,128,0,21720:0:0:0:0:
192,192,21631,128,0,21720:0:0:0:50:whistle.wav
64,192,21808,1,0,0:0:0:50:whistle.wav
192,192,21808,1,0,0:0:0:0:
448,192,21984,1,0,0:0:0:40:tick.wav
192,192,22161,1,0,0:0:0:40:tick.wav
320,192,22337,1,0,0:0:0:40:tick.wav
320,192,22514,1,0,0:0:0:40:tick.wav
64,192,22690,1,0,0:0:0:40:tick.wav
320,192,22867,128,0,23131:0:0:0:40:tick.wav
64,192,23043,128,0,23131:0:0:0:40:tick.wav
320,192,23220,1,0,0:0:0:70:bass-l.wav
448,192,23220,128,0,23484:0:0:0:70:longwhistle.wav
64,192,23220,1,2,0:0:0:0:
64,192,23396,128,0,23573:0:0:0:0:
448,192,23573,1,2,0:0:0:0:
320,192,23573,128,0,23749:0:0:0:0:
192,192,23749,1,0,0:0:0:0:
192,192,23926,128,2,24102:0:0:0:0:
448,192,23926,128,0,24190:0:0:0:0:
320,192,24102,1,0,0:0:0:0:
448,192,24279,1,2,0:0:0:0:
64,192,24279,128,0,24455:0:0:0:0:
320,192,24455,1,0,0:0:0:0:
64,192,24631,128,0,24896:0:0:0:20:tom-h.wav
448,192,24631,128,2,24720:0:0:0:0:
192,192,24720,1,0,0:0:0:20:tom-h.wav
448,192,24808,128,0,24896:0:0:0:20:tom-h.wav
320,192,24896,1,0,0:0:0:20:tom-h.wav
64,192,24984,1,2,0:0:0:0:
192,192,24984,1,0,0:0:0:20:tom-h.wav
448,192,25161,1,0,0:0:0:20:tom-l.wav
192,192,25249,1,0,0:0:0:20:tom-l.wav
448,192,25337,1,2,0:0:0:0:
64,192,25337,128,0,25602:0:0:0:20:tom-l.wav
320,192,25426,1,0,0:0:0:20:tom-l.wav
192,192,25514,128,0,25602:0:0:0:20:tom-l.wav
448,192,25690,128,2,25867:0:0:0:0:
64,192,25690,1,0,0:0:0:0:
320,192,25867,1,0,0:0:0:0:
64,192,26043,128,2,26308:0:0:0:0:
320,192,26043,1,0,0:0:0:0:
448,192,26220,128,0,26396:0:0:0:0:
64,192,26396,1,2,0:0:0:0:
192,192,26396,128,0,26573:0:0:0:0:
320,192,26573,1,0,0:0:0:0:
64,192,26749,1,2,0:0:0:0:
320,192,26749,128,0,26926:0:0:0:0:
192,192,26926,1,0,0:0:0:0:
64,192,27102,1,2,0:0:0:0:
448,192,27102,128,0,27279:0:0:0:0:
192,192,27279,1,0,0:0:0:0:
448,192,27455,128,0,27720:0:0:0:20:tom-h.wav
64,192,27455,128,2,27543:0:0:0:0:
320,192,27543,1,0,0:0:0:20:tom-h.wav
64,192,27631,128,0,27720:0:0:0:20:tom-h.wav
192,192,27720,1,0,0:0:0:20:tom-h.wav
320,192,27808,1,2,0:0:0:0:
448,192,27808,128,0,27896:0:0:0:0:
64,192,27984,1,0,0:0:0:20:tom-l.wav
320,192,28073,1,0,0:0:0:20:tom-l.wav
448,192,28161,1,2,0:0:0:0:
64,192,28161,128,0,28249:0:0:0:20:tom-l.wav
192,192,28249,1,0,0:0:0:20:tom-l.wav
320,192,28337,128,0,28602:0:0:0:20:tom-l.wav
448,192,28514,128,2,28602:0:0:0:0:
192,192,28514,128,0,28690:0:0:0:0:
64,192,28690,1,2,0:0:0:0:
192,192,28867,1,2,0:0:0:0:
448,192,28867,128,0,29131:0:0:0:70:longwhistle.wav
64,192,28867,128,0,29043:0:0:0:0:
320,192,29043,1,0,0:0:0:0:
192,192,29131,1,0,0:0:0:0:
448,192,29220,1,2,0:0:0:0:
64,192,29220,128,0,29484:0:0:0:0:
320,192,29396,1,0,0:0:0:0:
448,192,29573,128,2,29837:0:0:0:0:
320,192,29573,1,0,0:0:0:0:
64,192,29661,128,0,29837:0:0:0:0:
192,192,29749,1,0,0:0:0:0:
448,192,29926,1,2,0:0:0:0:
192,192,29926,128,0,30102:0:0:0:0:
320,192,30102,1,0,0:0:0:0:
64,192,30279,1,0,0:0:0:20:tom-h.wav
448,192,30279,128,2,30367:0:0:0:0:
192,192,30367,1,0,0:0:0:20:tom-h.wav
448,192,30455,128,0,30543:0:0:0:20:tom-h.wav
320,192,30543,1,0,0:0:0:20:tom-h.wav
192,192,30631,1,0,0:0:0:20:tom-h.wav
64,192,30631,1,2,0:0:0:0:
448,192,30808,1,0,0:0:0:20:tom-l.wav
192,192,30896,1,0,0:0:0:20:tom-l.wav
64,192,30984,1,0,0:0:0:20:tom-l.wav
448,192,30984,1,2,0:0:0:0:
320,192,31073,1,0,0:0:0:20:tom-l.wav
192,192,31161,1,0,0:0:0:20:tom-l.wav
448,192,31337,1,2,0:0:0:0:
192,192,31337,128,0,31514:0:0:0:0:
320,192,31514,1,0,0:0:0:0:
320,192,31690,1,2,0:0:0:0:
448,192,31690,128,0,31867:0:0:0:0:
64,192,31867,1,2,0:0:0:0:
448,192,32043,128,2,32220:0:0:0:0:
192,192,32043,1,0,0:0:0:0:
320,192,32220,1,2,0:0:0:0:
448,192,32396,128,2,32573:0:0:0:0:
64,192,32396,1,0,0:0:0:0:
192,192,32573,1,2,0:0:0:0:
320,192,32749,1,2,0:0:0:0:
448,192,32749,1,0,0:0:0:0:
64,192,32926,1,2,0:0:0:0:
192,192,33102,128,2,33190:0:0:0:0:
448,192,33102,1,0,0:0:0:0:
320,192,33190,1,2,0:0:0:0:
192,192,33279,128,2,33367:0:0:0:0:
448,192,33367,1,2,0:0:0:0:
320,192,33455,1,2,0:0:0:40:soft-hitwhistle.wav
64,192,33543,1,2,0:0:0:40:soft-hitwhistle.wav
192,192,33631,128,2,33896:0:0:0:40:soft-hitwhistle.wav
448,192,33720,128,2,33896:0:0:0:40:soft-hitwhistle.wav
320,192,34161,128,0,34426:0:0:0:50:whistle.wav
448,192,34337,128,0,34426:0:0:0:50:whistle.wav
320,192,34514,128,0,34867:0:0:0:70:bass-l.wav
192,192,34514,128,0,34955:0:0:0:70:climax.wav
64,192,34514,128,2,35043:0:0:0:0:
448,192,35043,128,2,35131:0:0:0:0:
320,192,35043,128,0,35131:0:0:0:0:
192,192,35131,1,0,0:0:0:0:
64,192,35220,1,8,0:0:0:0:
448,192,35220,1,0,0:0:0:0:
320,192,35396,1,0,0:0:0:0:
448,192,35440,1,0,0:0:0:0:
192,192,35484,1,0,0:0:0:0:
64,192,35573,128,0,35837:0:0:0:50:whistle.wav
192,192,35749,128,0,35837:0:0:0:50:whistle.wav
320,192,35926,128,2,36102:0:0:0:0:
448,192,35926,128,0,36102:0:0:0:0:
64,192,35926,128,0,36279:0:0:0:0:
320,192,36190,128,2,36367:0:0:0:0:
448,192,36190,128,0,36455:0:0:0:0:
192,192,36455,128,2,36543:0:0:0:0:
64,192,36455,128,0,36543:0:0:0:0:
320,192,36543,1,0,0:0:0:0:
64,192,36631,1,8,0:0:0:0:
448,192,36631,1,0,0:0:0:0:
192,192,36808,1,0,0:0:0:0:
64,192,36852,1,0,0:0:0:0:
320,192,36896,1,0,0:0:0:0:
448,192,36984,128,0,37249:0:0:0:50:whistle.wav
320,192,37161,128,0,37249:0:0:0:50:whistle.wav
64,192,37337,128,2,37867:0:0:0:0:
192,192,37337,128,0,37779:0:0:0:0:
448,192,37337,128,0,37690:0:0:0:0:
320,192,37867,128,2,37955:0:0:0:0:
448,192,37867,128,0,37955:0:0:0:0:
192,192,37955,1,0,0:0:0:0:
64,192,38043,1,8,0:0:0:0:
448,192,38043,1,0,0:0:0:0:
320,192,38220,1,0,0:0:0:0:
448,192,38264,1,0,0:0:0:0:
192,192,38308,1,0,0:0:0:0:
320,192,38396,128,0,38661:0:0:0:50:whistle.wav
64,192,38573,128,0,38661:0:0:0:50:whistle.wav
320,192,38749,128,2,38926:0:0:0:0:
448,192,38749,128,0,38926:0:0:0:0:
192,192,38749,128,0,39102:0:0:0:0:
448,192,39014,128,2,39279:0:0:0:0:
320,192,39014,128,0,39190:0:0:0:0:
192,192,39279,128,2,39367:0:0:0:0:
64,192,39279,128,0,39367:0:0:0:0:
320,192,39367,1,0,0:0:0:0:
448,192,39455,1,8,0:0:0:0:
64,192,39455,1,0,0:0:0:0:
192,192,39631,1,0,0:0:0:0:
64,192,39676,1,0,0:0:0:0:
320,192,39720,1,8,0:0:0:0:
448,192,39720,1,0,0:0:0:0:
192,192,39808,128,0,39984:0:0:0:50:whistle.wav
448,192,39984,1,0,0:0:0:50:whistle.wav
320,192,39984,1,8,0:0:0:0:
192,192,40073,128,0,40337:0:0:0:0:
448,192,40161,128,0,40337:0:0:0:70:longwhistle.wav
64,192,40514,128,2,40867:0:0:0:0:
192,192,40514,128,0,40690:0:0:0:0:
320,192,40602,1,2,0:0:0:0:
448,192,40690,1,2,0:0:0:0:
192,192,40779,1,2,0:0:0:0:
320,192,40867,128,8,40955:0:0:0:0:
448,192,40867,128,0,40955:0:0:0:0:
192,192,41043,1,0,0:0:0:0:
320,192,41131,1,0,0:0:0:0:
64,192,41220,128,0,41484:0:0:0:50:whistle.wav
192,192,41396,128,0,41484:0:0:0:50:whistle.wav
320,192,41573,128,2,41749:0:0:0:0:
448,192,41573,128,0,41749:0:0:0:0:
64,192,41573,128,0,41926:0:0:0:0:
320,192,41837,128,2,42014:0:0:0:0:
448,192,41837,128,0,42102:0:0:0:0:
64,192,42102,128,2,42190:0:0:0:0:
192,192,42102,128,0,42190:0:0:0:0:
320,192,42190,1,0,0:0:0:0:
448,192,42279,1,8,0:0:0:0:
64,192,42279,1,0,0:0:0:0:
192,192,42455,1,0,0:0:0:0:
320,192,42543,1,0,0:0:0:0:
448,192,42631,128,0,42896:0:0:0:50:whistle.wav
320,192,42808,128,0,42896:0:0:0:50:whistle.wav
64,192,42984,128,2,43514:0:0:0:0:
448,192,42984,128,0,43337:0:0:0:0:
192,192,42984,128,0,43426:0:0:0:0:
320,192,43514,128,2,43602:0:0:0:0:
448,192,43514,128,0,43602:0:0:0:0:
192,192,43602,1,0,0:0:0:0:
64,192,43690,1,8,0:0:0:0:
448,192,43690,1,0,0:0:0:0:
320,192,43867,1,0,0:0:0:0:
192,192,43955,1,0,0:0:0:0:
64,192,44043,128,0,44308:0:0:0:50:whistle.wav
448,192,44220,128,0,44308:0:0:0:50:whistle.wav
64,192,44396,1,2,0:0:0:0:
192,192,44396,1,0,0:0:0:0:
320,192,44396,128,0,44573:0:0:0:0:
448,192,44573,1,0,0:0:0:0:
64,192,44661,1,2,0:0:0:0:
192,192,44661,1,0,0:0:0:0:
320,192,44749,1,0,0:0:0:0:
448,192,44837,1,0,0:0:0:0:
192,192,44926,1,2,0:0:0:0:
64,192,44926,1,0,0:0:0:0:
64,192,45455,128,0,45720:0:0:0:50:whistle.wav
320,192,45631,128,0,45720:0:0:0:50:whistle.wav
192,192,45808,1,2,0:0:0:0:
448,192,45808,128,0,46073:0:0:0:70:longwhistle.wav
64,192,45896,1,0,0:0:0:20:tom-h.wav
320,192,45984,1,0,0:0:0:20:tom-h.wav
192,192,46073,1,0,0:0:0:20:tom-h.wav
64,192,46161,1,2,0:0:0:0:
448,192,46161,1,0,0:0:0:20:tom-h.wav
320,192,46337,1,0,0:0:0:20:tom-l.wav
192,192,46426,1,0,0:0:0:20:tom-l.wav
320,192,46514,1,2,0:0:0:0:
448,192,46514,128,0,46779:0:0:0:0:
64,192,46602,1,0,0:0:0:20:tom-l.wav
192,192,46690,1,0,0:0:0:20:tom-l.wav
448,192,46867,1,2,0:0:0:0:
192,192,46867,128,0,47131:0:0:0:50:whistle.wav
320,192,47043,128,0,47131:0:0:0:50:whistle.wav
192,192,47220,1,2,0:0:0:0:
64,192,47220,128,0,47484:0:0:0:0:
64,192,47573,1,2,0:0:0:0:
192,192,47926,1,2,0:0:0:0:
64,192,47926,128,0,48190:0:0:0:0:
64,192,48279,1,2,0:0:0:0:
448,192,48279,128,0,48543:0:0:0:50:whistle.wav
320,192,48455,128,0,48543:0:0:0:50:whistle.wav
192,192,48631,1,2,0:0:0:0:
448,192,48631,1,0,0:0:0:20:tom-h.wav
64,192,48720,1,0,0:0:0:20:tom-h.wav
320,192,48808,1,0,0:0:0:20:tom-h.wav
192,192,48896,1,0,0:0:0:20:tom-h.wav
64,192,48984,1,2,0:0:0:0:
448,192,48984,1,0,0:0:0:20:tom-h.wav
320,192,49161,1,0,0:0:0:20:tom-l.wav
192,192,49249,1,0,0:0:0:20:tom-l.wav
320,192,49337,1,2,0:0:0:0:
448,192,49337,1,0,0:0:0:20:tom-l.wav
64,192,49426,1,0,0:0:0:20:tom-l.wav
192,192,49514,1,0,0:0:0:20:tom-l.wav
192,192,49690,1,2,0:0:0:0:
448,192,49690,128,0,49955:0:0:0:50:whistle.wav
320,192,49867,128,0,49955:0:0:0:50:whistle.wav
192,192,50043,1,2,0:0:0:0:
64,192,50043,1,0,0:0:0:0:
64,192,50396,1,2,0:0:0:0:
64,192,50749,1,2,0:0:0:0:
448,192,50749,1,0,0:0:0:0:
320,192,50926,1,0,0:0:0:0:
64,192,51102,128,2,51367:0:0:0:0:
192,192,51102,128,0,51367:0:0:0:50:whistle.wav
448,192,51279,128,0,51367:0:0:0:50:whistle.wav
448,192,51455,128,2,51720:0:0:0:0:
64,192,51455,1,4,0:0:0:0:
192,192,51455,1,0,0:0:0:0:
320,192,51631,1,2,0:0:0:0:
64,192,51808,1,8,0:0:0:0:
448,192,51808,1,0,0:0:0:0:
192,192,51984,1,2,0:0:0:0:
320,192,52161,1,2,0:0:0:0:
448,192,52161,128,0,52426:0:0:0:0:
64,192,52337,1,2,0:0:0:0:
448,192,52514,1,8,0:0:0:0:
192,192,52514,128,0,52779:0:0:0:50:whistle.wav
320,192,52690,128,2,52779:0:0:0:0:
192,192,52867,1,2,0:0:0:0:
64,192,52867,128,0,53131:0:0:0:0:
448,192,53043,1,2,0:0:0:0:
64,192,53220,1,8,0:0:0:0:
320,192,53220,1,0,0:0:0:0:
192,192,53396,1,2,0:0:0:0:
64,192,53573,1,2,0:0:0:0:
448,192,53573,1,0,0:0:0:0:
320,192,53749,1,2,0:0:0:0:
64,192,53926,1,8,0:0:0:0:
192,192,53926,128,0,54190:0:0:0:50:whistle.wav
448,192,54102,128,0,54190:0:0:0:50:whistle.wav
192,192,54279,1,2,0:0:0:0:
64,192,54279,1,0,0:0:0:0:
320,192,54367,1,0,0:0:0:0:
448,192,54455,1,2,0:0:0:0:
192,192,54543,1,0,0:0:0:0:
320,192,54631,1,8,0:0:0:0:
64,192,54720,1,0,0:0:0:0:
192,192,54808,1,2,0:0:0:0:
448,192,54896,1,0,0:0:0:0:
320,192,54984,1,8,0:0:0:0:
64,192,55073,1,2,0:0:0:0:
192,192,55161,1,2,0:0:0:0:
448,192,55249,1,8,0:0:0:0:
320,192,55337,1,2,0:0:0:0:
64,192,55426,128,2,55690:0:0:0:0:
192,192,55514,128,8,55690:0:0:0:0:
448,192,55602,128,8,55690:0:0:0:0:
320,192,56396,1,0,0:0:0:50:snare.wav
448,192,56396,1,0,0:0:0:0:
192,192,56484,1,0,0:0:0:50:tom-h.wav
64,192,56573,1,0,0:0:0:50:tom-l.wav
320,192,56661,1,0,0:0:0:50:tom-l.wav
448,192,56749,1,8,0:0:0:50:snare.wav
192,192,56749,128,0,57014:0:0:0:70:climax.wav
192,192,57102,1,0,0:0:0:70:twinkling.wav
448,192,57102,128,4,57367:0:0:0:0:
64,192,57102,1,2,0:0:0:0:
320,192,57279,1,0,0:0:0:70:hihat-l.wav
64,192,57367,1,0,0:0:0:0:
320,192,57455,1,8,0:0:0:0:
448,192,57455,128,0,57720:0:0:0:0:
192,192,57543,1,0,0:0:0:0:
64,192,57631,128,0,57984:0:0:0:70:hihat-l.wav
320,192,57720,1,0,0:0:0:0:
192,192,57808,128,2,57984:0:0:0:0:
320,192,57984,1,0,0:0:0:70:hihat-l.wav
192,192,58161,1,8,0:0:0:0:
448,192,58161,1,0,0:0:0:0:
448,192,58337,128,0,58514:0:0:0:70:hihat-l.wav
192,192,58514,1,2,0:0:0:0:
64,192,58514,1,0,0:0:0:0:
320,192,58690,1,0,0:0:0:70:hihat-l.wav
448,192,58867,1,8,0:0:0:0:
192,192,58867,1,0,0:0:0:0:
64,192,59043,1,0,0:0:0:70:hihat-l.wav
320,192,59220,1,2,0:0:0:0:
64,192,59220,128,0,59396:0:0:0:0:
192,192,59396,1,0,0:0:0:70:hihat-l.wav
448,192,59573,128,8,59749:0:0:0:0:
64,192,59573,1,0,0:0:0:0:
320,192,59749,1,0,0:0:0:70:hihat-l.wav
192,192,59926,1,2,0:0:0:0:
64,192,59926,128,0,60190:0:0:0:0:
448,192,60102,1,0,0:0:0:70:hihat-l.wav
320,192,60279,1,8,0:0:0:0:
64,192,60279,128,0,60543:0:0:0:0:
192,192,60455,1,0,0:0:0:70:hihat-l.wav
448,192,60631,128,2,60984:0:0:0:0:
320,192,60631,1,0,0:0:0:0:
64,192,60720,1,0,0:0:0:0:
192,192,60808,128,0,60984:0:0:0:70:hihat-l.wav
320,192,60984,1,8,0:0:0:0:
64,192,60984,1,0,0:0:0:0:
320,192,61161,128,0,61337:0:0:0:70:hihat-l.wav
64,192,61337,1,2,0:0:0:0:
192,192,61337,1,0,0:0:0:0:
448,192,61426,1,0,0:0:0:0:
64,192,61514,1,0,0:0:0:70:hihat-l.wav
320,192,61690,1,8,0:0:0:0:
448,192,61690,1,0,0:0:0:0:
192,192,61867,1,0,0:0:0:70:hihat-l.wav
320,192,61955,1,0,0:0:0:0:
448,192,62043,1,2,0:0:0:0:
64,192,62043,1,0,0:0:0:0:
192,192,62220,1,0,0:0:0:70:hihat-l.wav
64,192,62396,1,8,0:0:0:0:
192,192,62396,128,0,62573:0:0:0:50:finish-m.wav
448,192,62573,128,0,62749:0:0:0:70:hihat-l.wav
320,192,62749,1,2,0:0:0:0:
64,192,62749,128,4,63014:0:0:0:0:
192,192,62926,1,0,0:0:0:70:hihat-l.wav
64,192,63102,128,8,63367:0:0:0:0:
448,192,63102,1,0,0:0:0:0:
320,192,63279,1,0,0:0:0:70:hihat-l.wav
64,192,63455,1,2,0:0:0:0:
448,192,63455,128,0,63808:0:0:0:0:
192,192,63543,1,0,0:0:0:0:
320,192,63631,128,0,63808:0:0:0:70:hihat-l.wav
64,192,63808,1,8,0:0:0:0:
192,192,63808,1,0,0:0:0:0:
64,192,63984,128,0,64161:0:0:0:70:hihat-l.wav
320,192,64161,1,2,0:0:0:0:
448,192,64161,1,0,0:0:0:0:
192,192,64337,1,0,0:0:0:70:hihat-l.wav
64,192,64514,1,8,0:0:0:0:
448,192,64514,1,0,0:0:0:0:
320,192,64690,1,0,0:0:0:70:hihat-l.wav
320,192,64867,1,2,0:0:0:0:
448,192,64867,1,0,0:0:0:0:
64,192,64955,1,0,0:0:0:0:
448,192,65043,1,0,0:0:0:70:hihat-l.wav
64,192,65220,1,8,0:0:0:0:
192,192,65220,128,0,65573:0:0:0:0:
320,192,65573,1,2,0:0:0:0:
64,192,65573,128,0,65749:0:0:0:0:
448,192,65749,1,0,0:0:0:70:hihat-l.wav
64,192,65926,1,8,0:0:0:0:
192,192,65926,1,0,0:0:0:0:
192,192,66102,128,0,66279:0:0:0:70:hihat-l.wav
448,192,66279,1,2,0:0:0:0:
64,192,66279,1,0,0:0:0:0:
192,192,66367,1,0,0:0:0:0:
320,192,66455,1,0,0:0:0:70:hihat-l.wav
64,192,66631,1,8,0:0:0:0:
320,192,66631,128,0,66808:0:0:0:0:
448,192,66808,1,0,0:0:0:70:hihat-l.wav
64,192,66984,1,2,0:0:0:0:
192,192,66984,1,0,0:0:0:0:
320,192,67161,1,2,0:0:0:0:
448,192,67161,1,0,0:0:0:70:hihat-l.wav
192,192,67337,1,8,0:0:0:0:
320,192,67426,1,0,0:0:0:0:
448,192,67514,1,2,0:0:0:0:
64,192,67514,1,0,0:0:0:0:
64,192,67690,128,2,67867:0:0:0:0:
320,192,67867,1,2,0:0:0:0:
448,192,67867,1,0,0:0:0:0:
320,192,68043,128,2,68220:0:0:0:0:
64,192,68131,1,2,0:0:0:0:
448,192,68220,1,2,0:0:0:0:
192,192,68308,1,2,0:0:0:0:
320,192,68396,1,4,0:0:0:50:finish-l.wav
448,192,68396,128,2,68661:0:0:0:0:
64,192,68396,1,0,0:0:0:70:twinkling.wav
192,192,68573,1,0,0:0:0:70:hihat-l.wav
320,192,68661,1,0,0:0:0:0:
448,192,68749,128,8,69014:0:0:0:0:
64,192,68749,1,0,0:0:0:0:
192,192,68926,1,0,0:0:0:70:hihat-l.wav
448,192,69102,1,2,0:0:0:0:
320,192,69102,128,0,69455:0:0:0:0:
64,192,69279,128,0,69455:0:0:0:70:hihat-l.wav
192,192,69455,1,8,0:0:0:0:
448,192,69455,1,0,0:0:0:0:
192,192,69631,128,0,69808:0:0:0:70:hihat-l.wav
320,192,69808,1,2,0:0:0:0:
448,192,69808,1,0,0:0:0:0:
64,192,69984,1,0,0:0:0:70:hihat-l.wav
64,192,70161,1,8,0:0:0:0:
448,192,70161,1,0,0:0:0:0:
320,192,70337,1,0,0:0:0:70:hihat-l.wav
320,192,70514,128,2,70690:0:0:0:0:
64,192,70514,1,0,0:0:0:0:
192,192,70690,1,0,0:0:0:70:hihat-l.wav
64,192,70867,1,8,0:0:0:0:
448,192,70867,128,0,71043:0:0:0:0:
320,192,71043,1,0,0:0:0:70:hihat-l.wav
64,192,71220,1,2,0:0:0:0:
192,192,71220,128,0,71396:0:0:0:0:
320,192,71396,1,0,0:0:0:70:hihat-l.wav
448,192,71573,1,8,0:0:0:0:
192,192,71573,128,0,71749:0:0:0:0:
320,192,71749,128,0,71926:0:0:0:70:hihat-l.wav
64,192,71926,1,2,0:0:0:0:
448,192,71926,1,0,0:0:0:0:
192,192,72014,1,0,0:0:0:0:
320,192,72102,1,0,0:0:0:70:hihat-l.wav
64,192,72279,1,8,0:0:0:0:
320,192,72279,128,0,72455:0:0:0:0:
192,192,72455,1,0,0:0:0:70:hihat-l.wav
320,192,72631,1,2,0:0:0:0:
448,192,72631,1,0,0:0:0:0:
64,192,72808,1,0,0:0:0:70:hihat-l.wav
64,192,72984,1,8,0:0:0:0:
320,192,72984,1,0,0:0:0:0:
448,192,73161,1,0,0:0:0:70:hihat-l.wav
64,192,73337,1,2,0:0:0:0:
192,192,73337,1,0,0:0:0:0:
320,192,73426,1,0,0:0:0:0:
448,192,73514,1,0,0:0:0:70:hihat-l.wav
448,192,73690,128,8,74043:0:0:0:0:
64,192,73690,1,0,0:0:0:50:finish-m.wav
192,192,73867,1,0,0:0:0:70:hihat-l.wav
64,192,74043,128,2,74308:0:0:0:0:
320,192,74043,1,4,0:0:0:0:
448,192,74220,1,0,0:0:0:70:hihat-l.wav
192,192,74396,1,8,0:0:0:0:
64,192,74396,128,0,74661:0:0:0:0:
320,192,74573,1,0,0:0:0:70:hihat-l.wav
64,192,74749,1,2,0:0:0:0:
448,192,74749,128,0,75102:0:0:0:0:
192,192,74837,1,0,0:0:0:0:
320,192,74926,128,0,75102:0:0:0:70:hihat-l.wav
192,192,75102,1,0,0:0:0:0:
64,192,75102,1,8,0:0:0:0:
64,192,75279,128,0,75455:0:0:0:70:hihat-l.wav
320,192,75455,1,2,0:0:0:0:
448,192,75455,1,0,0:0:0:0:
192,192,75631,128,0,75720:0:0:0:70:hihat-l.wav
448,192,75808,1,8,0:0:0:0:
192,192,75808,128,0,75984:0:0:0:0:
64,192,75984,1,0,0:0:0:70:hihat-l.wav
448,192,76161,1,2,0:0:0:0:
320,192,76161,128,0,76514:0:0:0:0:
192,192,76337,128,0,76514:0:0:0:70:hihat-l.wav
64,192,76514,1,8,0:0:0:0:
448,192,76514,128,0,76867:0:0:0:0:
320,192,76690,128,0,76867:0:0:0:70:hihat-l.wav
64,192,76867,128,2,76955:0:0:0:0:
192,192,76867,128,0,76955:0:0:0:0:
320,192,77043,1,2,0:0:0:0:
64,192,77220,1,8,0:0:0:0:
192,192,77220,1,0,0:0:0:0:
64,192,77396,128,2,77484:0:0:0:0:
192,192,77396,128,0,77484:0:0:0:0:
320,192,77573,1,2,0:0:0:0:
448,192,77749,128,2,77837:0:0:0:0:
64,192,77749,128,0,77837:0:0:0:0:
448,192,77926,128,2,78014:0:0:0:0:
64,192,77926,128,8,78014:0:0:0:0:
192,192,78014,1,2,0:0:0:0:
320,192,78102,1,2,0:0:0:0:
64,192,78190,1,2,0:0:0:0:
192,192,78279,1,2,0:0:0:0:
320,192,78367,1,2,0:0:0:0:
448,192,78455,128,2,78543:0:0:0:0:
192,192,78543,1,2,0:0:0:0:
320,192,78631,128,8,78720:0:0:0:0:
64,192,78720,1,2,0:0:0:0:
192,192,78808,128,2,78896:0:0:0:0:
448,192,78896,1,2,0:0:0:0:
64,192,78984,128,2,79426:0:0:0:0:
320,192,79161,1,0,0:0:0:70:hihat-l.wav
192,192,79337,128,4,79426:0:0:0:0:
448,192,79337,128,8,79514:0:0:0:0:
320,192,79514,1,0,0:0:0:70:hihat-l.wav
192,192,79690,1,2,0:0:0:0:
448,192,79690,1,0,0:0:0:50:finish-l.wav
64,192,79690,128,0,79955:0:0:0:70:twinkling.wav
64,192,80043,128,0,80308:0:0:0:0:
448,192,80220,128,0,80484:0:0:0:50:hihat-l.wav
64,192,80396,128,0,80749:0:0:0:0:
192,192,80573,128,0,80749:0:0:0:50:hihat-l.wav
320,192,80749,1,2,0:0:0:0:
448,192,80749,1,0,0:0:0:0:
320,192,80926,128,0,81455:0:0:0:50:hihat-l.wav
448,192,81808,128,2,82426:0:0:0:0:
192,192,81808,128,0,82073:0:0:0:0:
320,192,82161,128,0,82426:0:0:0:0:
64,192,82514,1,2,0:0:0:0:
448,192,82514,1,0,0:0:0:70:longwhistle.wav
192,192,82690,1,0,0:0:0:40:tick.wav
64,192,82867,1,0,0:0:0:40:tick.wav
320,192,82867,1,0,0:0:0:0:
448,192,83043,1,0,0:0:0:40:tick.wav
320,192,83043,128,0,83396:0:0:0:0:
64,192,83396,1,0,0:0:0:40:tick.wav
448,192,83573,128,0,83926:0:0:0:50:whistle.wav
64,192,83573,128,2,84543:0:0:0:0:
192,192,84455,128,0,84543:0:0:0:50:whistle.wav
320,192,84543,128,0,85331:0:0:0:50:whistle.wav
448,192,84631,128,0,85331:0:0:0:70:longwhistle.wav
192,192,85331,1,0,0:0:0:50:whistle.wav
64,192,85331,1,0,0:0:0:70:twinkling.wav
320,192,85507,1,0,0:0:0:40:tick.wav
64,192,85683,1,0,0:0:0:40:tick.wav
192,192,85860,1,0,0:0:0:40:tick.wav
320,192,86036,1,0,0:0:0:40:tick.wav
64,192,86213,1,0,0:0:0:40:tick.wav
448,192,86389,1,0,0:0:0:40:tick.wav
192,192,86566,1,0,0:0:0:40:tick.wav
320,192,86742,1,0,0:0:0:40:tick.wav
448,192,86919,1,0,0:0:0:40:tick.wav
64,192,87095,1,0,0:0:0:40:tick.wav
192,192,87272,1,0,0:0:0:40:tick.wav
320,192,87448,1,0,0:0:0:40:tick.wav
64,192,87625,1,0,0:0:0:40:tick.wav
448,192,87801,1,0,0:0:0:40:tick.wav
192,192,87978,1,0,0:0:0:40:tick.wav
192,192,88154,1,0,0:0:0:40:tick.wav
320,192,88331,1,0,0:0:0:40:tick.wav
64,192,88507,1,0,0:0:0:40:tick.wav
192,192,88683,1,0,0:0:0:40:tick.wav
320,192,88860,1,0,0:0:0:40:tick.wav
64,192,89036,1,0,0:0:0:40:tick.wav
448,192,89213,1,0,0:0:0:40:tick.wav
192,192,89389,1,0,0:0:0:40:tick.wav
320,192,89566,1,0,0:0:0:40:tick.wav
448,192,89742,1,0,0:0:0:40:tick.wav
64,192,89919,1,0,0:0:0:40:tick.wav
192,192,90095,1,0,0:0:0:40:tick.wav
320,192,90272,1,0,0:0:0:40:tick.wav
64,192,90448,1,0,0:0:0:40:tick.wav
448,192,90625,1,0,0:0:0:40:tick.wav
192,192,90801,1,0,0:0:0:40:tick.wav
192,192,90978,1,0,0:0:0:40:tick.wav
64,192,90978,1,0,0:0:0:40:longwhistle.wav
320,192,91154,1,0,0:0:0:40:tick.wav
64,192,91331,1,0,0:0:0:40:tick.wav
192,192,91507,1,0,0:0:0:40:tick.wav
320,192,91683,1,0,0:0:0:40:tick.wav
64,192,91860,1,0,0:0:0:40:tick.wav
448,192,92036,1,0,0:0:0:40:tick.wav
192,192,92213,1,0,0:0:0:40:tick.wav
320,192,92389,1,0,0:0:0:40:tick.wav
448,192,92566,1,0,0:0:0:40:tick.wav
64,192,92742,1,0,0:0:0:40:tick.wav
192,192,92919,1,0,0:0:0:40:tick.wav
320,192,93095,1,0,0:0:0:40:tick.wav
64,192,93272,1,0,0:0:0:40:tick.wav
448,192,93448,1,0,0:0:0:40:tick.wav
192,192,93625,1,0,0:0:0:40:tick.wav
192,192,93801,1,0,0:0:0:40:tick.wav
320,192,93978,1,0,0:0:0:40:tick.wav
64,192,94154,1,0,0:0:0:40:tick.wav
192,192,94341,1,0,0:0:0:40:tick.wav
320,192,94529,1,0,0:0:0:40:tick.wav
64,192,94743,1,0,0:0:0:40:tick.wav
448,192,94957,1,0,0:0:0:40:tick.wav
192,192,95197,1,0,0:0:0:40:tick.wav
320,192,95437,1,0,0:0:0:40:tick.wav
448,192,95687,1,0,0:0:0:40:tick.wav
64,192,95937,1,0,0:0:0:40:tick.wav
192,192,96237,1,0,0:0:0:40:tick.wav
320,192,96537,1,0,0:0:0:40:tick.wav
64,192,96902,1,0,0:0:0:40:tick.wav
448,192,97268,128,0,98309:0:0:0:40:tick.wav
192,192,97684,128,0,98309:0:0:0:40:tick.wav
