osu file format v14

[General]
AudioFilename: audio.mp3
AudioLeadIn: 0
PreviewTime: 55867
Countdown: 0
SampleSet: Soft
StackLeniency: 0.7
Mode: 3
LetterboxInBreaks: 0
SpecialStyle: 0
WidescreenStoryboard: 0

[Editor]
DistanceSpacing: 0.5
BeatDivisor: 4
GridSize: 16
TimelineZoom: 1.4

[Metadata]
Title:Seimeisen
TitleUnicode:生命線
Artist:ReoNa
ArtistUnicode:ReoNa
Creator:Hoto Cocoa
Version:Paran's Normal
Source:月姫 -A piece of blue glass moon-
Tags:tsukihime remake typemoon paran nabi- [ping] TheNewBungping op opening video games visual novel japanese pop jpop j-pop
BeatmapID:2884636
BeatmapSetID:1397914

[Difficulty]
HPDrainRate:7.1
CircleSize:4
OverallDifficulty:7.1
ApproachRate:5
SliderMultiplier:1.4
SliderTickRate:1

[Events]
//Background and Video events
0,0,"Bgnotlewd.jpg",0,0
//Break Periods
//Storyboard Layer 0 (Background)
//Storyboard Layer 1 (Fail)
//Storyboard Layer 2 (Pass)
//Storyboard Layer 3 (Foreground)
//Storyboard Layer 4 (Overlay)
//Storyboard Sound Samples
Sample,68043,0,"finish-m.wav",50
Sample,68396,0,"twinkling.wav",70
Sample,79690,0,"twinkling.wav",70

[TimingPoints]
632,352.941176470588,4,2,1,70,1,0
57102,-100,4,2,1,70,0,1
66984,-100,4,2,1,70,0,0
68396,-100,4,2,1,70,0,1
79690,-100,4,2,1,70,0,0
85331,352.941176470588,4,2,1,70,1,0
94154,375,4,2,1,70,1,0
94154,-94.1176470588235,4,2,1,70,0,0
94529,428.571428571429,4,2,1,70,1,0
94529,-82.3723228995058,4,2,1,70,0,0
94957,480,4,2,1,70,1,0
94957,-73.5294117647059,4,2,1,70,0,0
95437,500,4,2,1,70,1,0
95437,-70.4225352112676,4,2,1,70,0,0
95937,600,4,2,1,70,1,0
95937,-58.8235294117647,4,2,1,70,0,0
96537,731.707317073171,4,2,1,70,1,0
96537,-48.3091787439614,4,2,1,70,0,0
97268,833.333333333333,4,2,1,70,1,0
97268,-42.3728813559322,4,2,1,70,0,0

[HitObjects]
64,192,632,128,0,6279:0:0:0:70:longwhistle.wav
448,192,632,1,0,0:0:0:50:whistle.wav
192,192,984,1,0,0:0:0:40:tick.wav
448,192,1337,1,0,0:0:0:40:tick.wav
192,192,1690,1,0,0:0:0:40:tick.wav
320,192,2043,1,0,0:0:0:40:tick.wav
448,192,2396,1,0,0:0:0:40:tick.wav
192,192,2749,1,0,0:0:0:40:tick.wav
448,192,3279,1,0,0:0:0:50:whistle.wav
320,192,3367,1,0,0:0:0:50:whistle.wav
192,192,3455,1,0,0:0:0:70:longwhistle.wav
448,192,3808,1,0,0:0:0:40:tick.wav
192,192,4161,1,0,0:0:0:40:tick.wav
448,192,4514,1,0,0:0:0:40:tick.wav
192,192,4867,1,0,0:0:0:40:tick.wav
320,192,5220,1,0,0:0:0:40:tick.wav
448,192,5573,1,0,0:0:0:40:tick.wav
192,192,5926,1,0,0:0:0:40:tick.wav
320,192,6279,128,0,11926:0:0:0:70:longwhistle.wav
448,192,6279,1,0,0:0:0:50:whistle.wav
192,192,6631,1,0,0:0:0:40:tick.wav
448,192,6984,1,0,0:0:0:40:tick.wav
192,192,7337,1,0,0:0:0:40:tick.wav
64,192,7690,1,0,0:0:0:40:tick.wav
192,192,8043,1,0,0:0:0:40:tick.wav
448,192,8396,1,0,0:0:0:40:tick.wav
64,192,8926,1,0,0:0:0:50:whistle.wav
192,192,9014,1,0,0:0:0:50:whistle.wav
448,192,9102,1,0,0:0:0:70:longwhistle.wav
64,192,9455,1,0,0:0:0:40:tick.wav
448,192,9808,1,0,0:0:0:40:tick.wav
448,192,10337,1,0,0:0:0:50:whistle.wav
192,192,10426,1,0,0:0:0:50:whistle.wav
64,192,10514,1,0,0:0:0:50:whistle.wav
448,192,10867,1,0,0:0:0:40:tick.wav
64,192,11220,1,0,0:0:0:40:tick.wav
448,192,11573,1,0,0:0:0:40:tick.wav
64,192,11926,1,0,0:0:0:70:longwhistle.wav
192,192,11926,128,0,17573:0:0:0:0:
448,192,12279,1,0,0:0:0:40:tick.wav
64,192,12631,1,0,0:0:0:40:tick.wav
448,192,13161,1,0,0:0:0:50:whistle.wav
320,192,13249,1,0,0:0:0:50:whistle.wav
64,192,13337,1,0,0:0:0:50:whistle.wav
448,192,13690,1,0,0:0:0:40:tick.wav
64,192,14043,1,0,0:0:0:40:tick.wav
64,192,14573,1,0,0:0:0:50:whistle.wav
320,192,14661,1,0,0:0:0:50:whistle.wav
448,192,14749,1,0,0:0:0:50:whistle.wav
64,192,15102,1,0,0:0:0:40:tick.wav
448,192,15455,1,0,0:0:0:40:tick.wav
320,192,15984,1,0,0:0:0:50:whistle.wav
448,192,16073,1,0,0:0:0:50:whistle.wav
64,192,16161,1,0,0:0:0:50:whistle.wav
448,192,16514,1,0,0:0:0:40:tick.wav
64,192,16867,1,0,0:0:0:40:tick.wav
320,192,17220,1,0,0:0:0:40:tick.wav
64,192,17573,1,0,0:0:0:70:longwhistle.wav
448,192,17573,128,0,23220:0:0:0:40:tick.wav
320,192,17926,1,0,0:0:0:40:tick.wav
64,192,18279,1,0,0:0:0:40:tick.wav
64,192,18808,1,0,0:0:0:50:whistle.wav
192,192,18896,1,0,0:0:0:50:whistle.wav
320,192,18984,1,0,0:0:0:50:whistle.wav
64,192,19337,1,0,0:0:0:40:tick.wav
320,192,19690,1,0,0:0:0:40:tick.wav
64,192,20043,1,0,0:0:0:40:tick.wav
192,192,20396,1,0,0:0:0:40:tick.wav
320,192,20749,1,0,0:0:0:40:tick.wav
64,192,21102,1,0,0:0:0:40:tick.wav
320,192,21631,1,0,0:0:0:50:whistle.wav
192,192,21720,1,0,0:0:0:50:whistle.wav
64,192,21808,1,0,0:0:0:50:whistle.wav
320,192,22161,1,0,0:0:0:40:tick.wav
64,192,22514,1,0,0:0:0:40:tick.wav
320,192,22867,1,0,0:0:0:40:tick.wav
192,192,23220,1,0,0:0:0:70:bass-l.wav
64,192,23220,1,0,0:0:0:70:longwhistle.wav
448,192,23573,1,2,0:0:0:0:
64,192,23926,1,2,0:0:0:0:
320,192,24279,1,2,0:0:0:0:
64,192,24631,128,2,24984:0:0:0:0:
448,192,24631,1,0,0:0:0:0:
320,192,24984,1,2,0:0:0:0:
448,192,25161,128,0,25514:0:0:0:0:
192,192,25337,1,2,0:0:0:0:
64,192,25690,1,2,0:0:0:0:
320,192,26043,1,2,0:0:0:0:
64,192,26396,1,2,0:0:0:0:
448,192,26749,1,2,0:0:0:0:
192,192,27102,1,2,0:0:0:0:
448,192,27455,128,2,27808:0:0:0:0:
64,192,27455,1,0,0:0:0:0:
192,192,27808,1,2,0:0:0:0:
64,192,27984,128,0,28337:0:0:0:0:
320,192,28161,1,2,0:0:0:0:
448,192,28514,1,2,0:0:0:0:
320,192,28690,1,2,0:0:0:0:
192,192,28867,1,2,0:0:0:0:
64,192,28867,1,0,0:0:0:70:longwhistle.wav
448,192,29220,1,2,0:0:0:0:
64,192,29573,1,2,0:0:0:0:
320,192,29926,1,2,0:0:0:0:
448,192,30279,128,2,30631:0:0:0:0:
64,192,30279,1,0,0:0:0:0:
192,192,30631,1,2,0:0:0:0:
64,192,30808,128,0,31161:0:0:0:0:
320,192,30984,1,2,0:0:0:0:
448,192,31337,1,2,0:0:0:0:
64,192,31690,1,2,0:0:0:0:
64,192,31867,1,2,0:0:0:0:
320,192,32043,1,2,0:0:0:0:
320,192,32220,1,2,0:0:0:0:
192,192,32396,1,2,0:0:0:0:
192,192,32573,1,2,0:0:0:0:
448,192,32749,1,2,0:0:0:0:
448,192,32926,1,2,0:0:0:0:
64,192,33102,1,2,0:0:0:0:
192,192,33190,1,2,0:0:0:0:
320,192,33279,1,2,0:0:0:0:
192,192,33455,1,2,0:0:0:40:soft-hitwhistle.wav
320,192,33543,1,2,0:0:0:40:soft-hitwhistle.wav
448,192,33631,1,2,0:0:0:40:soft-hitwhistle.wav
64,192,34514,1,0,0:0:0:70:bass-l.wav
448,192,34514,1,0,0:0:0:70:climax.wav
192,192,34690,1,0,0:0:0:70:hihat-l.wav
320,192,34690,1,0,0:0:0:0:
64,192,35043,1,2,0:0:0:0:
192,192,35043,1,0,0:0:0:0:
320,192,35220,1,8,0:0:0:0:
448,192,35220,1,0,0:0:0:0:
192,192,35926,1,2,0:0:0:0:
64,192,35926,1,0,0:0:0:0:
192,192,36190,1,2,0:0:0:0:
320,192,36190,1,0,0:0:0:0:
320,192,36455,1,2,0:0:0:0:
448,192,36455,1,0,0:0:0:0:
64,192,36631,1,8,0:0:0:0:
192,192,36631,1,0,0:0:0:0:
320,192,37337,1,2,0:0:0:0:
192,192,37337,1,0,0:0:0:0:
448,192,37867,1,2,0:0:0:0:
320,192,37867,1,0,0:0:0:0:
192,192,38043,1,8,0:0:0:0:
64,192,38043,1,0,0:0:0:0:
448,192,38749,1,2,0:0:0:0:
320,192,38749,1,0,0:0:0:0:
320,192,39014,1,2,0:0:0:0:
192,192,39014,1,0,0:0:0:0:
192,192,39279,1,2,0:0:0:0:
64,192,39279,1,0,0:0:0:0:
320,192,39455,1,8,0:0:0:0:
448,192,39455,1,0,0:0:0:0:
448,192,39720,1,8,0:0:0:0:
320,192,39720,1,0,0:0:0:0:
320,192,39984,1,8,0:0:0:0:
448,192,39984,1,0,0:0:0:0:
64,192,40514,1,2,0:0:0:0:
192,192,40602,1,2,0:0:0:0:
448,192,40690,1,2,0:0:0:0:
320,192,40779,1,2,0:0:0:0:
192,192,40867,1,8,0:0:0:0:
64,192,40867,1,0,0:0:0:0:
448,192,41573,1,2,0:0:0:0:
320,192,41573,1,0,0:0:0:0:
320,192,41837,1,2,0:0:0:0:
192,192,41837,1,0,0:0:0:0:
192,192,42102,1,2,0:0:0:0:
64,192,42102,1,0,0:0:0:0:
448,192,42279,1,8,0:0:0:0:
320,192,42279,1,0,0:0:0:0:
192,192,42984,1,2,0:0:0:0:
320,192,42984,1,0,0:0:0:0:
64,192,43514,1,2,0:0:0:0:
192,192,43514,1,0,0:0:0:0:
320,192,43690,1,8,0:0:0:0:
448,192,43690,1,0,0:0:0:0:
64,192,44396,128,2,44573:0:0:0:0:
192,192,44396,128,0,44573:0:0:0:0:
192,192,44661,128,2,44837:0:0:0:0:
320,192,44661,128,0,44837:0:0:0:0:
320,192,44926,128,2,45102:0:0:0:0:
448,192,44926,128,0,45102:0:0:0:0:
448,192,45808,128,2,46161:0:0:0:50:tom-h.wav
64,192,45808,128,0,47220:0:0:0:70:longwhistle.wav
192,192,46337,128,2,46690:0:0:0:50:tom-l.wav
448,192,46867,1,2,0:0:0:0:
320,192,47220,128,2,48631:0:0:0:0:
192,192,47220,1,0,0:0:0:0:
448,192,47573,1,2,0:0:0:0:
64,192,47926,1,2,0:0:0:0:
192,192,48279,1,2,0:0:0:0:
64,192,48631,128,2,50043:0:0:0:0:
448,192,48631,128,0,48984:0:0:0:50:tom-h.wav
192,192,49161,128,0,49514:0:0:0:50:tom-l.wav
448,192,49690,1,2,0:0:0:0:
192,192,50043,1,2,0:0:0:0:
320,192,50043,128,0,51102:0:0:0:0:
448,192,50396,1,2,0:0:0:0:
64,192,50749,1,2,0:0:0:0:
192,192,50926,1,0,0:0:0:0:
448,192,51102,1,2,0:0:0:0:
64,192,51455,1,2,0:0:0:0:
448,192,51455,1,4,0:0:0:0:
192,192,51631,1,2,0:0:0:0:
448,192,51808,1,8,0:0:0:0:
320,192,51808,1,0,0:0:0:0:
64,192,51984,1,2,0:0:0:0:
448,192,52161,1,2,0:0:0:0:
320,192,52337,1,2,0:0:0:0:
192,192,52514,1,8,0:0:0:0:
64,192,52514,1,0,0:0:0:0:
320,192,52690,1,2,0:0:0:0:
192,192,52867,1,2,0:0:0:0:
320,192,53043,1,2,0:0:0:0:
64,192,53220,1,8,0:0:0:0:
448,192,53220,1,0,0:0:0:0:
192,192,53396,1,2,0:0:0:0:
320,192,53573,1,2,0:0:0:0:
192,192,53749,1,2,0:0:0:0:
64,192,53926,1,8,0:0:0:0:
320,192,53926,1,0,0:0:0:0:
448,192,54102,1,0,0:0:0:0:
64,192,54279,1,2,0:0:0:0:
192,192,54279,128,0,54631:0:0:0:0:
448,192,54631,128,8,54984:0:0:0:0:
320,192,54631,1,0,0:0:0:0:
64,192,54984,128,8,55161:0:0:0:0:
320,192,55161,128,2,55337:0:0:0:0:
192,192,55337,128,2,55514:0:0:0:0:
448,192,55514,128,8,55690:0:0:0:0:
192,192,56396,1,0,0:0:0:50:snare.wav
448,192,56484,1,0,0:0:0:50:tom-h.wav
64,192,56573,1,0,0:0:0:50:tom-l.wav
192,192,56661,1,0,0:0:0:50:tom-l.wav
448,192,56749,1,8,0:0:0:50:snare.wav
320,192,56749,1,0,0:0:0:70:climax.wav
64,192,57102,128,0,58161:0:0:0:70:twinkling.wav
192,192,57102,1,6,0:0:0:0:
448,192,57455,1,8,0:0:0:0:
320,192,57808,1,2,0:0:0:0:
448,192,58161,128,8,58337:0:0:0:0:
192,192,58161,1,0,0:0:0:0:
64,192,58337,128,0,58514:0:0:0:0:
320,192,58514,1,2,0:0:0:0:
192,192,58867,1,8,0:0:0:0:
448,192,59043,128,0,59220:0:0:0:0:
320,192,59220,128,2,59573:0:0:0:0:
64,192,59220,1,0,0:0:0:0:
192,192,59573,1,8,0:0:0:0:
64,192,59573,128,0,59926:0:0:0:0:
448,192,59926,128,2,60984:0:0:0:0:
320,192,59926,1,0,0:0:0:0:
64,192,60279,1,8,0:0:0:0:
192,192,60631,1,2,0:0:0:0:
64,192,60984,128,8,61161:0:0:0:0:
320,192,60984,1,0,0:0:0:0:
448,192,61161,128,0,61337:0:0:0:0:
192,192,61337,1,2,0:0:0:0:
320,192,61690,1,8,0:0:0:0:
192,192,62043,1,2,0:0:0:0:
64,192,62043,1,0,0:0:0:0:
448,192,62220,1,0,0:0:0:0:
192,192,62396,1,8,0:0:0:0:
64,192,62396,1,0,0:0:0:50:finish-m.wav
448,192,62749,128,2,63808:0:0:0:0:
320,192,62749,1,4,0:0:0:0:
64,192,63102,1,8,0:0:0:0:
192,192,63455,1,2,0:0:0:0:
320,192,63808,1,8,0:0:0:0:
64,192,63808,128,0,63984:0:0:0:0:
448,192,63984,128,0,64161:0:0:0:0:
192,192,64161,1,2,0:0:0:0:
320,192,64514,1,8,0:0:0:0:
64,192,64690,128,0,64867:0:0:0:0:
192,192,64867,128,2,65220:0:0:0:0:
448,192,64867,1,0,0:0:0:0:
448,192,65220,128,8,65573:0:0:0:0:
320,192,65220,1,0,0:0:0:0:
64,192,65573,128,2,65926:0:0:0:0:
192,192,65573,1,0,0:0:0:0:
448,192,65926,1,8,0:0:0:0:
320,192,65926,128,0,66102:0:0:0:0:
192,192,66102,128,0,66279:0:0:0:0:
64,192,66279,1,2,0:0:0:0:
448,192,66455,128,0,66631:0:0:0:0:
64,192,66631,128,8,66808:0:0:0:0:
320,192,66631,1,0,0:0:0:0:
192,192,66984,1,2,0:0:0:0:
448,192,66984,1,0,0:0:0:0:
320,192,67161,1,2,0:0:0:0:
64,192,67337,1,8,0:0:0:0:
448,192,67337,1,0,0:0:0:0:
192,192,67514,1,2,0:0:0:0:
320,192,67690,1,2,0:0:0:0:
64,192,67690,1,0,0:0:0:0:
448,192,67867,1,2,0:0:0:0:
64,192,68043,1,2,0:0:0:0:
192,192,68131,1,2,0:0:0:0:
448,192,68220,1,2,0:0:0:0:
320,192,68308,1,2,0:0:0:0:
192,192,68396,1,4,0:0:0:50:finish-l.wav
64,192,68396,128,2,69455:0:0:0:0:
448,192,68749,1,8,0:0:0:0:
320,192,69102,1,2,0:0:0:0:
192,192,69455,1,8,0:0:0:0:
448,192,69455,128,0,69631:0:0:0:0:
64,192,69631,128,0,69808:0:0:0:0:
320,192,69808,1,2,0:0:0:0:
192,192,70161,1,8,0:0:0:0:
448,192,70337,128,0,70514:0:0:0:0:
320,192,70514,128,2,70867:0:0:0:0:
64,192,70514,1,0,0:0:0:0:
192,192,70867,1,8,0:0:0:0:
64,192,70867,128,0,71220:0:0:0:0:
448,192,71220,128,2,71573:0:0:0:0:
320,192,71220,1,0,0:0:0:0:
192,192,71573,128,8,71749:0:0:0:0:
64,192,71573,1,0,0:0:0:0:
320,192,71749,128,0,71926:0:0:0:0:
448,192,71926,1,2,0:0:0:0:
64,192,72102,128,0,72279:0:0:0:0:
192,192,72279,1,8,0:0:0:0:
320,192,72279,128,0,72631:0:0:0:0:
448,192,72631,1,2,0:0:0:0:
192,192,72984,1,8,0:0:0:0:
64,192,73337,128,2,73690:0:0:0:0:
448,192,73337,1,0,0:0:0:0:
320,192,73690,128,8,74043:0:0:0:0:
192,192,73690,1,0,0:0:0:50:finish-m.wav
448,192,74043,128,2,75102:0:0:0:0:
64,192,74043,1,4,0:0:0:0:
192,192,74396,1,8,0:0:0:0:
320,192,74749,1,2,0:0:0:0:
64,192,75102,128,8,75279:0:0:0:0:
192,192,75102,1,0,0:0:0:0:
448,192,75279,128,0,75455:0:0:0:0:
320,192,75455,1,2,0:0:0:0:
64,192,75808,1,8,0:0:0:0:
192,192,76161,1,2,0:0:0:0:
320,192,76161,128,0,76514:0:0:0:0:
448,192,76514,128,8,76867:0:0:0:0:
64,192,76514,1,0,0:0:0:0:
192,192,76867,1,2,0:0:0:0:
64,192,76867,1,0,0:0:0:0:
320,192,77043,1,2,0:0:0:0:
448,192,77220,1,8,0:0:0:0:
64,192,77396,1,2,0:0:0:0:
192,192,77396,1,0,0:0:0:0:
320,192,77573,1,2,0:0:0:0:
448,192,77749,1,2,0:0:0:0:
192,192,77926,128,10,78102:0:0:0:0:
448,192,78102,128,2,78279:0:0:0:0:
64,192,78279,128,2,78455:0:0:0:0:
320,192,78455,128,2,78631:0:0:0:0:
192,192,78631,128,8,78808:0:0:0:0:
448,192,78808,128,2,78984:0:0:0:0:
64,192,78984,1,2,0:0:0:0:
192,192,79337,1,12,0:0:0:0:
320,192,79690,1,2,0:0:0:0:
448,192,79690,1,0,0:0:0:50:finish-l.wav
64,192,79867,128,0,80043:0:0:0:50:hihat-l.wav
320,192,80220,128,0,80396:0:0:0:50:hihat-l.wav
192,192,80573,128,0,80749:0:0:0:50:hihat-l.wav
64,192,80749,1,2,0:0:0:0:
448,192,80926,128,0,81102:0:0:0:50:hihat-l.wav
192,192,81279,128,0,81455:0:0:0:50:hihat-l.wav
320,192,81631,128,0,81808:0:0:0:50:hihat-l.wav
448,192,81808,1,2,0:0:0:0:
64,192,81984,128,0,82161:0:0:0:50:hihat-l.wav
320,192,82337,128,0,82514:0:0:0:50:hihat-l.wav
192,192,82514,1,2,0:0:0:0:
448,192,82867,1,0,0:0:0:40:tick.wav
64,192,83043,1,0,0:0:0:40:tick.wav
192,192,83396,1,0,0:0:0:40:tick.wav
320,192,83573,1,0,0:0:0:50:whistle.wav
448,192,83573,128,2,85331:0:0:0:0:
64,192,84455,1,0,0:0:0:50:whistle.wav
192,192,84543,1,0,0:0:0:50:whistle.wav
320,192,84631,1,0,0:0:0:70:longwhistle.wav
192,192,85331,1,0,0:0:0:50:whistle.wav
64,192,85331,1,0,0:0:0:70:twinkling.wav
320,192,85507,1,0,0:0:0:40:tick.wav
192,192,85683,1,0,0:0:0:40:tick.wav
64,192,85860,1,0,0:0:0:40:tick.wav
320,192,86036,1,0,0:0:0:40:tick.wav
192,192,86213,1,0,0:0:0:40:tick.wav
320,192,86389,1,0,0:0:0:40:tick.wav
448,192,86566,1,0,0:0:0:40:tick.wav
192,192,86742,1,0,0:0:0:40:tick.wav
320,192,86919,1,0,0:0:0:40:tick.wav
192,192,87095,1,0,0:0:0:40:tick.wav
64,192,87272,1,0,0:0:0:40:tick.wav
448,192,87448,1,0,0:0:0:40:tick.wav
192,192,87625,1,0,0:0:0:40:tick.wav
320,192,87801,1,0,0:0:0:40:tick.wav
64,192,87978,1,0,0:0:0:40:tick.wav
192,192,88154,1,0,0:0:0:40:tick.wav
448,192,88507,1,0,0:0:0:40:tick.wav
320,192,88683,1,0,0:0:0:40:tick.wav
64,192,88860,1,0,0:0:0:40:tick.wav
448,192,89213,1,0,0:0:0:40:tick.wav
320,192,89389,1,0,0:0:0:40:tick.wav
64,192,89566,1,0,0:0:0:40:tick.wav
192,192,89742,1,0,0:0:0:40:tick.wav
320,192,89919,1,0,0:0:0:40:tick.wav
192,192,90095,1,0,0:0:0:40:tick.wav
448,192,90272,1,0,0:0:0:40:tick.wav
192,192,90448,1,0,0:0:0:40:tick.wav
320,192,90625,1,0,0:0:0:40:tick.wav
64,192,90801,1,0,0:0:0:40:tick.wav
320,192,90978,1,0,0:0:0:40:tick.wav
448,192,90978,1,0,0:0:0:40:longwhistle.wav
192,192,91154,1,0,0:0:0:40:tick.wav
320,192,91331,1,0,0:0:0:40:tick.wav
448,192,91507,1,0,0:0:0:40:tick.wav
192,192,91683,1,0,0:0:0:40:tick.wav
320,192,91860,1,0,0:0:0:40:tick.wav
192,192,92036,1,0,0:0:0:40:tick.wav
64,192,92213,1,0,0:0:0:40:tick.wav
320,192,92389,1,0,0:0:0:40:tick.wav
192,192,92566,1,0,0:0:0:40:tick.wav
320,192,92742,1,0,0:0:0:40:tick.wav
448,192,92919,1,0,0:0:0:40:tick.wav
64,192,93095,1,0,0:0:0:40:tick.wav
320,192,93272,1,0,0:0:0:40:tick.wav
192,192,93448,1,0,0:0:0:40:tick.wav
448,192,93625,1,0,0:0:0:40:tick.wav
64,192,93801,1,0,0:0:0:40:tick.wav
192,192,93978,1,0,0:0:0:40:tick.wav
320,192,94154,1,0,0:0:0:40:tick.wav
448,192,94341,1,0,0:0:0:40:tick.wav
192,192,94529,1,0,0:0:0:40:tick.wav
320,192,94743,1,0,0:0:0:40:tick.wav
192,192,94957,1,0,0:0:0:40:tick.wav
64,192,95197,1,0,0:0:0:40:tick.wav
320,192,95437,1,0,0:0:0:40:tick.wav
192,192,95687,1,0,0:0:0:40:tick.wav
320,192,95937,1,0,0:0:0:40:tick.wav
448,192,96237,1,0,0:0:0:40:tick.wav
64,192,96537,1,0,0:0:0:40:tick.wav
320,192,96902,1,0,0:0:0:40:tick.wav
192,192,97268,1,0,0:0:0:40:tick.wav
448,192,97684,1,0,0:0:0:40:tick.wav
