osu file format v14

[General]
AudioFilename: audio.mp3
AudioLeadIn: 0
PreviewTime: 55867
Countdown: 0
SampleSet: Soft
StackLeniency: 0.7
Mode: 3
LetterboxInBreaks: 0
SpecialStyle: 0
WidescreenStoryboard: 0

[Editor]
Bookmarks: 632,11926,23220,34161,34337,35573,35749,36984,37161,38396,38573,39808,39984,41220,41396,42631,42808,44043,44220,45808,51455,56749,57102,66984,68396,79690
DistanceSpacing: 0.5
BeatDivisor: 4
GridSize: 16
TimelineZoom: 1.799999

[Metadata]
Title:Seimeisen
TitleUnicode:生命線
Artist:ReoNa
ArtistUnicode:ReoNa
Creator:Hoto Cocoa
Version:Lifeline beyond the borderline
Source:月姫 -A piece of blue glass moon-
Tags:tsukihime remake typemoon paran nabi- [ping] TheNewBungping op opening video games visual novel japanese pop jpop j-pop
BeatmapID:2884634
BeatmapSetID:1397914

[Difficulty]
HPDrainRate:9.1
CircleSize:4
OverallDifficulty:8.5
ApproachRate:5
SliderMultiplier:1.4
SliderTickRate:1

[Events]
//Background and Video events
0,0,"Bgnotlewd.jpg",0,0
//Break Periods
//Storyboard Layer 0 (Background)
//Storyboard Layer 1 (Fail)
//Storyboard Layer 2 (Pass)
//Storyboard Layer 3 (Foreground)
//Storyboard Layer 4 (Overlay)
//Storyboard Sound Samples
Sample,45808,0,"tom-h.wav",20
Sample,46514,0,"tom-l.wav",20

[TimingPoints]
632,352.941176470588,4,2,1,70,1,0
632,-111.111111111111,4,2,1,70,0,0
22867,-108.695652173913,4,2,1,70,0,0
22955,-106.382978723404,4,2,1,70,0,0
23043,-104.166666666667,4,2,1,70,0,0
23131,-102.040816326531,4,2,1,70,0,0
23220,-100,4,2,1,70,0,0
45808,-111.111111111111,4,2,1,70,0,0
51455,-66.6666666666667,4,2,1,70,0,0
51499,-200,4,2,1,70,0,0
51543,-100,4,2,1,70,0,0
57102,-100,4,2,1,70,0,1
66984,-100,4,2,1,70,0,0
68396,-100,4,2,1,70,0,1
79690,-100,4,2,1,70,0,0
84720,-111.111111111111,4,2,1,70,0,0
85331,352.941176470588,4,2,1,70,1,0
85331,-111.111111111111,4,2,1,70,0,0
94154,375,4,2,1,70,1,0
94154,-103.896103896104,4,2,1,70,0,0
94529,428.571428571429,4,2,1,70,1,0
94529,-89.7666068222621,4,2,1,70,0,0
94957,480,4,2,1,70,1,0
94957,-79.3650793650794,4,2,1,70,0,0
95437,500,4,2,1,70,1,0
95437,-75.7575757575758,4,2,1,70,0,0
95937,600,4,2,1,70,1,0
95937,-62.5,4,2,1,70,0,0
96537,731.707317073171,4,2,1,70,1,0
96537,-50.761421319797,4,2,1,70,0,0
97268,833.333333333333,4,2,1,70,1,0
97268,-44.2477876106195,4,2,1,70,0,0

[HitObjects]
64,192,632,5,0,0:0:0:70:longwhistle.wav
320,192,632,128,0,720:0:0:0:50:whistle.wav
448,192,632,128,0,720:0:0:0:0:
192,192,808,1,0,0:0:0:40:tick.wav
320,192,984,1,0,0:0:0:40:tick.wav
192,192,1161,1,0,0:0:0:40:tick.wav
448,192,1337,1,0,0:0:0:40:tick.wav
192,192,1514,1,0,0:0:0:40:tick.wav
320,192,1690,1,0,0:0:0:40:tick.wav
192,192,1867,1,0,0:0:0:40:tick.wav
448,192,2043,1,0,0:0:0:40:tick.wav
192,192,2220,1,0,0:0:0:40:tick.wav
320,192,2396,1,0,0:0:0:40:tick.wav
192,192,2573,1,0,0:0:0:40:tick.wav
448,192,2749,1,0,0:0:0:40:tick.wav
192,192,2926,1,0,0:0:0:40:tick.wav
320,192,3102,1,0,0:0:0:40:tick.wav
192,192,3279,128,0,3455:0:0:0:50:whistle.wav
64,192,3367,128,0,3543:0:0:0:50:whistle.wav
448,192,3455,128,0,3631:0:0:0:70:longwhistle.wav
192,192,3631,1,0,0:0:0:40:tick.wav
320,192,3808,1,0,0:0:0:40:tick.wav
192,192,3984,1,0,0:0:0:40:tick.wav
448,192,4161,1,0,0:0:0:40:tick.wav
192,192,4337,1,0,0:0:0:40:tick.wav
320,192,4514,1,0,0:0:0:40:tick.wav
192,192,4690,1,0,0:0:0:40:tick.wav
448,192,4867,1,0,0:0:0:40:tick.wav
192,192,5043,1,0,0:0:0:40:tick.wav
320,192,5220,1,0,0:0:0:40:tick.wav
192,192,5396,1,0,0:0:0:40:tick.wav
448,192,5573,1,0,0:0:0:40:tick.wav
192,192,5749,1,0,0:0:0:40:tick.wav
320,192,5926,1,0,0:0:0:40:tick.wav
192,192,6102,1,0,0:0:0:40:tick.wav
64,192,6279,1,0,0:0:0:70:longwhistle.wav
320,192,6279,128,0,6367:0:0:0:50:whistle.wav
448,192,6279,128,0,6367:0:0:0:0:
192,192,6455,1,0,0:0:0:40:tick.wav
320,192,6631,1,0,0:0:0:40:tick.wav
192,192,6808,1,0,0:0:0:40:tick.wav
448,192,6984,1,0,0:0:0:40:tick.wav
192,192,7161,1,0,0:0:0:40:tick.wav
320,192,7337,1,0,0:0:0:40:tick.wav
192,192,7514,1,0,0:0:0:40:tick.wav
448,192,7690,1,0,0:0:0:40:tick.wav
192,192,7867,1,0,0:0:0:40:tick.wav
320,192,8043,1,0,0:0:0:40:tick.wav
192,192,8220,1,0,0:0:0:40:tick.wav
448,192,8396,1,0,0:0:0:40:tick.wav
192,192,8573,1,0,0:0:0:40:tick.wav
320,192,8749,1,0,0:0:0:40:tick.wav
448,192,8926,128,0,9102:0:0:0:50:whistle.wav
320,192,9014,128,0,9190:0:0:0:50:whistle.wav
64,192,9102,128,0,9279:0:0:0:70:longwhistle.wav
192,192,9279,1,0,0:0:0:40:tick.wav
320,192,9455,1,0,0:0:0:40:tick.wav
192,192,9631,1,0,0:0:0:40:tick.wav
448,192,9808,1,0,0:0:0:40:tick.wav
192,192,9984,1,0,0:0:0:40:tick.wav
320,192,10161,1,0,0:0:0:40:tick.wav
192,192,10337,128,0,10514:0:0:0:50:whistle.wav
320,192,10426,128,0,10602:0:0:0:50:whistle.wav
64,192,10514,128,0,10690:0:0:0:50:whistle.wav
192,192,10690,1,0,0:0:0:40:tick.wav
320,192,10867,1,0,0:0:0:40:tick.wav
192,192,11043,1,0,0:0:0:40:tick.wav
448,192,11220,1,0,0:0:0:40:tick.wav
192,192,11396,1,0,0:0:0:40:tick.wav
320,192,11573,1,0,0:0:0:40:tick.wav
192,192,11749,128,0,11926:0:0:0:40:tick.wav
448,192,11926,128,0,12014:0:0:0:70:longwhistle.wav
320,192,11926,128,0,12014:0:0:0:0:
64,192,12102,1,0,0:0:0:40:tick.wav
64,192,12279,1,0,0:0:0:40:tick.wav
64,192,12455,1,0,0:0:0:40:tick.wav
192,192,12631,128,0,12984:0:0:0:40:tick.wav
320,192,12808,1,0,0:0:0:40:tick.wav
448,192,12984,1,0,0:0:0:40:tick.wav
192,192,13161,128,0,13514:0:0:0:50:whistle.wav
320,192,13249,1,0,0:0:0:50:whistle.wav
448,192,13337,1,0,0:0:0:50:whistle.wav
320,192,13514,128,0,13867:0:0:0:40:tick.wav
64,192,13690,1,0,0:0:0:40:tick.wav
448,192,13867,128,0,14043:0:0:0:40:tick.wav
64,192,14043,128,0,14396:0:0:0:40:tick.wav
192,192,14220,128,0,14484:0:0:0:40:tick.wav
320,192,14396,128,0,14573:0:0:0:40:tick.wav
64,192,14573,128,0,14749:0:0:0:50:whistle.wav
192,192,14661,128,0,14837:0:0:0:50:whistle.wav
320,192,14749,128,0,14926:0:0:0:50:whistle.wav
448,192,14926,1,0,0:0:0:40:tick.wav
448,192,15102,1,0,0:0:0:40:tick.wav
448,192,15279,1,0,0:0:0:40:tick.wav
320,192,15455,128,0,15808:0:0:0:40:tick.wav
192,192,15631,1,0,0:0:0:40:tick.wav
64,192,15808,128,0,15984:0:0:0:40:tick.wav
192,192,15984,128,0,16161:0:0:0:50:whistle.wav
320,192,16073,128,0,16249:0:0:0:50:whistle.wav
448,192,16161,128,0,16337:0:0:0:50:whistle.wav
64,192,16337,128,0,16690:0:0:0:40:tick.wav
320,192,16514,1,0,0:0:0:40:tick.wav
192,192,16690,128,0,16867:0:0:0:40:tick.wav
320,192,16867,128,0,17220:0:0:0:40:tick.wav
192,192,17043,1,0,0:0:0:40:tick.wav
448,192,17220,128,0,17573:0:0:0:40:tick.wav
64,192,17396,128,0,18631:0:0:0:40:tick.wav
320,192,17573,1,0,0:0:0:0:
192,192,17573,1,0,0:0:0:70:longwhistle.wav
448,192,17749,1,0,0:0:0:40:tick.wav
320,192,17926,1,0,0:0:0:40:tick.wav
192,192,18102,1,0,0:0:0:40:tick.wav
448,192,18279,1,0,0:0:0:40:tick.wav
192,192,18455,1,0,0:0:0:40:tick.wav
320,192,18631,128,0,18808:0:0:0:40:tick.wav
192,192,18808,128,0,18984:0:0:0:50:whistle.wav
320,192,18896,128,0,19073:0:0:0:50:whistle.wav
64,192,18984,128,0,19161:0:0:0:50:whistle.wav
448,192,19161,1,0,0:0:0:40:tick.wav
320,192,19337,1,0,0:0:0:40:tick.wav
64,192,19514,1,0,0:0:0:40:tick.wav
448,192,19690,1,0,0:0:0:40:tick.wav
64,192,19867,1,0,0:0:0:40:tick.wav
320,192,20043,128,0,20220:0:0:0:40:tick.wav
64,192,20220,128,0,21455:0:0:0:40:tick.wav
320,192,20396,1,0,0:0:0:40:tick.wav
448,192,20396,1,0,0:0:0:70:longwhistle.wav
192,192,20573,1,0,0:0:0:40:tick.wav
320,192,20749,1,0,0:0:0:40:tick.wav
192,192,20926,1,0,0:0:0:40:tick.wav
448,192,21102,1,0,0:0:0:40:tick.wav
320,192,21279,1,0,0:0:0:40:tick.wav
192,192,21455,128,0,21631:0:0:0:40:tick.wav
320,192,21631,128,0,21808:0:0:0:50:whistle.wav
448,192,21720,128,0,21896:0:0:0:50:whistle.wav
64,192,21808,128,0,21984:0:0:0:50:whistle.wav
192,192,21984,1,0,0:0:0:40:tick.wav
320,192,22161,1,0,0:0:0:40:tick.wav
192,192,22337,1,0,0:0:0:40:tick.wav
448,192,22514,1,0,0:0:0:40:tick.wav
192,192,22690,1,0,0:0:0:40:tick.wav
320,192,22867,1,0,0:0:0:40:tick.wav
192,192,23043,1,0,0:0:0:40:tick.wav
64,192,23220,1,0,0:0:0:70:bass-l.wav
320,192,23220,1,0,0:0:0:70:longwhistle.wav
448,192,23220,1,2,0:0:0:0:
192,192,23396,1,0,0:0:0:0:
320,192,23484,1,0,0:0:0:0:
64,192,23573,1,2,0:0:0:0:
192,192,23573,1,0,0:0:0:0:
448,192,23749,1,0,0:0:0:0:
64,192,23926,1,2,0:0:0:0:
320,192,23926,1,0,0:0:0:0:
448,192,24102,1,0,0:0:0:0:
64,192,24279,1,2,0:0:0:0:
192,192,24279,1,0,0:0:0:0:
320,192,24455,1,0,0:0:0:0:
448,192,24543,1,0,0:0:0:0:
64,192,24631,1,2,0:0:0:0:
320,192,24631,1,0,0:0:0:20:tom-h.wav
192,192,24720,1,0,0:0:0:20:tom-h.wav
448,192,24808,1,0,0:0:0:20:tom-h.wav
320,192,24896,1,0,0:0:0:20:tom-h.wav
64,192,24984,1,2,0:0:0:0:
192,192,24984,1,0,0:0:0:20:tom-h.wav
320,192,25161,1,0,0:0:0:20:tom-l.wav
192,192,25249,1,0,0:0:0:20:tom-l.wav
64,192,25337,1,2,0:0:0:0:
320,192,25337,1,0,0:0:0:20:tom-l.wav
448,192,25426,1,0,0:0:0:20:tom-l.wav
192,192,25514,1,0,0:0:0:20:tom-l.wav
64,192,25690,1,2,0:0:0:0:
320,192,25690,1,0,0:0:0:0:
448,192,25867,1,0,0:0:0:0:
192,192,26043,1,0,0:0:0:0:
64,192,26043,1,2,0:0:0:0:
320,192,26220,1,0,0:0:0:0:
192,192,26308,1,0,0:0:0:0:
448,192,26396,1,0,0:0:0:0:
64,192,26396,1,2,0:0:0:0:
192,192,26573,1,0,0:0:0:0:
320,192,26661,1,0,0:0:0:0:
448,192,26749,1,0,0:0:0:0:
64,192,26749,1,2,0:0:0:0:
192,192,26837,1,0,0:0:0:0:
320,192,26926,1,0,0:0:0:0:
448,192,27102,1,0,0:0:0:0:
64,192,27102,1,2,0:0:0:0:
192,192,27279,1,0,0:0:0:0:
320,192,27367,1,0,0:0:0:0:
448,192,27455,1,2,0:0:0:0:
192,192,27455,1,0,0:0:0:20:tom-h.wav
320,192,27543,1,0,0:0:0:20:tom-h.wav
64,192,27631,1,0,0:0:0:20:tom-h.wav
320,192,27720,1,0,0:0:0:20:tom-h.wav
448,192,27808,1,2,0:0:0:0:
192,192,27808,1,0,0:0:0:0:
64,192,27984,1,0,0:0:0:20:tom-l.wav
192,192,28073,1,0,0:0:0:20:tom-l.wav
448,192,28161,1,2,0:0:0:0:
320,192,28161,1,0,0:0:0:20:tom-l.wav
192,192,28249,1,0,0:0:0:20:tom-l.wav
64,192,28337,1,0,0:0:0:20:tom-l.wav
448,192,28514,1,2,0:0:0:0:
192,192,28514,1,0,0:0:0:0:
448,192,28690,1,2,0:0:0:0:
192,192,28690,1,0,0:0:0:0:
64,192,28867,1,2,0:0:0:0:
320,192,28867,1,0,0:0:0:70:longwhistle.wav
448,192,29043,1,0,0:0:0:0:
320,192,29131,1,0,0:0:0:0:
192,192,29220,1,0,0:0:0:0:
64,192,29220,1,2,0:0:0:0:
320,192,29396,1,0,0:0:0:0:
64,192,29573,1,2,0:0:0:0:
192,192,29573,1,0,0:0:0:0:
320,192,29661,1,0,0:0:0:0:
448,192,29749,1,0,0:0:0:0:
64,192,29926,1,2,0:0:0:0:
192,192,29926,1,0,0:0:0:0:
320,192,30102,1,0,0:0:0:0:
192,192,30279,1,0,0:0:0:20:tom-h.wav
448,192,30279,1,2,0:0:0:0:
64,192,30367,1,0,0:0:0:20:tom-h.wav
320,192,30455,1,0,0:0:0:20:tom-h.wav
192,192,30543,1,0,0:0:0:20:tom-h.wav
64,192,30631,1,0,0:0:0:20:tom-h.wav
448,192,30631,1,2,0:0:0:0:
320,192,30808,1,0,0:0:0:20:tom-l.wav
192,192,30896,1,0,0:0:0:20:tom-l.wav
64,192,30984,1,0,0:0:0:20:tom-l.wav
448,192,30984,1,2,0:0:0:0:
320,192,31073,1,0,0:0:0:20:tom-l.wav
192,192,31161,1,0,0:0:0:20:tom-l.wav
64,192,31337,1,0,0:0:0:0:
448,192,31337,1,2,0:0:0:0:
192,192,31514,1,0,0:0:0:0:
64,192,31690,1,2,0:0:0:0:
448,192,31690,1,0,0:0:0:0:
64,192,31867,1,2,0:0:0:0:
320,192,31867,1,0,0:0:0:0:
320,192,32043,1,0,0:0:0:0:
448,192,32043,1,2,0:0:0:0:
448,192,32220,1,2,0:0:0:0:
64,192,32220,1,0,0:0:0:0:
64,192,32396,1,2,0:0:0:0:
192,192,32396,1,0,0:0:0:0:
192,192,32573,1,2,0:0:0:0:
448,192,32573,1,0,0:0:0:0:
320,192,32749,1,2,0:0:0:0:
448,192,32749,1,0,0:0:0:0:
192,192,32926,1,2,0:0:0:0:
64,192,32926,1,0,0:0:0:0:
320,192,33102,1,2,0:0:0:0:
448,192,33102,1,0,0:0:0:0:
192,192,33190,1,2,0:0:0:0:
64,192,33190,1,0,0:0:0:0:
320,192,33279,1,2,0:0:0:0:
448,192,33279,1,0,0:0:0:0:
192,192,33367,1,2,0:0:0:0:
64,192,33367,1,0,0:0:0:0:
320,192,33455,1,2,0:0:0:40:soft-hitwhistle.wav
448,192,33455,1,0,0:0:0:0:
192,192,33543,1,2,0:0:0:40:soft-hitwhistle.wav
64,192,33543,1,0,0:0:0:0:
320,192,33631,1,2,0:0:0:40:soft-hitwhistle.wav
192,192,33720,1,2,0:0:0:40:soft-hitwhistle.wav
320,192,34161,128,0,34426:0:0:0:50:whistle.wav
448,192,34161,128,0,34426:0:0:0:0:
192,192,34337,128,0,34426:0:0:0:50:whistle.wav
64,192,34337,128,0,34426:0:0:0:0:
320,192,34514,1,0,0:0:0:70:bass-l.wav
448,192,34514,1,0,0:0:0:70:climax.wav
64,192,34514,128,2,34955:0:0:0:0:
192,192,34514,128,4,34955:0:0:0:0:
320,192,34690,128,0,34955:0:0:0:70:hihat-l.wav
64,192,35043,1,0,0:0:0:0:
192,192,35043,1,2,0:0:0:0:
448,192,35043,1,0,0:0:0:0:
320,192,35131,1,0,0:0:0:0:
64,192,35220,1,0,0:0:0:0:
192,192,35220,1,8,0:0:0:0:
448,192,35220,1,0,0:0:0:0:
320,192,35308,1,0,0:0:0:0:
192,192,35352,1,0,0:0:0:0:
64,192,35396,1,0,0:0:0:0:
448,192,35440,1,0,0:0:0:0:
320,192,35484,1,0,0:0:0:0:
64,192,35573,128,0,35661:0:0:0:50:whistle.wav
192,192,35573,128,0,35661:0:0:0:0:
192,192,35749,128,0,35837:0:0:0:50:whistle.wav
320,192,35749,128,0,35837:0:0:0:0:
64,192,35926,1,0,0:0:0:0:
320,192,35926,128,2,36102:0:0:0:0:
448,192,35926,128,0,36102:0:0:0:0:
192,192,36102,1,0,0:0:0:0:
320,192,36190,1,2,0:0:0:0:
64,192,36190,1,0,0:0:0:0:
448,192,36190,1,0,0:0:0:0:
448,192,36455,1,0,0:0:0:0:
320,192,36455,1,2,0:0:0:0:
192,192,36455,1,0,0:0:0:0:
64,192,36543,1,0,0:0:0:0:
448,192,36631,1,0,0:0:0:0:
320,192,36631,1,8,0:0:0:0:
192,192,36631,1,0,0:0:0:0:
64,192,36720,1,0,0:0:0:0:
192,192,36764,1,0,0:0:0:0:
320,192,36808,1,0,0:0:0:0:
448,192,36852,1,0,0:0:0:0:
192,192,36896,1,0,0:0:0:0:
320,192,36984,128,0,37073:0:0:0:50:whistle.wav
448,192,36984,128,0,37073:0:0:0:0:
320,192,37161,128,0,37249:0:0:0:0:
192,192,37161,128,0,37249:0:0:0:50:whistle.wav
64,192,37337,128,0,37779:0:0:0:0:
192,192,37337,128,2,37779:0:0:0:0:
320,192,37337,1,0,0:0:0:0:
448,192,37514,128,0,37779:0:0:0:70:hihat-l.wav
64,192,37867,1,0,0:0:0:0:
192,192,37867,1,2,0:0:0:0:
448,192,37867,1,0,0:0:0:0:
320,192,37955,1,0,0:0:0:0:
64,192,38043,1,0,0:0:0:0:
192,192,38043,1,8,0:0:0:0:
448,192,38043,1,0,0:0:0:0:
320,192,38131,1,0,0:0:0:0:
448,192,38176,1,0,0:0:0:0:
64,192,38220,1,0,0:0:0:0:
192,192,38264,1,0,0:0:0:0:
320,192,38308,1,0,0:0:0:0:
192,192,38396,128,0,38484:0:0:0:50:whistle.wav
448,192,38396,128,0,38484:0:0:0:0:
64,192,38573,128,0,38661:0:0:0:0:
320,192,38573,128,0,38661:0:0:0:50:whistle.wav
64,192,38749,1,0,0:0:0:0:
192,192,38749,1,2,0:0:0:0:
448,192,38749,1,0,0:0:0:0:
320,192,38837,1,0,0:0:0:0:
192,192,38926,1,0,0:0:0:0:
320,192,39014,1,2,0:0:0:0:
64,192,39014,1,0,0:0:0:0:
448,192,39014,1,0,0:0:0:0:
64,192,39279,1,0,0:0:0:0:
448,192,39279,1,2,0:0:0:0:
320,192,39279,1,0,0:0:0:0:
192,192,39367,1,0,0:0:0:0:
64,192,39455,1,0,0:0:0:0:
320,192,39455,128,8,39543:0:0:0:0:
448,192,39455,128,0,39543:0:0:0:0:
192,192,39543,1,0,0:0:0:0:
448,192,39631,1,0,0:0:0:0:
320,192,39720,1,0,0:0:0:0:
64,192,39720,128,0,39808:0:0:0:0:
192,192,39720,128,8,39808:0:0:0:0:
448,192,39808,1,0,0:0:0:50:whistle.wav
64,192,39896,1,0,0:0:0:0:
192,192,39984,1,0,0:0:0:50:whistle.wav
320,192,39984,128,8,40073:0:0:0:0:
448,192,39984,128,0,40073:0:0:0:0:
64,192,40073,128,0,40249:0:0:0:0:
192,192,40161,128,0,40249:0:0:0:70:longwhistle.wav
320,192,40249,1,0,0:0:0:0:
320,192,40514,1,2,0:0:0:0:
448,192,40514,1,0,0:0:0:0:
192,192,40602,1,2,0:0:0:0:
64,192,40602,1,0,0:0:0:0:
320,192,40690,1,2,0:0:0:0:
448,192,40690,1,0,0:0:0:0:
192,192,40779,1,2,0:0:0:0:
64,192,40867,1,0,0:0:0:0:
448,192,40867,1,0,0:0:0:0:
320,192,40867,1,8,0:0:0:0:
192,192,40955,1,0,0:0:0:0:
320,192,41043,1,0,0:0:0:0:
448,192,41131,1,0,0:0:0:0:
64,192,41220,128,0,41308:0:0:0:0:
192,192,41220,128,0,41308:0:0:0:50:whistle.wav
320,192,41396,128,0,41484:0:0:0:0:
192,192,41396,128,0,41484:0:0:0:50:whistle.wav
64,192,41573,1,0,0:0:0:0:
320,192,41573,1,2,0:0:0:0:
448,192,41573,1,0,0:0:0:0:
192,192,41661,1,0,0:0:0:0:
320,192,41749,1,0,0:0:0:0:
64,192,41837,1,0,0:0:0:0:
192,192,41837,1,2,0:0:0:0:
448,192,41837,1,0,0:0:0:0:
192,192,42102,1,2,0:0:0:0:
448,192,42102,1,0,0:0:0:0:
320,192,42102,1,0,0:0:0:0:
64,192,42190,1,0,0:0:0:0:
192,192,42279,1,8,0:0:0:0:
320,192,42279,1,0,0:0:0:0:
448,192,42279,1,0,0:0:0:0:
64,192,42367,1,0,0:0:0:0:
320,192,42455,1,0,0:0:0:0:
192,192,42543,1,0,0:0:0:0:
320,192,42631,128,0,42720:0:0:0:50:whistle.wav
448,192,42631,128,0,42720:0:0:0:0:
320,192,42808,128,0,42896:0:0:0:50:whistle.wav
192,192,42808,128,0,42896:0:0:0:0:
64,192,42984,128,2,43426:0:0:0:0:
448,192,42984,128,0,43426:0:0:0:0:
192,192,42984,1,0,0:0:0:0:
320,192,43161,128,0,43426:0:0:0:70:hihat-l.wav
64,192,43514,1,0,0:0:0:0:
320,192,43514,1,2,0:0:0:0:
448,192,43514,1,0,0:0:0:0:
192,192,43602,1,0,0:0:0:0:
64,192,43690,1,0,0:0:0:0:
320,192,43690,1,8,0:0:0:0:
448,192,43690,1,0,0:0:0:0:
192,192,43779,1,0,0:0:0:0:
448,192,43867,1,0,0:0:0:0:
320,192,43955,1,0,0:0:0:0:
64,192,44043,128,0,44131:0:0:0:0:
192,192,44043,128,0,44131:0:0:0:50:whistle.wav
320,192,44220,128,0,44308:0:0:0:50:whistle.wav
448,192,44220,128,0,44308:0:0:0:0:
64,192,44396,1,0,0:0:0:0:
192,192,44396,1,2,0:0:0:0:
320,192,44396,1,0,0:0:0:0:
448,192,44484,1,0,0:0:0:0:
64,192,44573,1,0,0:0:0:0:
320,192,44661,1,0,0:0:0:0:
192,192,44661,1,2,0:0:0:0:
448,192,44661,1,0,0:0:0:0:
64,192,44749,1,0,0:0:0:0:
448,192,44837,1,0,0:0:0:0:
192,192,44926,1,2,0:0:0:0:
320,192,44926,1,0,0:0:0:0:
64,192,44926,1,0,0:0:0:0:
192,192,45455,128,0,45808:0:0:0:50:whistle.wav
320,192,45631,128,0,45808:0:0:0:50:whistle.wav
64,192,45808,1,2,0:0:0:0:
448,192,45808,1,0,0:0:0:70:longwhistle.wav
192,192,45896,1,0,0:0:0:20:tom-h.wav
320,192,45984,1,0,0:0:0:20:tom-h.wav
448,192,46073,1,0,0:0:0:20:tom-h.wav
64,192,46161,1,2,0:0:0:0:
192,192,46161,1,0,0:0:0:20:tom-h.wav
448,192,46337,1,0,0:0:0:20:tom-l.wav
320,192,46426,1,0,0:0:0:20:tom-l.wav
64,192,46514,1,2,0:0:0:0:
192,192,46514,1,0,0:0:0:0:
448,192,46602,1,0,0:0:0:20:tom-l.wav
320,192,46690,1,0,0:0:0:20:tom-l.wav
64,192,46867,1,2,0:0:0:0:
192,192,46867,128,0,46955:0:0:0:50:whistle.wav
320,192,47043,128,0,47131:0:0:0:50:whistle.wav
64,192,47220,1,2,0:0:0:0:
448,192,47220,1,0,0:0:0:0:
64,192,47573,1,2,0:0:0:0:
320,192,47573,1,0,0:0:0:0:
64,192,47926,1,2,0:0:0:0:
192,192,47926,1,0,0:0:0:0:
64,192,48279,1,2,0:0:0:0:
320,192,48279,128,0,48367:0:0:0:50:whistle.wav
192,192,48455,128,0,48543:0:0:0:50:whistle.wav
448,192,48631,1,2,0:0:0:0:
64,192,48631,1,0,0:0:0:20:tom-h.wav
192,192,48720,1,0,0:0:0:20:tom-h.wav
320,192,48808,1,0,0:0:0:20:tom-h.wav
192,192,48896,1,0,0:0:0:20:tom-h.wav
448,192,48984,1,2,0:0:0:0:
64,192,48984,1,0,0:0:0:20:tom-h.wav
192,192,49161,1,0,0:0:0:20:tom-l.wav
64,192,49249,1,0,0:0:0:20:tom-l.wav
448,192,49337,1,2,0:0:0:0:
192,192,49337,1,0,0:0:0:20:tom-l.wav
320,192,49426,1,0,0:0:0:20:tom-l.wav
192,192,49514,1,0,0:0:0:20:tom-l.wav
448,192,49690,1,2,0:0:0:0:
64,192,49690,128,0,49779:0:0:0:50:whistle.wav
192,192,49867,128,0,49955:0:0:0:50:whistle.wav
448,192,50043,1,2,0:0:0:0:
64,192,50043,1,0,0:0:0:0:
448,192,50396,1,2,0:0:0:0:
192,192,50396,1,0,0:0:0:0:
448,192,50749,1,2,0:0:0:0:
320,192,50749,1,0,0:0:0:0:
192,192,50926,1,0,0:0:0:0:
64,192,51102,128,2,51190:0:0:0:0:
448,192,51102,128,0,51190:0:0:0:50:whistle.wav
320,192,51279,128,0,51367:0:0:0:50:whistle.wav
192,192,51279,128,2,51367:0:0:0:0:
64,192,51455,1,2,0:0:0:0:
320,192,51455,1,0,0:0:0:0:
448,192,51455,1,0,0:0:0:0:
192,192,51455,1,4,0:0:0:0:
64,192,51631,1,2,0:0:0:0:
192,192,51631,1,0,0:0:0:0:
320,192,51808,1,0,0:0:0:0:
448,192,51808,1,0,0:0:0:0:
64,192,51808,1,8,0:0:0:0:
320,192,51984,1,0,0:0:0:0:
192,192,51984,1,2,0:0:0:0:
448,192,52161,1,2,0:0:0:0:
64,192,52161,1,0,0:0:0:0:
448,192,52337,1,2,0:0:0:0:
192,192,52337,1,0,0:0:0:0:
64,192,52514,1,0,0:0:0:0:
320,192,52514,128,8,52602:0:0:0:0:
192,192,52514,128,0,52602:0:0:0:50:whistle.wav
448,192,52690,128,2,52779:0:0:0:0:
64,192,52690,128,0,52779:0:0:0:50:whistle.wav
320,192,52867,1,0,0:0:0:0:
448,192,52867,1,2,0:0:0:0:
192,192,53043,1,2,0:0:0:0:
64,192,53043,1,0,0:0:0:0:
448,192,53220,1,8,0:0:0:0:
320,192,53220,1,0,0:0:0:0:
192,192,53220,1,0,0:0:0:0:
64,192,53396,1,0,0:0:0:0:
320,192,53396,1,2,0:0:0:0:
192,192,53573,1,0,0:0:0:0:
448,192,53573,1,2,0:0:0:0:
448,192,53749,1,2,0:0:0:0:
320,192,53749,1,0,0:0:0:0:
192,192,53926,1,0,0:0:0:0:
320,192,53926,128,8,54014:0:0:0:0:
64,192,53926,128,0,54014:0:0:0:50:whistle.wav
192,192,54102,128,0,54190:0:0:0:50:whistle.wav
448,192,54102,128,2,54190:0:0:0:0:
320,192,54279,1,0,0:0:0:0:
448,192,54279,1,2,0:0:0:0:
192,192,54455,1,2,0:0:0:0:
64,192,54455,1,0,0:0:0:0:
448,192,54543,1,0,0:0:0:0:
64,192,54631,1,0,0:0:0:0:
320,192,54631,1,8,0:0:0:0:
192,192,54631,1,0,0:0:0:0:
320,192,54808,1,0,0:0:0:0:
448,192,54808,1,2,0:0:0:0:
64,192,54896,1,0,0:0:0:0:
320,192,54984,1,8,0:0:0:0:
448,192,54984,1,0,0:0:0:0:
192,192,54984,1,2,0:0:0:0:
64,192,55073,1,2,0:0:0:0:
448,192,55161,1,2,0:0:0:0:
320,192,55249,1,0,0:0:0:0:
64,192,55249,1,8,0:0:0:0:
192,192,55249,1,0,0:0:0:0:
448,192,55337,1,2,0:0:0:0:
64,192,55426,1,2,0:0:0:0:
320,192,55514,1,8,0:0:0:0:
448,192,55514,1,0,0:0:0:0:
192,192,55514,1,0,0:0:0:0:
64,192,55602,1,8,0:0:0:0:
320,192,55690,1,0,0:0:0:70:longwhistle.wav
448,192,55690,1,0,0:0:0:0:
192,192,55867,128,0,55955:0:0:0:50:tick.wav
192,192,56043,128,0,56131:0:0:0:50:tick.wav
192,192,56220,128,0,56308:0:0:0:50:tick.wav
320,192,56396,1,0,0:0:0:50:snare.wav
448,192,56396,1,0,0:0:0:0:
192,192,56484,1,0,0:0:0:50:tom-h.wav
64,192,56484,1,0,0:0:0:0:
320,192,56573,1,0,0:0:0:50:tom-l.wav
448,192,56573,1,0,0:0:0:0:
192,192,56661,1,0,0:0:0:50:tom-l.wav
448,192,56749,128,8,57014:0:0:0:50:snare.wav
320,192,56749,128,0,57014:0:0:0:70:climax.wav
64,192,56749,1,0,0:0:0:0:
192,192,56926,128,0,57014:0:0:0:0:
64,192,56926,128,0,57014:0:0:0:0:
448,192,57102,1,0,0:0:0:70:twinkling.wav
320,192,57102,1,0,0:0:0:0:
192,192,57102,1,4,0:0:0:0:
64,192,57102,1,2,0:0:0:0:
192,192,57279,1,0,0:0:0:70:hihat-l.wav
64,192,57455,1,0,0:0:0:0:
192,192,57455,1,8,0:0:0:0:
320,192,57455,1,0,0:0:0:0:
448,192,57455,1,0,0:0:0:0:
320,192,57631,1,0,0:0:0:70:hihat-l.wav
192,192,57808,1,2,0:0:0:0:
64,192,57808,1,0,0:0:0:0:
448,192,57808,1,0,0:0:0:0:
64,192,57984,1,0,0:0:0:70:hihat-l.wav
192,192,58161,1,8,0:0:0:0:
320,192,58161,1,0,0:0:0:0:
448,192,58161,1,0,0:0:0:0:
64,192,58161,1,0,0:0:0:0:
320,192,58337,1,0,0:0:0:0:
192,192,58337,1,0,0:0:0:70:hihat-l.wav
64,192,58514,1,0,0:0:0:0:
448,192,58514,1,0,0:0:0:0:
320,192,58514,1,2,0:0:0:0:
64,192,58690,1,0,0:0:0:70:hihat-l.wav
64,192,58867,1,0,0:0:0:0:
448,192,58867,1,0,0:0:0:0:
320,192,58867,1,0,0:0:0:0:
192,192,58867,1,8,0:0:0:0:
448,192,59043,1,0,0:0:0:0:
192,192,59043,1,0,0:0:0:70:hihat-l.wav
320,192,59220,1,2,0:0:0:0:
448,192,59220,1,0,0:0:0:0:
64,192,59220,1,0,0:0:0:0:
320,192,59396,1,0,0:0:0:70:hihat-l.wav
192,192,59573,1,8,0:0:0:0:
64,192,59573,1,0,0:0:0:0:
320,192,59573,1,0,0:0:0:0:
448,192,59573,1,0,0:0:0:0:
192,192,59749,1,0,0:0:0:70:hihat-l.wav
64,192,59926,1,2,0:0:0:0:
320,192,59926,1,0,0:0:0:0:
448,192,59926,1,0,0:0:0:0:
192,192,60014,1,0,0:0:0:0:
320,192,60102,1,0,0:0:0:70:hihat-l.wav
448,192,60279,1,0,0:0:0:0:
320,192,60279,1,0,0:0:0:0:
192,192,60279,1,8,0:0:0:0:
64,192,60279,1,0,0:0:0:0:
192,192,60455,1,0,0:0:0:70:hihat-l.wav
64,192,60631,1,0,0:0:0:0:
320,192,60631,1,2,0:0:0:0:
448,192,60631,1,0,0:0:0:0:
320,192,60808,1,0,0:0:0:70:hihat-l.wav
192,192,60984,1,8,0:0:0:0:
64,192,60984,1,0,0:0:0:0:
320,192,60984,1,0,0:0:0:0:
448,192,60984,1,0,0:0:0:0:
448,192,61161,1,0,0:0:0:70:hihat-l.wav
64,192,61161,1,0,0:0:0:0:
320,192,61337,1,0,0:0:0:0:
448,192,61337,1,0,0:0:0:0:
192,192,61337,1,2,0:0:0:0:
64,192,61426,1,0,0:0:0:0:
320,192,61514,1,0,0:0:0:70:hihat-l.wav
64,192,61690,1,0,0:0:0:0:
192,192,61690,1,8,0:0:0:0:
448,192,61690,1,0,0:0:0:0:
320,192,61690,1,0,0:0:0:0:
448,192,61867,1,0,0:0:0:0:
192,192,61867,1,0,0:0:0:70:hihat-l.wav
64,192,62043,1,2,0:0:0:0:
320,192,62043,1,0,0:0:0:0:
448,192,62043,1,0,0:0:0:0:
320,192,62220,1,0,0:0:0:70:hihat-l.wav
64,192,62220,1,0,0:0:0:0:
192,192,62396,1,8,0:0:0:0:
64,192,62396,1,0,0:0:0:0:
320,192,62396,1,0,0:0:0:0:
448,192,62396,1,0,0:0:0:50:finish-m.wav
192,192,62573,1,0,0:0:0:70:hihat-l.wav
448,192,62573,1,0,0:0:0:0:
192,192,62749,1,2,0:0:0:0:
320,192,62749,1,4,0:0:0:0:
64,192,62749,1,0,0:0:0:0:
448,192,62749,1,0,0:0:0:0:
320,192,62926,1,0,0:0:0:70:hihat-l.wav
448,192,63102,1,0,0:0:0:0:
320,192,63102,1,0,0:0:0:0:
192,192,63102,1,8,0:0:0:0:
64,192,63102,1,0,0:0:0:0:
64,192,63279,1,0,0:0:0:70:hihat-l.wav
192,192,63455,1,2,0:0:0:0:
320,192,63455,1,0,0:0:0:0:
448,192,63455,1,0,0:0:0:0:
320,192,63631,1,0,0:0:0:70:hihat-l.wav
192,192,63808,1,8,0:0:0:0:
64,192,63808,1,0,0:0:0:0:
448,192,63808,1,0,0:0:0:0:
320,192,63808,1,0,0:0:0:0:
192,192,63984,1,0,0:0:0:70:hihat-l.wav
64,192,63984,1,0,0:0:0:0:
448,192,64161,1,0,0:0:0:0:
64,192,64161,1,0,0:0:0:0:
320,192,64161,1,2,0:0:0:0:
192,192,64249,1,0,0:0:0:0:
320,192,64337,1,0,0:0:0:70:hihat-l.wav
192,192,64514,1,0,0:0:0:0:
320,192,64514,1,8,0:0:0:0:
448,192,64514,1,0,0:0:0:0:
64,192,64514,1,0,0:0:0:0:
192,192,64690,1,0,0:0:0:70:hihat-l.wav
64,192,64690,1,0,0:0:0:0:
64,192,64867,1,0,0:0:0:0:
320,192,64867,1,2,0:0:0:0:
448,192,64867,1,0,0:0:0:0:
192,192,65043,1,0,0:0:0:70:hihat-l.wav
448,192,65043,1,0,0:0:0:0:
64,192,65220,1,0,0:0:0:0:
320,192,65220,1,0,0:0:0:0:
448,192,65220,1,0,0:0:0:0:
192,192,65220,1,8,0:0:0:0:
320,192,65396,1,0,0:0:0:70:hihat-l.wav
192,192,65573,1,2,0:0:0:0:
64,192,65573,1,0,0:0:0:0:
448,192,65573,1,0,0:0:0:0:
64,192,65749,1,0,0:0:0:70:hihat-l.wav
192,192,65926,1,8,0:0:0:0:
320,192,65926,1,0,0:0:0:0:
448,192,65926,1,0,0:0:0:0:
64,192,65926,1,0,0:0:0:0:
320,192,66102,1,0,0:0:0:70:hihat-l.wav
448,192,66102,1,0,0:0:0:0:
192,192,66279,1,2,0:0:0:0:
64,192,66279,1,0,0:0:0:0:
320,192,66279,1,0,0:0:0:0:
64,192,66455,1,0,0:0:0:0:
448,192,66455,1,0,0:0:0:70:hihat-l.wav
64,192,66631,1,0,0:0:0:0:
320,192,66631,1,8,0:0:0:0:
192,192,66631,1,0,0:0:0:0:
448,192,66631,1,0,0:0:0:0:
192,192,66808,1,0,0:0:0:70:hihat-l.wav
64,192,66984,1,2,0:0:0:0:
320,192,66984,1,0,0:0:0:0:
448,192,66984,1,0,0:0:0:0:
192,192,67161,1,2,0:0:0:0:
320,192,67161,1,0,0:0:0:70:hihat-l.wav
192,192,67337,1,8,0:0:0:0:
64,192,67337,1,0,0:0:0:0:
448,192,67337,1,0,0:0:0:0:
320,192,67426,1,0,0:0:0:0:
192,192,67514,1,2,0:0:0:0:
448,192,67514,1,0,0:0:0:0:
64,192,67690,1,0,0:0:0:0:
320,192,67690,1,2,0:0:0:0:
448,192,67690,1,0,0:0:0:0:
320,192,67867,1,2,0:0:0:0:
192,192,67867,1,0,0:0:0:0:
192,192,68043,1,2,0:0:0:0:
64,192,68043,1,0,0:0:0:50:finish-m.wav
320,192,68131,1,2,0:0:0:0:
448,192,68131,1,0,0:0:0:0:
192,192,68220,1,2,0:0:0:0:
64,192,68220,1,0,0:0:0:0:
320,192,68308,1,2,0:0:0:0:
448,192,68396,1,4,0:0:0:50:finish-l.wav
64,192,68396,128,2,68661:0:0:0:0:
192,192,68396,128,0,68661:0:0:0:70:twinkling.wav
320,192,68573,1,0,0:0:0:70:hihat-l.wav
64,192,68749,128,0,69014:0:0:0:0:
192,192,68749,128,8,69014:0:0:0:0:
320,192,68749,1,0,0:0:0:0:
448,192,68749,1,0,0:0:0:0:
448,192,68926,1,0,0:0:0:70:hihat-l.wav
192,192,69102,128,2,69367:0:0:0:0:
64,192,69102,128,0,69367:0:0:0:0:
320,192,69102,1,0,0:0:0:0:
448,192,69279,1,0,0:0:0:70:hihat-l.wav
64,192,69455,128,8,69543:0:0:0:0:
448,192,69455,128,0,69720:0:0:0:0:
192,192,69455,128,0,69543:0:0:0:0:
320,192,69455,1,0,0:0:0:0:
192,192,69631,128,0,69720:0:0:0:70:hihat-l.wav
64,192,69631,128,0,69720:0:0:0:0:
64,192,69808,1,0,0:0:0:0:
320,192,69808,1,2,0:0:0:0:
448,192,69808,1,0,0:0:0:0:
320,192,69984,1,0,0:0:0:70:hihat-l.wav
192,192,70161,1,8,0:0:0:0:
320,192,70161,1,0,0:0:0:0:
448,192,70161,1,0,0:0:0:0:
64,192,70161,1,0,0:0:0:0:
64,192,70337,128,0,70779:0:0:0:0:
192,192,70337,128,0,70426:0:0:0:70:hihat-l.wav
192,192,70514,128,0,70779:0:0:0:0:
320,192,70514,1,2,0:0:0:0:
448,192,70514,1,0,0:0:0:0:
320,192,70690,1,0,0:0:0:70:hihat-l.wav
320,192,70867,128,8,71131:0:0:0:0:
448,192,70867,128,0,71131:0:0:0:0:
64,192,70867,1,0,0:0:0:0:
192,192,70867,1,0,0:0:0:0:
64,192,71043,1,0,0:0:0:70:hihat-l.wav
192,192,71220,128,2,71484:0:0:0:0:
64,192,71220,128,0,71484:0:0:0:0:
320,192,71220,1,0,0:0:0:0:
448,192,71396,1,0,0:0:0:70:hihat-l.wav
320,192,71573,128,8,71661:0:0:0:0:
448,192,71573,128,0,71661:0:0:0:0:
192,192,71573,1,0,0:0:0:0:
64,192,71573,1,0,0:0:0:0:
64,192,71749,128,0,71837:0:0:0:0:
192,192,71749,128,0,71837:0:0:0:70:hihat-l.wav
192,192,71926,1,2,0:0:0:0:
320,192,71926,1,0,0:0:0:0:
448,192,71926,1,0,0:0:0:0:
64,192,72102,128,0,72190:0:0:0:0:
192,192,72102,128,0,72190:0:0:0:70:hihat-l.wav
320,192,72279,128,0,72543:0:0:0:0:
448,192,72279,128,0,72543:0:0:0:0:
64,192,72279,1,0,0:0:0:0:
192,192,72279,1,8,0:0:0:0:
192,192,72455,1,0,0:0:0:70:hihat-l.wav
64,192,72631,1,2,0:0:0:0:
320,192,72631,1,0,0:0:0:0:
448,192,72631,1,0,0:0:0:0:
192,192,72720,1,0,0:0:0:0:
64,192,72808,1,0,0:0:0:70:hihat-l.wav
64,192,72984,1,0,0:0:0:0:
448,192,72984,1,0,0:0:0:0:
320,192,72984,1,0,0:0:0:0:
192,192,72984,1,8,0:0:0:0:
192,192,73161,1,0,0:0:0:70:hihat-l.wav
64,192,73337,1,0,0:0:0:0:
320,192,73337,128,2,73602:0:0:0:0:
448,192,73337,128,0,73602:0:0:0:0:
192,192,73514,1,0,0:0:0:70:hihat-l.wav
64,192,73690,128,0,73955:0:0:0:0:
192,192,73690,128,8,73955:0:0:0:0:
320,192,73690,1,0,0:0:0:50:finish-m.wav
448,192,73690,1,0,0:0:0:0:
448,192,73867,1,0,0:0:0:70:hihat-l.wav
320,192,74043,128,2,74308:0:0:0:0:
448,192,74043,128,0,74308:0:0:0:0:
192,192,74043,1,4,0:0:0:0:
64,192,74043,1,0,0:0:0:0:
64,192,74220,1,0,0:0:0:70:hihat-l.wav
448,192,74396,128,0,74661:0:0:0:0:
320,192,74396,128,8,74661:0:0:0:0:
64,192,74396,1,0,0:0:0:0:
192,192,74396,1,0,0:0:0:0:
192,192,74573,1,0,0:0:0:70:hihat-l.wav
320,192,74749,128,2,75014:0:0:0:0:
448,192,74749,128,0,75014:0:0:0:0:
64,192,74749,1,0,0:0:0:0:
64,192,74926,1,0,0:0:0:70:hihat-l.wav
64,192,75102,128,8,75367:0:0:0:0:
448,192,75102,128,0,75190:0:0:0:0:
192,192,75102,1,0,0:0:0:0:
320,192,75102,128,0,75190:0:0:0:0:
448,192,75279,128,0,75367:0:0:0:70:hihat-l.wav
320,192,75279,128,0,75367:0:0:0:0:
64,192,75455,1,0,0:0:0:0:
320,192,75455,1,2,0:0:0:0:
448,192,75455,1,0,0:0:0:0:
320,192,75631,1,0,0:0:0:70:hihat-l.wav
192,192,75808,1,8,0:0:0:0:
64,192,75808,1,0,0:0:0:0:
320,192,75808,1,0,0:0:0:0:
448,192,75808,1,0,0:0:0:0:
192,192,75984,1,0,0:0:0:70:hihat-l.wav
64,192,76161,128,0,76426:0:0:0:0:
192,192,76161,128,2,76426:0:0:0:0:
448,192,76161,1,0,0:0:0:0:
320,192,76337,1,0,0:0:0:70:hihat-l.wav
64,192,76514,128,0,76779:0:0:0:0:
448,192,76514,128,8,76779:0:0:0:0:
192,192,76514,1,0,0:0:0:0:
320,192,76514,1,0,0:0:0:0:
192,192,76690,1,0,0:0:0:70:hihat-l.wav
64,192,76867,1,0,0:0:0:0:
448,192,76867,1,2,0:0:0:0:
320,192,76867,1,0,0:0:0:0:
64,192,77043,1,0,0:0:0:0:
320,192,77043,1,2,0:0:0:0:
192,192,77043,1,0,0:0:0:0:
192,192,77220,1,8,0:0:0:0:
448,192,77220,1,0,0:0:0:0:
64,192,77220,1,0,0:0:0:0:
448,192,77396,1,0,0:0:0:0:
192,192,77396,1,2,0:0:0:0:
64,192,77396,1,0,0:0:0:0:
192,192,77573,1,2,0:0:0:0:
320,192,77573,1,0,0:0:0:0:
448,192,77573,1,0,0:0:0:0:
192,192,77749,1,2,0:0:0:0:
448,192,77749,1,0,0:0:0:0:
64,192,77749,1,0,0:0:0:0:
192,192,77926,1,2,0:0:0:0:
64,192,77926,1,8,0:0:0:0:
320,192,78014,1,2,0:0:0:0:
448,192,78014,1,0,0:0:0:0:
64,192,78102,1,0,0:0:0:0:
192,192,78102,1,2,0:0:0:0:
320,192,78190,1,2,0:0:0:0:
448,192,78279,1,0,0:0:0:0:
64,192,78279,1,2,0:0:0:0:
192,192,78367,1,2,0:0:0:0:
320,192,78455,1,2,0:0:0:0:
448,192,78455,1,0,0:0:0:0:
64,192,78543,1,2,0:0:0:0:
192,192,78631,1,8,0:0:0:0:
320,192,78631,1,0,0:0:0:0:
64,192,78720,1,2,0:0:0:0:
320,192,78808,1,2,0:0:0:0:
448,192,78808,1,0,0:0:0:0:
192,192,78896,1,2,0:0:0:0:
64,192,78984,1,2,0:0:0:0:
320,192,78984,1,0,0:0:0:0:
448,192,78984,1,0,0:0:0:0:
192,192,79161,1,0,0:0:0:70:hihat-l.wav
448,192,79337,1,4,0:0:0:0:
64,192,79337,1,8,0:0:0:0:
320,192,79514,1,0,0:0:0:70:hihat-l.wav
64,192,79690,1,2,0:0:0:0:
448,192,79690,1,0,0:0:0:50:finish-l.wav
192,192,79690,128,0,80749:0:0:0:70:twinkling.wav
320,192,79867,1,0,0:0:0:50:hihat-l.wav
448,192,80043,1,0,0:0:0:0:
64,192,80220,1,0,0:0:0:50:hihat-l.wav
448,192,80396,1,0,0:0:0:0:
64,192,80573,1,0,0:0:0:50:hihat-l.wav
320,192,80749,128,2,80926:0:0:0:0:
448,192,80749,1,0,0:0:0:0:
192,192,80926,128,0,81455:0:0:0:50:hihat-l.wav
320,192,81102,1,0,0:0:0:0:
448,192,81279,1,0,0:0:0:50:hihat-l.wav
64,192,81455,1,0,0:0:0:0:
448,192,81631,1,0,0:0:0:50:hihat-l.wav
320,192,81808,128,0,82161:0:0:0:0:
64,192,81808,1,2,0:0:0:0:
192,192,81984,1,0,0:0:0:50:hihat-l.wav
448,192,82161,128,0,82514:0:0:0:0:
192,192,82337,1,0,0:0:0:50:hihat-l.wav
64,192,82514,128,2,84455:0:0:0:0:
192,192,82514,128,0,82867:0:0:0:70:longwhistle.wav
320,192,82690,128,0,83396:0:0:0:40:tick.wav
448,192,82867,128,0,83220:0:0:0:40:tick.wav
192,192,83043,128,0,83396:0:0:0:40:tick.wav
448,192,83396,128,0,83573:0:0:0:40:tick.wav
320,192,83573,128,0,84279:0:0:0:50:whistle.wav
192,192,83573,128,2,84367:0:0:0:0:
320,192,84455,128,0,84631:0:0:0:50:whistle.wav
192,192,84543,128,0,84720:0:0:0:50:whistle.wav
64,192,84631,128,0,85419:0:0:0:70:longwhistle.wav
320,192,85331,128,0,85419:0:0:0:70:twinkling.wav
448,192,85331,128,0,85419:0:0:0:50:whistle.wav
192,192,85507,1,0,0:0:0:40:tick.wav
64,192,85683,1,0,0:0:0:40:tick.wav
192,192,85860,1,0,0:0:0:40:tick.wav
320,192,86036,1,0,0:0:0:40:tick.wav
192,192,86213,1,0,0:0:0:40:tick.wav
64,192,86389,1,0,0:0:0:40:tick.wav
192,192,86566,1,0,0:0:0:40:tick.wav
320,192,86742,1,0,0:0:0:40:tick.wav
192,192,86919,1,0,0:0:0:40:tick.wav
64,192,87095,1,0,0:0:0:40:tick.wav
192,192,87272,1,0,0:0:0:40:tick.wav
320,192,87448,1,0,0:0:0:40:tick.wav
192,192,87625,1,0,0:0:0:40:tick.wav
448,192,87801,1,0,0:0:0:40:tick.wav
320,192,87978,1,0,0:0:0:40:tick.wav
320,192,88154,1,0,0:0:0:40:tick.wav
192,192,88331,1,0,0:0:0:40:tick.wav
64,192,88507,1,0,0:0:0:40:tick.wav
192,192,88683,1,0,0:0:0:40:tick.wav
320,192,88860,1,0,0:0:0:40:tick.wav
192,192,89036,1,0,0:0:0:40:tick.wav
64,192,89213,1,0,0:0:0:40:tick.wav
192,192,89389,1,0,0:0:0:40:tick.wav
320,192,89566,1,0,0:0:0:40:tick.wav
192,192,89742,1,0,0:0:0:40:tick.wav
64,192,89919,1,0,0:0:0:40:tick.wav
192,192,90095,1,0,0:0:0:40:tick.wav
320,192,90272,1,0,0:0:0:40:tick.wav
192,192,90448,1,0,0:0:0:40:tick.wav
448,192,90625,1,0,0:0:0:40:tick.wav
320,192,90801,1,0,0:0:0:40:tick.wav
64,192,90978,1,0,0:0:0:40:longwhistle.wav
320,192,90978,1,0,0:0:0:40:tick.wav
192,192,91154,1,0,0:0:0:40:tick.wav
64,192,91331,1,0,0:0:0:40:tick.wav
192,192,91507,1,0,0:0:0:40:tick.wav
320,192,91683,1,0,0:0:0:40:tick.wav
192,192,91860,1,0,0:0:0:40:tick.wav
64,192,92036,1,0,0:0:0:40:tick.wav
192,192,92213,1,0,0:0:0:40:tick.wav
320,192,92389,1,0,0:0:0:40:tick.wav
192,192,92566,1,0,0:0:0:40:tick.wav
64,192,92742,1,0,0:0:0:40:tick.wav
192,192,92919,1,0,0:0:0:40:tick.wav
320,192,93095,1,0,0:0:0:40:tick.wav
192,192,93272,1,0,0:0:0:40:tick.wav
448,192,93448,1,0,0:0:0:40:tick.wav
320,192,93625,1,0,0:0:0:40:tick.wav
320,192,93801,1,0,0:0:0:40:tick.wav
192,192,93978,1,0,0:0:0:40:tick.wav
64,192,94154,1,0,0:0:0:40:tick.wav
192,192,94341,1,0,0:0:0:40:tick.wav
320,192,94529,1,0,0:0:0:40:tick.wav
192,192,94743,1,0,0:0:0:40:tick.wav
64,192,94957,1,0,0:0:0:40:tick.wav
192,192,95197,1,0,0:0:0:40:tick.wav
320,192,95437,1,0,0:0:0:40:tick.wav
192,192,95687,1,0,0:0:0:40:tick.wav
64,192,95937,1,0,0:0:0:40:tick.wav
192,192,96237,1,0,0:0:0:40:tick.wav
320,192,96537,1,0,0:0:0:40:tick.wav
192,192,96902,1,0,0:0:0:40:tick.wav
448,192,97268,1,0,0:0:0:40:tick.wav
320,192,97684,128,0,98101:0:0:0:40:tick.wav
