osu file format v14

[General]
AudioFilename: audio.mp3
AudioLeadIn: 0
PreviewTime: 52763
Countdown: 0
SampleSet: Soft
StackLeniency: 0.7
Mode: 0
LetterboxInBreaks: 0
WidescreenStoryboard: 1

[Editor]
DistanceSpacing: 1.9
BeatDivisor: 4
GridSize: 32
TimelineZoom: 2

[Metadata]
Title:Scar/let
TitleUnicode:Scar/let
Artist:ReoNa
ArtistUnicode:ReoNa
Creator:Sotarks
Version:SMOKELIND's In/sane
Source:ソードアート・オンライン アリシゼーション リコリス
Tags:scarlet SWORD ART ONLINE Alicization Lycoris sao video game size version bandai namco japanese female vocalist jpop j-pop elinor eli [_eli_] basensorex smokelind opening op kegani kei hayashi ryohei aharata
BeatmapID:2514918
BeatmapSetID:1207707

[Difficulty]
HPDrainRate:4.7
CircleSize:4
OverallDifficulty:8.2
ApproachRate:9
SliderMultiplier:1.47
SliderTickRate:1

[Events]
//Background and Video events
Video,8,"video.mp4"
0,0,"BG.jpg",0,0
//Break Periods
2,87000,90220
//Storyboard Layer 0 (Background)
//Storyboard Layer 1 (Fail)
//Storyboard Layer 2 (Pass)
//Storyboard Layer 3 (Foreground)
//Storyboard Layer 4 (Overlay)
//Storyboard Sound Samples

[TimingPoints]
400,342.857142857143,4,2,22,42,1,0
7942,-100,4,2,22,52,0,0
8457,-93.4579439252336,4,2,22,72,0,0
18057,-175.438596491228,4,2,22,82,0,0
18142,-175.438596491228,4,2,22,42,0,0
18571,-175.438596491228,4,2,22,52,0,0
19171,-175.438596491228,4,2,22,5,0,0
19257,-175.438596491228,4,2,22,52,0,0
19342,-175.438596491228,4,2,22,5,0,0
19428,-175.438596491228,4,2,22,52,0,0
24914,-129.87012987013,4,2,22,62,0,0
30400,-114.942528735632,4,2,22,72,0,0
41371,-114.942528735632,4,2,22,62,0,0
46857,-103.092783505155,4,2,22,62,0,0
49600,-103.092783505155,4,2,22,72,0,0
53714,-85.4700854700857,4,2,22,82,0,0
70342,-93.4579439252336,4,2,22,82,0,0
74457,-212.765957446809,4,2,22,72,0,0
75657,-93.4579439252336,4,2,22,72,0,0
85257,-93.4579439252336,4,2,22,82,0,0
86800,-93.4579439252336,4,2,22,52,0,0
90914,-93.4579439252336,4,2,22,72,0,0
91771,-93.4579439252336,4,2,22,82,0,0

[Colours]
Combo1 : 227,159,91
Combo2 : 157,240,255
Combo3 : 255,237,176
Combo4 : 67,140,194

[HitObjects]
58,46,7942,5,8,1:2:0:0:
58,46,8028,1,8,1:2:0:0:
58,46,8114,2,0,P|71:35|94:35,1,36.75,8|8,1:2|1:2,0:0:0:0:
161,127,8285,2,0,P|142:126|128:114,1,36.75,8|8,1:2|1:2,0:0:0:0:
217,8,8457,6,0,P|191:71|175:180,1,157.28999519989,6|0,1:2|0:2,0:0:0:0:
306,242,8971,2,0,P|277:220|226:212,1,78.6449975999451,10|0,0:2|0:2,0:0:0:0:
149,342,9314,2,0,P|117:365|43:335,1,117.967496399918,2|2,1:2|0:2,0:0:0:0:
43,314,9657,1,8,0:2:0:0:
104,106,9828,6,0,B|116:181|118:263,1,157.28999519989,2|2,0:2|0:2,0:0:0:0:
229,117,10342,2,0,P|266:89|306:81,1,78.6449975999451,8|2,0:2|0:2,0:0:0:0:
382,242,10685,2,0,P|345:214|305:206,1,78.6449975999451,0|2,1:2|0:2,0:0:0:0:
473,93,11028,2,0,P|465:135|456:200,1,78.6449975999451,8|0,0:2|0:2,0:0:0:0:
439,187,11285,5,0,0:0:0:0:
439,187,11371,2,0,P|433:148|425:109,1,78.6449975999451,2|0,1:2|0:0,0:0:0:0:
310,281,11714,2,0,P|273:309|233:317,1,78.6449975999451,10|0,0:2|0:2,0:0:0:0:
112,170,12057,2,0,P|149:198|189:206,1,78.6449975999451,2|0,1:2|0:2,0:0:0:0:
204,188,12314,1,2,0:2:0:0:
204,188,12400,1,8,0:2:0:0:
48,51,12571,6,0,P|75:94|94:210,1,157.28999519989,2|2,0:2|0:2,0:0:0:0:
206,6,13085,1,10,0:2:0:0:
164,112,13257,1,2,0:2:0:0:
333,27,13428,2,0,P|315:63|312:126,1,78.6449975999451,0|2,1:2|0:2,0:0:0:0:
432,195,13771,2,0,P|450:231|453:294,1,78.6449975999451,8|0,0:2|0:2,0:0:0:0:
428,295,14028,5,0,0:0:0:0:
428,295,14114,2,0,L|321:278,1,78.6449975999451,6|0,1:2|0:0,0:0:0:0:
198,343,14457,2,0,L|305:326,1,78.6449975999451,10|0,0:2|0:2,0:0:0:0:
159,227,14800,2,0,P|104:249|82:296,1,78.6449975999451,2|0,1:2|0:2,0:0:0:0:
95,295,15057,1,2,0:2:0:0:
95,295,15142,1,8,0:2:0:0:
92,138,15314,6,0,P|62:118|9:117,1,78.6449975999451,2|0,0:2|1:0,0:0:0:0:
176,247,15657,2,0,P|214:244|247:223,1,78.6449975999451,2|8,0:2|0:2,0:0:0:0:
203,46,16000,2,0,P|195:87|189:139,1,78.6449975999451,2|0,0:2|1:2,0:0:0:0:
215,141,16257,1,0,0:0:0:0:
215,141,16342,1,2,0:2:0:0:
353,25,16514,2,0,P|360:66|367:118,1,78.6449975999451,8|0,0:2|0:2,0:0:0:0:
265,284,16857,5,6,1:3:0:0:
467,236,17028,1,4,1:3:0:0:
332,111,17200,1,8,1:2:0:0:
377,337,17371,1,4,1:3:0:0:
396,167,17542,2,0,L|388:229,1,39.3224987999726,10|8,1:3|1:3,0:0:0:0:
270,322,17714,2,0,L|264:283,1,39.3224987999726,8|8,1:3|1:3,0:0:0:0:
178,128,17885,5,8,1:2:0:0:
178,128,17971,1,0,1:2:0:0:
178,128,18057,2,0,B|139:186|132:251|132:251|92:226|85:180,1,209.474997442932,6|0,1:2|0:2,0:0:0:0:
254,45,19257,5,2,0:2:0:0:
350,210,19428,2,0,B|447:194|385:141|487:122,1,167.579997954346,6|2,1:2|0:2,0:0:0:0:
347,123,20285,1,2,0:2:0:0:
254,271,20628,5,0,0:2:0:0:
254,271,20800,2,0,P|247:225|232:188,1,83.7899989771729,2|2,0:2|0:2,0:0:0:0:
81,38,21485,2,0,P|74:83|59:121,1,83.7899989771729,2|2,0:2|0:2,0:0:0:0:
275,21,22171,1,2,0:2:0:0:
426,148,23542,5,2,0:2:0:0:
426,148,23714,2,0,P|400:129|334:129,1,83.7899989771729,2|0,0:2|0:2,0:0:0:0:
288,203,24228,1,2,0:2:0:0:
151,62,24571,2,0,L|165:136,1,62.8424992328796,2|0,0:2|0:0,0:0:0:0:
151,142,24914,1,6,1:2:0:0:
54,337,25428,6,0,L|125:326,1,56.5949988773575,0|0,1:2|0:2,0:0:0:0:
243,260,25771,2,0,L|172:249,1,56.5949988773575,2|0,1:2|0:2,0:0:0:0:
54,326,26114,2,0,L|125:315,1,56.5949988773575,0|2,1:2|0:2,0:0:0:0:
312,308,26457,6,0,P|326:278|326:239,1,56.5949988773575,0|0,1:2|0:2,0:0:0:0:
261,135,26800,2,0,P|264:162|277:188,1,56.5949988773575,2|2,1:2|0:2,0:0:0:0:
323,308,27142,2,0,P|337:278|337:239,1,56.5949988773575,0|2,1:2|0:2,0:0:0:0:
272,135,27485,2,0,P|275:162|288:188,1,56.5949988773575,0|2,1:2|0:2,0:0:0:0:
367,72,27828,6,0,L|434:59,1,56.5949988773575,0|0,1:2|0:0,0:0:0:0:
272,135,28171,2,0,L|205:122,1,56.5949988773575,0|2,1:2|0:2,0:0:0:0:
364,59,28514,2,0,L|431:46,1,56.5949988773575,2|0,1:2|0:2,0:0:0:0:
269,122,28857,2,0,L|202:109,1,56.5949988773575,0|0,1:2|0:2,0:0:0:0:
56,37,29200,6,0,P|90:55|109:116,1,84.8924983160363,2|0,1:2|0:0,0:0:0:0:
94,116,29542,1,2,1:2:0:0:
25,216,29714,1,2,0:2:0:0:
200,292,29885,1,8,1:2:0:0:
121,208,30057,2,0,L|114:246,1,28.2974994386788,2|0,1:2|1:2,0:2:0:0:
281,116,30228,5,8,1:2:0:0:
281,116,30314,1,8,1:2:0:0:
281,116,30400,2,0,L|291:269,1,127.890001073296,6|10,1:2|1:3,0:0:0:0:
358,323,30914,1,8,0:2:0:0:
442,207,31085,1,2,1:2:0:0:
442,207,31257,2,0,L|436:300,1,63.9450005366478,2|0,1:2|1:2,0:0:0:0:
313,193,31600,1,2,0:2:0:0:
225,347,31771,6,0,P|192:332|92:311,1,127.890001073296,10|10,0:2|1:3,0:0:0:0:
238,231,32285,1,8,0:2:0:0:
111,137,32457,1,2,1:2:0:0:
111,137,32542,1,0,1:2:0:0:
111,137,32628,2,0,L|123:222,1,63.9450005366478,0|6,1:2|1:3,0:0:0:0:
214,79,32971,1,8,0:2:0:0:
25,31,33142,6,0,L|8:170,1,127.890001073296,2|8,1:2|1:3,0:0:0:0:
136,30,33657,2,0,P|155:10|204:4,1,63.9450005366478,8|0,0:2|1:2,0:0:0:0:
206,21,33914,1,0,1:2:0:0:
206,21,34000,1,0,1:2:0:0:
250,143,34171,2,0,P|272:165|303:171,1,63.9450005366478,0|0,1:2|0:2,0:0:0:0:
392,56,34514,5,10,0:2:0:0:
392,56,34685,2,0,P|378:90|376:133,1,63.9450005366478,2|0,0:2|1:2,0:0:0:0:
403,264,35028,1,10,0:2:0:0:
403,264,35199,2,0,P|398:232|386:202,1,63.9450005366478,2|0,1:2|1:2,0:0:0:0:
240,130,35542,1,2,1:2:0:0:
185,315,35714,5,8,0:2:0:0:
185,315,35800,1,0,0:2:0:0:
185,315,35885,2,0,P|244:285|311:276,1,127.890001073296,6|8,1:2|1:3,0:0:0:0:
124,216,36400,2,0,P|105:249|100:286,1,63.9450005366478,8|0,0:2|0:2,0:0:0:0:
41,195,36742,1,2,0:2:0:0:
181,109,36914,2,0,P|198:144|208:248,1,127.890001073296,2|8,1:2|0:2,0:0:0:0:
290,87,37428,6,0,P|326:77|391:145,1,127.890001073296,2|8,0:0|0:2,0:0:0:0:
388,300,37942,1,2,1:2:0:0:
243,204,38114,2,0,P|230:230|223:270,1,63.9450005366478,2|4,1:2|1:3,0:0:0:0:
156,150,38457,1,10,0:2:0:0:
315,249,38628,6,0,P|343:232|442:220,1,127.890001073296,6|8,1:2|1:3,0:0:0:0:
329,72,39142,1,8,0:2:0:0:
298,266,39314,1,2,0:2:0:0:
181,44,39485,1,10,0:2:0:0:
212,238,39657,1,0,1:2:0:0:
212,238,39742,1,0,1:0:0:0:
212,238,39828,1,0,1:2:0:0:
335,43,40000,6,0,P|375:28|443:81,1,127.890001073296,10|0,0:2|1:2,0:0:0:0:
376,275,40514,1,10,0:2:0:0:
341,129,40685,1,2,1:2:0:0:
341,129,40771,1,0,1:2:0:0:
341,129,40857,1,8,0:2:0:0:
283,323,41028,2,0,P|253:352|204:346,1,63.9450005366478,10|4,0:3|0:3,0:0:0:0:
116,212,41371,6,0,P|81:263|70:335,2,127.890001073296,6|8|0,1:2|0:2|1:2,0:0:0:0:
223,152,42228,2,0,P|200:110|108:101,1,127.890001073296,10|0,0:2|0:0,0:0:0:0:
286,298,42914,5,0,1:2:0:0:
380,196,43085,2,0,L|393:106,1,63.9450005366478,10|0,0:2|0:2,0:0:0:0:
435,332,43428,1,0,1:2:0:0:
271,282,43599,2,0,L|258:192,1,63.9450005366478,10|0,0:2|1:2,0:0:0:0:
403,132,43942,2,0,L|393:195,1,63.9450005366478,0|0,0:0|1:2,0:0:0:0:
234,61,44285,6,0,P|186:22|120:48,1,127.890001073296,6|0,1:2|0:2,0:0:0:0:
132,179,44800,5,0,1:2:0:0:
226,281,44971,2,0,L|239:371,1,63.9450005366478,8|0,0:2|0:0,0:0:0:0:
273,204,45314,2,0,P|294:182|341:174,1,63.9450005366478,0|0,0:0|0:2,0:0:0:0:
209,304,45657,2,0,P|178:295|156:272,1,63.9450005366478,10|0,0:2|1:2,0:0:0:0:
149,241,45914,1,0,1:2:0:0:
149,241,46000,1,0,1:2:0:0:
137,35,46171,1,8,0:2:0:0:
26,207,46342,1,0,1:2:0:0:
26,207,46428,1,8,1:3:0:0:
26,207,46514,2,0,P|31:240|33:276,1,63.9450005366478,0|0,1:2|1:2,0:0:0:0:
173,144,46857,6,0,B|252:171|195:216|289:246,1,142.590003372414,6|0,1:2|0:2,0:0:0:0:
423,99,47371,1,4,1:3:0:0:
300,165,47542,1,0,1:2:0:0:
439,293,47714,1,0,1:2:0:0:
403,119,47885,1,0,1:2:0:0:
256,307,48057,1,0,1:2:0:0:
438,196,48228,1,6,1:3:0:0:
179,136,48400,5,0,1:2:0:0:
179,136,48571,2,0,L|191:239,1,71.2950016862069,0|0,1:2|1:2,0:0:0:0:
285,69,48914,1,0,1:2:0:0:
99,189,49085,2,0,L|87:292,1,71.2950016862069,0|0,1:2|1:2,0:0:0:0:
15,109,49428,1,0,1:2:0:0:
201,282,49600,6,0,B|294:259|232:230|340:196,1,142.590003372414,14|10,1:2|1:2,0:0:0:0:
464,349,50114,1,8,1:2:0:0:
430,132,50285,1,10,1:2:0:0:
333,379,50457,1,8,1:2:0:0:
451,219,50628,1,10,1:3:0:0:
451,219,50714,1,8,1:3:0:0:
451,219,50800,2,0,L|507:223,1,35.6475008431034,4|4,1:3|1:3,0:0:0:0:
343,349,50971,5,6,1:2:0:0:
284,70,51314,1,0,1:2:0:0:
131,221,51485,2,0,P|92:233|41:207,1,71.2950016862069,8|0,0:2|0:2,0:0:0:0:
44,47,51828,1,8,1:2:0:0:
44,47,51914,1,0,1:2:0:0:
44,47,52000,2,0,L|53:97,1,35.6475008431034,8|8,1:3|1:3,0:0:0:0:
197,166,52171,2,0,L|203:130,1,35.6475008431034,4|4,1:3|1:3,0:0:0:0:
42,257,52342,2,0,L|51:307,1,35.6475008431034,0|0,1:2|1:2,0:0:0:0:
122,118,52514,5,12,0:2:0:0:
472,71,53714,6,0,P|436:13|321:39,1,171.99000065609,6|0,1:2|0:2,0:0:0:0:
231,255,54228,2,0,P|312:265|362:200,1,171.99000065609,10|0,0:2|1:2,0:0:0:0:
191,122,54742,1,0,0:2:0:0:
82,288,54914,2,0,L|95:396,1,85.9950003280449,10|0,0:2|0:2,0:0:0:0:
282,186,55257,2,0,L|292:100,1,85.9950003280449,2|0,1:2|0:2,0:0:0:0:
52,156,55600,2,0,P|85:193|150:196,1,85.9950003280449,10|0,0:2|0:2,0:0:0:0:
276,12,55942,2,0,P|235:25|209:58,1,85.9950003280449,2|0,1:2|1:2,0:0:0:0:
368,207,56285,1,10,0:2:0:0:
452,14,56457,6,0,L|443:108,1,85.9950003280449,2|0,0:2|1:2,0:0:0:0:
304,271,56800,1,2,0:2:0:0:
359,62,56971,2,0,L|373:246,1,171.99000065609,10|0,0:2|1:2,0:0:0:0:
232,84,57485,1,0,1:2:0:0:
99,299,57657,2,0,P|63:325|10:319,1,85.9950003280449,10|0,0:2|0:0,0:0:0:0:
170,157,58000,2,0,P|212:157|246:182,1,85.9950003280449,2|0,1:2|0:2,0:0:0:0:
40,235,58342,2,0,P|54:187|61:143,1,85.9950003280449,10|0,0:2|0:2,0:0:0:0:
214,325,58685,2,0,P|199:277|193:233,1,85.9950003280449,2|0,1:2|0:2,0:0:0:0:
346,382,59028,1,8,0:2:0:0:
429,196,59200,6,0,P|351:180|309:273,1,171.99000065609,2|0,0:2|0:0,0:0:0:0:
462,322,59714,2,0,P|425:297|366:297,1,85.9950003280449,8|0,0:2|0:2,0:0:0:0:
190,364,60057,2,0,P|232:358|267:334,1,85.9950003280449,0|0,1:2|0:2,0:0:0:0:
163,188,60400,2,0,P|175:230|188:290,1,85.9950003280449,10|0,0:2|0:2,0:0:0:0:
333,89,60742,2,0,P|321:131|308:191,1,85.9950003280449,2|0,1:2|0:2,0:0:0:0:
211,40,61085,2,0,P|248:5|301:7,1,85.9950003280449,10|0,0:2|0:2,0:0:0:0:
136,198,61428,2,0,P|94:190|65:159,1,85.9950003280449,2|0,1:2|0:2,0:0:0:0:
223,63,61771,1,10,0:2:0:0:
0,0,61942,6,0,P|29:75|41:173,1,171.99000065609,2|2,0:2|0:2,0:0:0:0:
180,324,62457,2,0,P|225:304|281:303,1,85.9950003280449,10|0,0:2|0:2,0:0:0:0:
449,364,62800,1,0,1:2:0:0:
319,237,62971,1,8,0:3:0:0:
485,118,63142,1,10,0:2:0:0:
278,328,63314,6,0,P|297:219|300:125,1,171.99000065609,6|0,1:2|1:2,0:0:0:0:
406,6,63828,2,0,P|454:2|491:32,1,85.9950003280449,10|0,0:2|1:2,0:0:0:0:
487,55,64085,1,0,1:2:0:0:
487,55,64171,2,0,L|476:103,1,42.9975001640224,6|0,1:3|1:2,0:0:0:0:
512,249,64342,2,0,L|502:207,1,42.9975001640224,0|0,1:2|1:2,0:0:0:0:
357,74,64514,5,2,1:2:0:0:
357,74,64600,1,0,1:2:0:0:
357,74,64685,2,0,P|284:51|214:123,1,171.99000065609,6|0,1:2|0:2,0:0:0:0:
285,247,65200,2,0,P|257:212|202:199,1,85.9950003280449,10|0,0:2|0:2,0:0:0:0:
109,341,65542,2,0,P|148:326|174:292,1,85.9950003280449,0|0,1:2|0:2,0:0:0:0:
44,162,65885,2,0,P|61:201|73:261,1,85.9950003280449,10|0,0:2|0:2,0:0:0:0:
274,353,66228,2,0,P|283:311|301:271,1,85.9950003280449,2|0,1:2|0:2,0:0:0:0:
447,168,66571,2,0,P|419:200|354:206,1,85.9950003280449,10|0,0:2|0:2,0:0:0:0:
231,58,66914,2,0,P|271:69|299:100,1,85.9950003280449,2|0,1:2|1:2,0:0:0:0:
181,250,67257,1,10,0:2:0:0:
93,53,67428,6,0,L|86:142,1,85.9950003280449,2|0,0:2|1:2,0:0:0:0:
199,269,67771,1,2,0:2:0:0:
299,100,67942,2,0,L|316:274,1,171.99000065609,10|0,0:2|1:2,0:0:0:0:
388,146,68457,1,0,0:2:0:0:
313,361,68628,2,0,P|279:362|229:327,1,85.9950003280449,10|0,0:2|0:2,0:0:0:0:
185,115,68971,1,2,1:2:0:0:
127,284,69142,1,8,0:3:0:0:
287,133,69314,2,0,P|298:177|301:234,1,85.9950003280449,10|0,0:2|0:0,0:0:0:0:
378,76,69657,1,6,1:3:0:0:
378,76,69742,1,8,0:2:0:0:
378,76,69828,2,0,P|399:64|434:64,1,42.9975001640224,8|0,1:3|1:2,0:0:0:0:
459,203,70000,2,0,P|437:199|419:188,3,42.9975001640224,4|0|2|0,1:3|1:2|1:2|1:2,0:0:0:0:
511,132,70342,6,0,P|487:188|468:292,2,157.28999519989,4|10|2,1:2|0:2|1:2,0:0:0:0:
233,28,71371,1,10,0:2:0:0:
233,28,71542,2,0,P|251:63|260:113,1,78.6449975999451,2|0,0:2|1:2,0:0:0:0:
167,214,71885,1,2,0:2:0:0:
347,123,72057,2,0,P|329:158|320:208,1,78.6449975999451,10|0,0:2|0:0,0:0:0:0:
162,300,72400,2,0,P|153:261|135:226,1,78.6449975999451,0|8,1:2|0:3,0:0:0:0:
254,344,72742,1,10,0:2:0:0:
192,124,72914,6,0,P|115:86|29:168,1,157.28999519989,6|8,1:2|1:2,0:0:0:0:
224,239,73428,1,4,1:3:0:0:
277,32,73600,1,8,1:2:0:0:
343,215,73771,1,4,1:3:0:0:
268,11,73942,1,0,1:2:0:0:
268,11,74028,1,8,1:2:0:0:
268,11,74114,2,0,L|215:18,1,39.3224987999726,2|8,1:2|1:3,0:0:0:0:
169,157,74285,2,0,L|207:162,1,39.3224987999726,4|4,1:3|1:3,0:0:0:0:
145,8,74457,6,0,B|91:35|136:57|49:95,1,120.907498155098,14|0,0:2|0:0,0:0:0:0:
0,129,75142,1,10,1:3:0:0:
0,129,75228,1,8,1:2:0:0:
0,129,75314,2,0,L|8:156,3,17.2724997364426,8|8|8|8,1:2|1:2|1:2|1:2,0:0:0:0:
32,227,75657,6,0,P|107:197|180:246,1,157.28999519989,6|0,1:2|0:2,0:0:0:0:
214,378,76171,2,0,P|195:336|195:281,1,78.6449975999451,10|0,0:2|0:2,0:0:0:0:
361,208,76514,2,0,P|356:246|295:311,1,117.967496399918,2|2,1:2|0:2,0:0:0:0:
282,303,76857,1,8,0:2:0:0:
246,102,77028,6,0,P|293:74|402:128,1,157.28999519989,2|2,0:2|0:2,0:0:0:0:
263,228,77542,2,0,P|225:209|162:200,1,78.6449975999451,8|2,0:2|0:2,0:0:0:0:
22,111,77885,2,0,P|61:101|96:84,1,78.6449975999451,0|2,1:2|0:2,0:0:0:0:
243,10,78228,2,0,P|223:40|208:89,1,78.6449975999451,8|2,0:2|0:2,0:0:0:0:
217,104,78485,5,0,0:0:0:0:
217,104,78571,2,0,L|306:92,1,78.6449975999451,2|0,1:2|0:0,0:0:0:0:
432,192,78914,2,0,L|343:180,1,78.6449975999451,10|0,0:2|0:2,0:0:0:0:
160,173,79257,2,0,P|184:208|190:254,1,78.6449975999451,2|0,1:2|0:2,0:0:0:0:
178,266,79514,1,2,0:2:0:0:
178,266,79600,1,8,0:2:0:0:
2,355,79771,6,0,P|57:289|57:201,1,157.28999519989,2|2,0:2|0:2,0:0:0:0:
0,51,80285,1,10,0:2:0:0:
79,200,80457,1,2,0:2:0:0:
182,28,80628,2,0,P|216:5|264:11,1,78.6449975999451,0|2,1:2|0:2,0:0:0:0:
321,181,80971,2,0,P|282:181|250:158,1,78.6449975999451,8|0,0:2|0:2,0:0:0:0:
227,134,81228,5,0,0:0:0:0:
227,134,81314,2,0,L|234:231,1,78.6449975999451,6|0,1:2|1:2,0:0:0:0:
347,350,81657,2,0,L|352:291,3,39.3224987999726,10|0|8|8,1:2|1:3|1:3|1:3,0:0:0:0:
361,237,82000,2,0,P|397:222|452:247,1,78.6449975999451,6|4,1:3|1:3,0:0:0:0:
452,257,82257,1,6,1:3:0:0:
452,257,82342,1,0,1:2:0:0:
510,82,82514,6,0,P|502:123|498:184,1,78.6449975999451,14|0,0:2|1:2,0:0:0:0:
377,17,82857,1,10,0:3:0:0:
245,160,83028,2,0,P|253:201|257:262,1,78.6449975999451,12|2,0:2|0:0,0:0:0:0:
312,83,83371,1,0,1:2:0:0:
312,83,83457,1,0,1:2:0:0:
312,83,83542,2,0,P|293:71|263:67,1,39.3224987999726,2|0,1:2|1:2,0:0:0:0:
163,171,83714,2,0,P|116:171|74:138,1,78.6449975999451,8|0,1:2|1:2,0:0:0:0:
75,121,83971,5,0,1:2:0:0:
75,121,84057,1,6,1:2:0:0:
218,15,84228,1,0,1:2:0:0:
218,15,84314,1,0,1:2:0:0:
218,15,84400,2,0,L|212:68,1,39.3224987999726,10|0,1:2|1:2,0:0:0:0:
250,172,84571,2,0,L|245:132,1,39.3224987999726,8|8,1:3|1:3,0:0:0:0:
323,4,84742,2,0,L|317:57,1,39.3224987999726,10|8,1:3|1:3,0:0:0:0:
356,157,84914,2,0,L|351:117,1,39.3224987999726,4|6,1:3|1:3,0:0:0:0:
439,0,85085,5,4,1:3:0:0:
439,0,85171,1,4,1:3:0:0:
439,0,85257,2,0,L|428:138,1,117.967496399918,6|0,1:2|0:0,0:0:0:0:
449,134,85600,2,0,L|461:249,1,78.6449975999451,2|12,1:2|0:2,0:0:0:0:
373,356,85942,1,2,0:0:0:0:
373,356,86114,2,0,P|408:337|452:327,1,78.6449975999451,8|10,1:3|1:2,0:0:0:0:
301,188,86457,1,8,1:2:0:0:
233,368,86628,1,14,1:2:0:0:
196,247,86800,5,2,0:2:0:0:
125,90,90914,5,4,1:2:0:0:
228,25,91085,1,0,1:2:0:0:
228,25,91171,1,0,1:2:0:0:
228,25,91257,2,0,L|219:65,3,39.3224987999726,8|4|4|4,1:3|1:3|1:3|1:3,0:3:0:0:
196,141,91600,5,0,1:2:0:0:
380,98,91771,1,8,1:2:0:0:
191,164,91942,1,8,1:2:0:0:
409,229,92114,1,14,0:2:0:0:
