osu file format v14

[General]
AudioFilename: audio.mp3
AudioLeadIn: 0
PreviewTime:52763
Countdown: 0
SampleSet: Soft
StackLeniency: 0.7
Mode: 0
LetterboxInBreaks: 0
WidescreenStoryboard: 0

[Editor]
DistanceSpacing: 1.9
BeatDivisor: 4
GridSize: 4
TimelineZoom: 1.8

[Metadata]
Title:Scar/let
TitleUnicode:Scar/let
Artist:ReoNa
ArtistUnicode:ReoNa
Creator:Sotarks
Version:Ex/pert
Source:ソードアート・オンライン アリシゼーション リコリス
Tags:scarlet SWORD ART ONLINE Alicization Lycoris sao video game size version bandai namco japanese female vocalist jpop j-pop elinor eli [_eli_] basensorex smokelind opening op kegani kei hayashi ryohei aharata
BeatmapID:2514916
BeatmapSetID:1207707

[Difficulty]
HPDrainRate:5.2
CircleSize:4
OverallDifficulty:8.7
ApproachRate:9.1
SliderMultiplier:1.72
SliderTickRate:1

[Events]
//Background and Video events
Video,8,"video.mp4"
0,0,"BG.jpg"
//Break Periods
//Storyboard Layer 0 (Background)
//Storyboard Layer 1 (Fail)
//Storyboard Layer 2 (Pass)
//Storyboard Layer 3 (Foreground)
//Storyboard Layer 4 (Overlay)
//Storyboard Sound Samples

[TimingPoints]
400,342.857142857143,4,2,22,42,1,0
400,-192.307692307692,4,2,22,42,0,0
7942,-192.307692307692,4,2,22,52,0,0
8457,-98.0392156862744,4,2,22,72,0,0
18057,-161.290322580645,4,2,22,82,0,0
18142,-161.290322580645,4,2,22,42,0,0
18571,-161.290322580645,4,2,22,52,0,0
19171,-161.290322580645,4,2,22,5,0,0
19257,-161.290322580645,4,2,22,52,0,0
19342,-161.290322580645,4,2,22,5,0,0
19428,-192.307692307692,4,2,22,52,0,0
24914,-121.951219512195,4,2,22,62,0,0
30400,-98.0392156862744,4,2,22,72,0,0
41371,-108.695652173913,4,2,22,62,0,0
46857,-98.0392156862745,4,2,22,62,0,0
49600,-98.0392156862745,4,2,22,72,0,0
52857,-192.307692307692,4,2,22,52,0,0
53457,-192.307692307692,4,2,22,5,0,0
53542,-121.951219512195,4,2,22,52,0,0
53628,-121.951219512195,4,2,22,5,0,0
53714,-89.2857142857143,4,2,22,82,0,0
74457,-121.951219512195,4,2,22,72,0,0
75657,-98.0392156862744,4,2,22,72,0,0
85257,-98.0392156862744,4,2,22,82,0,0
86800,-192.307692307692,4,2,22,52,0,0
90914,-98.0392156862744,4,2,22,72,0,0
91771,-98.0392156862744,4,2,22,82,0,0

[Colours]
Combo1 : 227,159,91
Combo2 : 157,240,255
Combo3 : 255,237,176
Combo4 : 67,140,194

[HitObjects]
69,129,400,6,0,B|163:77|230:161|192:181|244:245|359:192,1,313.039998089355,2|2,0:2|0:2,0:0:0:0:
342,198,1685,1,2,0:2:0:0:
342,198,1771,2,0,P|329:243|329:299,1,89.4399994541016,2|0,0:2|0:2,0:0:0:0:
228,332,2285,2,0,P|226:287|213:244,1,89.4399994541016,2|0,0:2|0:2,0:0:0:0:
126,208,2800,1,2,0:2:0:0:
126,208,3142,6,0,P|76:216|31:222,1,89.4399994541016,2|0,0:2|0:2,0:0:0:0:
6,149,3657,2,0,P|50:142|94:135,1,89.4399994541016,2|0,0:2|0:2,0:0:0:0:
150,53,4171,2,0,P|128:85|125:127,1,67.0799995905762,2|2,0:2|0:2,0:0:0:0:
140,147,4514,1,2,0:2:0:0:
256,192,4600,12,0,7257,0:2:0:0:
119,151,7942,5,8,1:2:0:0:
145,139,8027,1,8,1:2:0:0:
174,142,8113,1,8,1:2:0:0:
198,157,8199,1,8,1:2:0:0:
222,172,8285,1,8,1:2:0:0:
250,175,8371,1,8,1:2:0:0:
276,163,8457,6,0,P|188:172|94:183,1,175.440001070801,6|0,1:2|0:2,0:0:0:0:
340,28,8971,2,0,P|297:21|254:15,1,87.7200005354004,10|0,0:2|0:2,0:0:0:0:
456,247,9314,2,0,P|464:193|471:145,1,87.7200005354004,2|0,1:2|0:2,0:0:0:0:
441,123,9571,2,0,P|444:151|448:175,1,43.8600002677002,2|8,0:2|0:2,0:0:0:0:
233,315,9828,6,0,P|278:249|374:265,1,175.440001070801,2|2,0:2|0:2,0:0:0:0:
364,257,10342,1,8,0:2:0:0:
190,384,10514,2,0,P|146:377|103:370,1,87.7200005354004,2|0,0:2|1:2,0:0:0:0:
18,196,10857,1,2,0:2:0:0:
159,98,11028,2,0,P|152:141|146:184,1,87.7200005354004,8|0,0:2|0:2,0:0:0:0:
424,335,11371,6,0,B|442:318|470:294|470:294|447:241|418:172,1,175.440001070801,2|10,1:2|0:2,0:0:0:0:
425,189,11885,1,0,0:2:0:0:
246,316,12057,2,0,P|202:309|159:302,1,87.7200005354004,2|0,1:2|0:2,0:0:0:0:
127,287,12314,2,0,L|175:281,1,43.8600002677002,2|8,0:2|0:2,0:0:0:0:
327,70,12571,6,0,P|333:113|339:156,1,87.7200005354004,2|0,0:2|1:2,0:0:0:0:
163,133,12914,1,2,0:2:0:0:
351,0,13085,1,10,0:2:0:0:
239,242,13257,2,0,P|245:198|251:155,1,87.7200005354004,2|0,0:2|1:2,0:0:0:0:
419,307,13600,1,2,0:2:0:0:
128,239,13771,2,0,P|134:282|140:325,1,87.7200005354004,8|0,0:2|0:2,0:0:0:0:
441,217,14114,6,0,B|389:192|344:229|368:242|315:282|261:250,1,175.440001070801,6|10,1:2|0:2,0:0:0:0:
281,258,14628,1,0,0:2:0:0:
126,47,14800,2,0,P|119:90|113:133,1,87.7200005354004,2|0,1:2|0:2,0:0:0:0:
90,177,15057,2,0,L|81:122,1,43.8600002677002,2|8,0:2|0:2,0:0:0:0:
279,14,15314,6,0,P|331:26|335:151,1,175.440001070801,2|2,0:2|0:2,0:0:0:0:
352,132,15828,1,8,0:2:0:0:
168,265,16000,2,0,P|174:308|180:351,1,87.7200005354004,2|0,0:2|1:2,0:0:0:0:
303,227,16342,1,2,0:2:0:0:
90,177,16514,2,0,P|83:220|77:263,1,87.7200005354004,8|0,0:2|0:2,0:0:0:0:
285,79,16857,5,6,1:3:0:0:
85,14,17028,1,4,1:3:0:0:
352,132,17200,1,8,1:2:0:0:
77,263,17371,1,4,1:3:0:0:
363,49,17542,1,10,1:3:0:0:
405,59,17627,1,8,1:3:0:0:
435,89,17713,1,8,1:3:0:0:
446,131,17799,1,8,1:3:0:0:
433,173,17885,2,0,P|405:168|366:162,1,43.8600002677002,8|0,1:2|1:2,0:0:0:0:
246,227,18057,6,0,B|296:206|333:238|317:247|347:279|410:252,1,159.959993653931,6|0,1:2|0:2,0:0:0:0:
491,320,18742,1,0,0:2:0:0:
491,320,18828,1,0,0:2:0:0:
491,320,18914,6,0,P|490:291|482:322,1,79.9799968269655,0|0,0:2|0:2,0:0:0:0:
416,369,19257,6,0,L|385:361,1,26.6599989423218,2|0,0:2|0:2,0:0:0:0:
317,272,19428,6,0,P|276:252|197:343,1,178.879998908203,6|2,1:2|0:2,0:0:0:0:
123,384,20285,2,0,P|117:335|110:285,1,89.4399994541016,2|0,0:2|0:2,0:0:0:0:
44,236,20800,2,0,P|37:280|32:324,2,89.4399994541016,2|2|2,0:2|0:2|0:2,0:0:0:0:
11,56,21828,2,0,P|40:64|66:70,1,44.7199997270508,2|0,0:2|0:2,0:0:0:0:
53,141,22171,6,0,P|103:132|155:124,1,89.4399994541016,2|0,0:2|0:2,0:0:0:0:
224,55,22685,2,0,P|220:86|216:111,1,44.7199997270508,0|0,0:2|0:2,0:0:0:0:
315,187,23028,2,0,P|307:145|298:86,1,89.4399994541016,0|0,0:2|0:2,0:0:0:0:
229,237,23542,1,2,0:2:0:0:
229,237,23714,2,0,P|272:225|317:259,1,89.4399994541016,2|0,0:2|0:2,0:0:0:0:
364,311,24228,2,0,P|333:315|304:321,1,44.7199997270508,2|0,0:2|0:2,0:0:0:0:
256,362,24571,2,0,P|233:358|211:355,1,44.7199997270508,2|0,0:2|0:2,0:0:0:0:
104,198,24914,6,0,P|64:216|67:347,1,176.300002690125,6|0,1:2|0:2,0:0:0:0:
69,351,25428,2,0,P|108:343|155:334,1,70.5200010760498,0|0,1:2|0:2,0:0:0:0:
218,200,25771,2,0,P|252:206|287:213,1,70.5200010760498,2|0,1:2|0:2,0:0:0:0:
418,343,26114,2,0,P|422:305|427:250,1,70.5200010760498,0|2,1:2|0:2,0:0:0:0:
505,126,26457,2,0,P|508:161|512:196,1,70.5200010760498,0|0,1:2|0:2,0:0:0:0:
393,32,26800,1,2,1:2:0:0:
393,32,26971,2,0,P|358:38|323:45,1,70.5200010760498,2|0,0:2|1:2,0:0:0:0:
275,184,27314,2,0,P|240:176|205:170,1,70.5200010760498,2|0,0:2|1:2,0:0:0:0:
92,77,27657,1,2,0:2:0:0:
11,186,27828,6,0,P|20:281|26:353,1,141.0400021521,0|0,1:2|1:2,0:0:0:0:
23,326,28342,1,2,0:2:0:0:
249,207,28514,2,0,P|214:199|179:193,1,70.5200010760498,2|0,1:2|0:2,0:0:0:0:
228,377,28857,2,0,P|262:369|297:363,1,70.5200010760498,0|0,1:2|0:2,0:0:0:0:
495,229,29200,2,0,P|456:187|361:202,1,141.0400021521,2|2,1:2|1:2,0:0:0:0:
311,336,29714,1,2,0:2:0:0:
364,155,29885,1,8,1:2:0:0:
445,360,30057,1,2,1:2:0:0:
445,360,30142,1,0,1:2:0:0:
445,360,30228,1,8,1:2:0:0:
258,214,30400,6,0,B|206:191|169:230|185:237|141:285|77:242,1,175.440001070801,6|10,1:2|1:3,0:0:0:0:
14,85,30914,2,0,P|6:134|-7:202,1,87.7200005354004,8|2,0:2|1:2,0:0:0:0:
7,201,31171,1,0,1:2:0:0:
7,201,31257,1,2,1:2:0:0:
234,86,31428,2,0,P|226:42|219:0,1,87.7200005354004,0|2,1:2|0:2,0:0:0:0:
370,261,31771,6,0,P|430:230|405:117,1,175.440001070801,10|10,0:2|1:3,0:0:0:0:
147,47,32285,2,0,P|139:90|132:133,1,87.7200005354004,8|2,0:2|1:2,0:0:0:0:
136,153,32542,1,0,1:2:0:0:
140,157,32628,1,0,1:2:0:0:
260,62,32800,1,6,1:3:0:0:
77,0,32971,1,8,0:2:0:0:
258,220,33142,6,0,P|343:202|462:178,1,175.440001070801,2|8,1:2|1:3,0:0:0:0:
277,354,33657,2,0,P|229:346|191:340,1,87.7200005354004,8|0,0:2|1:2,0:0:0:0:
158,345,33914,1,0,1:2:0:0:
158,345,34000,1,0,1:2:0:0:
47,130,34171,2,0,P|95:122|133:116,1,87.7200005354004,0|0,1:2|0:2,0:0:0:0:
373,246,34514,1,10,0:2:0:0:
248,40,34685,6,0,P|240:98|232:154,1,87.7200005354004,2|0,0:2|1:2,0:0:0:0:
408,54,35028,1,10,0:2:0:0:
192,242,35200,1,2,1:2:0:0:
192,242,35285,1,0,1:2:0:0:
192,242,35371,2,0,P|144:234|106:228,1,87.7200005354004,0|2,1:2|1:2,0:0:0:0:
330,112,35714,2,0,P|335:145|340:181,1,43.8600002677002,8|0,0:2|0:2,0:0:0:0:
408,326,35885,6,0,P|369:276|262:292,1,175.440001070801,6|8,1:2|1:3,0:0:0:0:
94,371,36400,2,0,B|88:318|82:266,1,87.7200005354004,8|0,0:2|0:2,0:0:0:0:
172,125,36742,1,2,0:2:0:0:
0,319,36914,2,0,B|6:266|9:231,1,87.7200005354004,2|0,1:2|0:2,0:0:0:0:
203,37,37257,6,0,B|151:14|114:53|130:60|86:108|22:65,1,175.440001070801,8|8,0:2|1:3,0:0:0:0:
182,235,37771,2,0,P|237:226|287:219,1,87.7200005354004,8|2,0:2|1:2,0:0:0:0:
284,196,38028,1,0,1:2:0:0:
288,200,38114,1,2,1:2:0:0:
461,87,38285,1,4,1:3:0:0:
418,268,38457,1,10,0:2:0:0:
320,32,38628,6,0,B|294:49|269:65|269:65|292:137|307:185,1,175.440001070801,6|8,1:2|1:3,0:0:0:0:
453,341,39142,2,0,P|394:351|346:359,1,87.7200005354004,8|2,0:2|0:2,0:0:0:0:
201,185,39485,2,0,P|244:192|287:199,1,87.7200005354004,10|0,0:2|1:2,0:0:0:0:
166,383,39828,1,0,1:2:0:0:
382,260,40000,1,10,0:2:0:0:
151,122,40171,6,0,P|159:175|169:239,1,87.7200005354004,2|0,0:2|1:2,0:0:0:0:
301,85,40514,1,10,0:2:0:0:
107,16,40685,1,2,1:2:0:0:
107,16,40771,1,0,1:2:0:0:
107,16,40857,1,8,0:2:0:0:
261,190,41028,2,0,P|304:182|347:175,1,87.7200005354004,10|4,0:3|0:3,0:0:0:0:
131,329,41371,5,6,1:2:0:0:
131,329,41714,2,0,B|177:301|219:333|204:341|240:375|296:344,1,158.239994687988,8|0,0:2|1:2,0:0:0:0:
407,174,42228,2,0,P|304:157|281:286,1,237.359992031983,10|0,0:2|0:2,0:0:0:0:
267,264,42914,1,0,1:2:0:0:
490,195,43085,2,0,P|480:139|473:99,1,79.1199973439942,10|0,0:2|0:2,0:0:0:0:
319,77,43428,1,0,1:2:0:0:
483,0,43600,1,10,0:2:0:0:
345,234,43771,2,0,P|261:226|152:214,1,158.239994687988,0|0,1:2|1:2,0:0:0:0:
107,25,44285,6,0,P|43:34|24:128,1,158.239994687988,6|0,1:2|0:2,0:0:0:0:
140,300,44800,1,0,1:2:0:0:
303,144,44971,2,0,B|238:111|186:162|216:180|146:243|72:187,1,237.359992031983,8|0,0:2|0:2,0:0:0:0:
194,48,45657,1,10,0:2:0:0:
285,242,45828,2,0,L|274:291,2,39.5599986719971,0|0|0,1:2|1:2|1:2,0:0:0:0:
120,113,46171,1,8,0:2:0:0:
205,332,46342,1,0,1:2:0:0:
230,356,46427,1,8,1:3:0:0:
264,367,46513,1,0,1:2:0:0:
299,364,46599,1,8,1:3:0:0:
330,346,46684,1,0,1:2:0:0:
286,95,46857,6,0,B|261:120|240:140|240:140|267:200|295:265,1,175.440001070801,6|0,1:2|0:2,0:0:0:0:
368,132,47371,1,4,1:3:0:0:
225,209,47542,1,0,1:2:0:0:
394,294,47714,1,0,1:2:0:0:
286,95,47885,1,0,1:2:0:0:
208,304,48057,1,0,1:2:0:0:
416,207,48228,1,6,1:3:0:0:
207,94,48400,5,0,1:2:0:0:
307,346,48571,1,0,1:2:0:0:
199,115,48742,1,0,1:2:0:0:
144,362,48914,1,0,1:2:0:0:
277,112,49085,1,0,1:2:0:0:
339,371,49257,1,0,1:2:0:0:
117,228,49428,1,0,1:2:0:0:
353,110,49600,1,14,1:2:0:0:
223,283,49771,5,0,1:2:0:0:
318,50,49942,1,10,1:2:0:0:
416,296,50114,1,8,1:2:0:0:
215,149,50285,1,10,1:2:0:0:
449,57,50457,1,8,1:2:0:0:
302,330,50628,1,10,1:3:0:0:
302,330,50714,1,8,1:3:0:0:
302,330,50800,2,0,L|242:319,1,43.8600002677002,4|4,1:3|1:3,0:0:0:0:
77,121,50971,6,0,P|105:60|214:62,1,175.440001070801,6|0,1:2|1:2,0:0:0:0:
174,358,51485,2,0,P|168:307|161:255,1,87.7200005354004,8|0,0:2|0:2,0:0:0:0:
339,93,51828,2,0,P|330:152|327:170,1,43.8600002677002,8|0,1:2|1:2,0:0:0:0:
461,277,52000,1,8,1:3:0:0:
461,277,52085,1,8,1:3:0:0:
461,277,52171,2,0,P|457:255|454:233,1,43.8600002677002,4|4,1:3|1:3,0:0:0:0:
237,156,52342,2,0,P|233:177|230:199,1,43.8600002677002,0|0,1:2|1:2,0:0:0:0:
474,126,52514,1,12,0:2:0:0:
474,126,52857,6,0,P|409:79|324:104,1,156.519999044678,2|0,0:2|0:2,0:0:0:0:
380,203,53542,6,0,P|393:165|392:156,1,35.2600005380249,2|0,0:2|0:2,0:0:0:0:
279,29,53714,6,0,B|233:74|233:74|287:201,1,192.640002351563,6|0,1:2|0:2,0:0:0:0:
110,289,54228,2,0,P|118:241|128:184,1,96.3200011757813,10|0,0:2|0:2,0:0:0:0:
248,368,54571,1,0,1:2:0:0:
21,251,54742,1,0,1:2:0:0:
21,251,54828,1,2,1:2:0:0:
21,251,54914,2,0,P|29:298|37:345,1,96.3200011757813,10|0,0:2|0:2,0:0:0:0:
203,118,55257,6,0,P|152:106|94:93,1,96.3200011757813,2|0,1:2|0:2,0:0:0:0:
222,336,55600,2,0,P|268:324|315:314,1,96.3200011757813,10|0,0:2|0:2,0:0:0:0:
404,101,55942,1,2,1:2:0:0:
407,104,56028,1,8,0:2:0:0:
411,108,56114,1,0,1:2:0:0:
238,222,56285,1,10,0:2:0:0:
445,334,56457,6,0,P|452:287|462:228,1,96.3200011757813,2|0,0:2|1:2,0:0:0:0:
299,57,56800,1,2,0:2:0:0:
171,288,56971,2,0,P|243:308|279:317,1,96.3200011757813,10|0,0:2|0:2,0:0:0:0:
116,89,57314,2,0,L|89:161,2,48.1600005878906,0|8|0,1:2|0:2|1:2,0:0:0:0:
365,238,57657,2,0,P|325:177|234:191,1,144.480001763672,10|0,0:2|0:2,0:0:0:0:
201,230,58000,6,0,P|209:304|215:352,1,96.3200011757813,2|0,1:2|0:2,0:0:0:0:
430,141,58342,2,0,P|361:110|317:92,1,96.3200011757813,10|0,0:2|0:2,0:0:0:0:
393,384,58685,2,0,P|453:340|491:310,1,96.3200011757813,2|0,1:2|0:2,0:0:0:0:
334,234,59028,1,8,0:2:0:0:
214,384,59200,1,2,0:2:0:0:
45,142,59371,6,0,P|78:92|213:109,1,192.640002351563,0|8,1:2|0:2,0:0:0:0:
304,327,59885,1,0,0:2:0:0:
134,232,60057,1,0,1:2:0:0:
304,102,60228,1,0,1:2:0:0:
304,102,60314,1,2,1:2:0:0:
304,102,60400,2,0,P|296:159|288:216,1,96.3200011757813,10|0,0:2|0:2,0:0:0:0:
65,382,60742,6,0,P|127:370|175:360,1,96.3200011757813,2|0,1:2|0:2,0:0:0:0:
398,345,61085,2,0,P|336:333|288:323,1,96.3200011757813,10|0,0:2|0:2,0:0:0:0:
55,371,61428,2,0,P|117:359|165:349,1,96.3200011757813,2|0,1:2|0:2,0:0:0:0:
308,229,61771,1,10,0:2:0:0:
173,136,61942,1,2,0:2:0:0:
279,359,62114,5,0,1:2:0:0:
408,140,62285,1,2,0:2:0:0:
170,279,62457,2,0,P|179:328|188:373,1,96.3200011757813,10|0,0:2|0:2,0:0:0:0:
300,129,62800,1,0,1:2:0:0:
88,243,62971,1,8,0:3:0:0:
398,290,63142,1,10,0:2:0:0:
71,131,63314,6,0,P|58:221|39:347,1,192.640002351563,6|0,1:2|1:2,0:0:0:0:
208,80,63828,1,10,0:2:0:0:
263,291,64000,1,0,1:2:0:0:
266,294,64085,1,0,1:2:0:0:
270,298,64171,2,0,L|325:288,1,48.1600005878906,6|0,1:3|1:2,0:0:0:0:
372,68,64342,1,0,1:2:0:0:
330,77,64427,1,0,1:2:0:0:
298,106,64513,1,2,1:2:0:0:
285,147,64599,1,0,1:2:0:0:
295,188,64685,6,0,B|345:186|384:228|384:228|427:185|497:195,1,192.640002351563,6|0,1:2|0:2,0:0:0:0:
215,70,65200,2,0,P|188:117|194:195,1,96.3200011757813,10|0,0:2|0:2,0:0:0:0:
334,376,65542,2,0,P|328:328|303:287,1,96.3200011757813,0|0,1:2|0:2,0:0:0:0:
275,273,65800,1,2,0:2:0:0:
279,277,65885,1,10,0:2:0:0:
149,362,66057,1,0,0:2:0:0:
368,199,66228,6,0,P|304:182|264:171,1,96.3200011757813,2|0,1:2|0:2,0:0:0:0:
104,57,66571,2,0,P|168:40|208:29,1,96.3200011757813,10|0,0:2|0:2,0:0:0:0:
132,232,66914,1,2,1:2:0:0:
135,235,67000,1,8,0:2:0:0:
139,239,67085,1,0,1:2:0:0:
336,109,67257,1,10,0:2:0:0:
74,155,67428,6,0,P|49:195|43:243,1,96.3200011757813,2|0,0:2|1:2,0:0:0:0:
226,370,67771,1,2,0:2:0:0:
320,142,67942,2,0,P|314:94|289:53,1,96.3200011757813,10|0,0:2|0:2,0:0:0:0:
141,243,68285,1,0,1:2:0:0:
335,317,68457,1,0,0:2:0:0:
168,138,68628,2,0,P|113:148|51:158,1,96.3200011757813,10|0,0:2|0:2,0:0:0:0:
207,350,68971,5,2,1:2:0:0:
289,124,69142,1,8,0:3:0:0:
141,243,69314,2,0,B|186:221|221:249|203:264|236:284|308:259,1,144.480001763672,10|8,0:2|0:2,0:0:0:0:
364,219,69657,2,0,P|377:273|377:286,1,48.1600005878906,6|8,1:3|0:2,0:0:0:0:
258,189,69828,1,8,1:3:0:0:
258,189,69914,1,0,1:2:0:0:
258,189,70000,2,0,P|262:165|270:142,1,48.1600005878906,4|0,1:3|1:2,0:0:0:0:
375,31,70171,1,2,1:2:0:0:
375,31,70257,1,0,1:2:0:0:
375,31,70342,6,0,P|296:42|214:54,1,144.480001763672,4|0,1:2|0:2,0:0:0:0:
171,1,70685,2,0,P|160:62|153:106,1,96.3200011757813,10|0,0:2|0:2,0:0:0:0:
16,193,71028,2,0,P|8:145|0:98,1,96.3200011757813,2|0,1:2|0:2,0:0:0:0:
212,200,71371,1,10,0:2:0:0:
94,364,71542,6,0,P|38:353|-14:341,1,96.3200011757813,2|0,0:2|1:2,0:0:0:0:
144,138,71885,1,2,0:2:0:0:
256,325,72057,2,0,B|325:300|386:279|386:279|411:297|430:310,1,192.640002351563,10|0,0:2|1:2,0:0:0:0:
276,124,72571,1,8,0:3:0:0:
370,370,72742,1,10,0:2:0:0:
458,74,72914,1,6,1:2:0:0:
458,74,73257,5,8,1:2:0:0:
128,162,73428,1,4,1:3:0:0:
436,79,73600,1,8,1:2:0:0:
228,334,73771,1,4,1:3:0:0:
263,27,73942,1,0,1:2:0:0:
263,27,74028,1,8,1:2:0:0:
263,27,74114,2,0,L|278:86,1,48.1600005878906,2|8,1:2|1:3,0:0:0:0:
446,273,74285,1,4,1:3:0:0:
446,273,74371,1,4,1:3:0:0:
446,273,74457,6,0,P|417:212|383:299,1,211.560003228149,14|0,0:2|0:2,0:0:0:0:
429,133,75142,1,10,1:3:0:0:
394,126,75227,1,8,1:2:0:0:
360,133,75313,1,8,1:2:0:0:
330,152,75399,1,8,1:2:0:0:
300,171,75485,1,8,1:2:0:0:
266,177,75571,1,8,1:2:0:0:
231,171,75657,6,0,P|317:178|427:187,1,175.440001070801,6|0,1:2|0:2,0:0:0:0:
161,76,76171,2,0,P|151:125|140:185,1,87.7200005354004,10|0,0:2|0:2,0:0:0:0:
259,354,76514,2,0,P|250:310|242:267,1,87.7200005354004,2|0,1:2|0:2,0:0:0:0:
216,234,76771,2,0,L|206:289,1,43.8600002677002,2|8,0:2|0:2,0:0:0:0:
465,297,77028,6,0,P|490:240|406:166,1,175.440001070801,2|2,0:2|0:2,0:0:0:0:
240,263,77542,1,8,0:2:0:0:
374,80,77714,2,0,P|422:86|487:93,1,87.7200005354004,2|0,0:2|1:2,0:0:0:0:
346,315,78057,1,2,0:2:0:0:
187,143,78228,1,8,0:2:0:0:
398,195,78400,1,2,0:2:0:0:
162,354,78571,6,0,P|152:297|143:250,1,87.7200005354004,2|0,1:2|0:0,0:0:0:0:
315,111,78914,2,0,P|306:154|299:197,1,87.7200005354004,10|0,0:2|0:2,0:0:0:0:
91,60,79257,2,0,P|156:47|200:38,1,87.7200005354004,2|0,1:2|0:2,0:0:0:0:
219,27,79514,2,0,L|170:14,1,43.8600002677002,2|8,0:2|0:2,0:0:0:0:
19,210,79771,6,0,P|11:166|3:123,1,87.7200005354004,2|0,0:2|1:2,0:0:0:0:
199,227,80114,1,2,0:2:0:0:
24,337,80285,1,10,0:2:0:0:
185,134,80457,2,0,P|227:142|271:151,1,87.7200005354004,2|0,0:2|1:2,0:0:0:0:
361,366,80800,2,0,P|318:374|274:383,1,87.7200005354004,2|8,0:2|0:2,0:0:0:0:
182,249,81142,1,0,0:2:0:0:
387,128,81314,5,6,1:2:0:0:
299,268,81485,1,0,1:2:0:0:
299,268,81571,1,0,1:2:0:0:
299,268,81657,2,0,L|286:214,3,43.8600002677002,10|0|8|8,1:2|1:3|1:3|1:3,0:0:0:0:
215,157,82000,2,0,L|204:114,3,43.8600002677002,6|4|4|6,1:3|1:3|1:3|1:3,0:0:0:0:
238,23,82342,1,0,1:2:0:0:
182,249,82514,6,0,P|129:239|68:229,1,87.7200005354004,14|0,0:2|1:2,0:0:0:0:
307,116,82857,1,10,0:3:0:0:
97,1,83028,2,0,B|51:40|51:40|99:151,1,175.440001070801,12|0,0:2|1:2,0:0:0:0:
277,283,83542,1,2,1:2:0:0:
277,283,83628,1,0,1:2:0:0:
277,283,83714,2,0,L|287:229,1,43.8600002677002,8|0,1:2|1:2,0:0:0:0:
183,153,83885,2,0,L|176:110,1,43.8600002677002,2|0,1:2|1:2,0:0:0:0:
286,0,84057,5,6,1:2:0:0:
168,278,84228,1,0,1:2:0:0:
168,278,84314,1,0,1:2:0:0:
168,278,84400,2,0,L|112:266,1,43.8600002677002,10|0,1:2|1:2,0:0:0:0:
67,104,84571,2,0,L|24:113,1,43.8600002677002,8|8,1:3|1:3,0:0:0:0:
42,332,84742,2,0,L|84:341,1,43.8600002677002,10|8,1:3|1:3,0:0:0:0:
183,153,84914,1,4,1:3:0:0:
221,133,84999,1,6,1:3:0:0:
265,135,85085,1,4,1:3:0:0:
301,158,85171,1,4,1:3:0:0:
322,197,85257,6,0,B|367:212|406:177|406:177|444:211|511:199,1,175.440001070801,6|2,1:2|1:2,0:0:0:0:
160,59,85771,2,0,P|110:86|118:216,1,175.440001070801,12|8,0:2|1:3,0:0:0:0:
350,329,86285,1,10,1:2:0:0:
274,38,86457,1,8,1:2:0:0:
345,308,86628,1,12,1:2:0:0:
169,151,86800,6,0,B|246:133|217:198|307:175,1,134.159999181152,2|0,0:2|0:2,0:0:0:0:
397,117,87485,2,0,P|349:142|342:224,1,134.159999181152,2|2,0:2|0:2,0:0:0:0:
390,275,88085,1,2,0:2:0:0:
390,275,88171,2,0,P|339:270|280:265,1,89.4399994541016,2|0,0:2|0:2,0:0:0:0:
230,315,88685,2,0,P|223:282|219:262,1,44.7199997270508,2|0,0:2|0:2,0:0:0:0:
150,218,89028,2,0,P|145:239|140:261,1,44.7199997270508,2|0,0:2|0:2,0:0:0:0:
80,341,89371,2,0,P|40:296|205:129,1,357.759997816406,2|0,0:2|0:2,0:0:0:0:
357,283,90914,5,4,1:2:0:0:
280,88,91085,1,0,1:2:0:0:
280,88,91171,1,0,1:2:0:0:
280,88,91257,2,0,L|271:139,3,43.8600002677002,8|4|4|4,1:3|1:3|1:3|1:3,0:0:0:0:
259,207,91600,1,0,1:2:0:0:
448,106,91771,5,8,1:2:0:0:
124,212,91942,1,8,1:2:0:0:
474,98,92114,1,14,1:2:0:0:
