osu file format v14

[General]
AudioFilename: audio.mp3
AudioLeadIn: 0
PreviewTime: 52847
Countdown: 0
SampleSet: Drum
StackLeniency: 0.7
Mode: 3
LetterboxInBreaks: 0
SpecialStyle: 0
WidescreenStoryboard: 0

[Editor]
Bookmarks: 8447,19590,25418,30747,53704,64675
DistanceSpacing: 0.7
BeatDivisor: 4
GridSize: 8
TimelineZoom: 1.399999

[Metadata]
Title:Scar/let
TitleUnicode:Scar/let
Artist:ReoNa
ArtistUnicode:ReoNa
Creator:Drum-Hitnormal
Version:Mukatsuku
Source:ソードアート・オンライン アリシゼーション リコリス
Tags:faputa paran dudehacker scarlet SWORD ART ONLINE Alicization Lycoris sao video game size version bandai namco japanese female vocalist jpop j-pop VVCL-1683 VVCL-1684 レオナ4th single SACRA MUSIC op opening short Kei Hayashi ハヤシケイ Kegani Ryohei Arahata 毛蟹 荒幡亮平 ANIMA
BeatmapID:2550329
BeatmapSetID:1226426

[Difficulty]
HPDrainRate:8
CircleSize:4
OverallDifficulty:8
ApproachRate:5
SliderMultiplier:1.4
SliderTickRate:1

[Events]
//Background and Video events
Video,-335,"video.mp4"
0,0,"69686261_p0.jpg",0,0
//Break Periods
//Storyboard Layer 0 (Background)
//Storyboard Layer 1 (Fail)
//Storyboard Layer 2 (Pass)
//Storyboard Layer 3 (Foreground)
//Storyboard Layer 4 (Overlay)
//Storyboard Sound Samples
Sample,50875,0,"Tom2.wav",70
Sample,52161,0,"Tom3.wav",70
Sample,84818,0,"Tom2.wav",70

[TimingPoints]
390,342.857142857143,4,3,1,70,1,0
52847,-100,4,3,1,70,0,1
75647,-100,4,3,1,70,0,0

[HitObjects]
64,192,390,5,0,0:0:0:0:
448,192,390,1,0,0:0:0:0:
192,192,561,1,0,0:0:0:0:
320,192,732,1,0,0:0:0:0:
192,192,904,1,0,0:0:0:0:
64,192,1247,1,0,0:0:0:0:
320,192,1418,1,0,0:0:0:0:
64,192,1590,1,0,0:0:0:0:
192,192,1675,1,0,0:0:0:0:
320,192,1761,1,0,0:0:0:0:
448,192,1761,1,0,0:0:0:0:
64,192,1932,1,0,0:0:0:0:
448,192,2275,1,0,0:0:0:0:
64,192,2275,1,0,0:0:0:0:
192,192,2447,1,0,0:0:0:0:
64,192,2618,1,0,0:0:0:0:
192,192,2790,1,0,0:0:0:0:
448,192,2790,1,0,0:0:0:0:
64,192,2961,1,0,0:0:0:0:
192,192,3132,1,0,0:0:0:0:
320,192,3132,1,0,0:0:0:0:
64,192,3304,1,0,0:0:0:0:
448,192,3475,1,0,0:0:0:0:
64,192,3647,1,0,0:0:0:0:
320,192,3647,1,0,0:0:0:0:
64,192,3990,1,0,0:0:0:0:
192,192,4161,1,0,0:0:0:0:
448,192,4161,1,0,0:0:0:0:
64,192,4332,1,0,0:0:0:0:
192,192,4375,1,0,0:0:0:0:
320,192,4418,1,0,0:0:0:0:
448,192,4461,1,0,0:0:0:0:
64,192,4504,128,0,7247:0:0:0:0:
192,192,4504,1,0,0:0:0:0:
192,192,5190,128,0,6561:0:0:0:0:
448,192,5875,128,0,7247:0:0:0:0:
320,192,6561,128,0,7247:0:0:0:0:
192,192,7247,1,0,0:0:0:0:
64,192,7332,1,0,0:0:0:0:
320,192,7418,1,0,0:0:0:0:
448,192,7504,128,0,7590:0:0:0:0:
320,192,7675,1,0,0:0:0:0:
64,192,7761,1,0,0:0:0:0:
192,192,7847,1,0,0:0:0:0:
320,192,7932,1,8,0:0:0:0:
448,192,7932,1,0,0:0:0:0:
64,192,8018,1,8,0:0:0:0:
192,192,8018,1,0,0:0:0:0:
320,192,8104,1,8,0:0:0:0:
448,192,8104,1,0,0:0:0:0:
64,192,8190,1,8,0:0:0:0:
192,192,8190,1,0,0:0:0:0:
320,192,8275,1,8,0:0:0:0:
448,192,8275,1,0,0:0:0:0:
192,192,8361,1,8,0:0:0:0:
64,192,8447,1,2,0:0:0:0:
320,192,8447,128,0,8961:0:0:0:70:CrashRight.wav
448,192,8447,128,0,8961:0:0:0:0:
192,192,8961,1,2,0:0:0:0:
64,192,8961,128,8,9132:0:0:0:0:
448,192,9132,1,4,0:0:0:0:
64,192,9304,1,2,0:0:0:0:
320,192,9304,128,0,9475:0:0:0:0:
192,192,9390,1,0,0:0:0:0:
448,192,9475,1,4,0:0:0:0:
64,192,9561,1,0,0:0:0:0:
320,192,9647,1,8,0:0:0:0:
448,192,9647,1,2,0:0:0:0:
192,192,9818,128,4,9990:0:0:0:0:
320,192,9990,1,2,0:0:0:0:
448,192,9990,1,0,0:0:0:0:
320,192,10161,128,4,10332:0:0:0:0:
192,192,10332,1,2,0:0:0:0:
64,192,10332,1,8,0:0:0:0:
448,192,10504,128,4,10675:0:0:0:0:
192,192,10675,1,2,0:0:0:0:
320,192,10675,1,0,0:0:0:0:
64,192,10847,128,4,11018:0:0:0:0:
320,192,11018,1,8,0:0:0:0:
448,192,11018,1,2,0:0:0:0:
192,192,11190,1,4,0:0:0:0:
64,192,11361,1,2,0:0:0:0:
448,192,11361,128,0,11532:0:0:0:0:
320,192,11532,1,4,0:0:0:0:
192,192,11704,128,8,11875:0:0:0:0:
448,192,11704,1,2,0:0:0:0:
320,192,11875,1,4,0:0:0:0:
64,192,12047,128,2,12218:0:0:0:0:
448,192,12047,1,0,0:0:0:0:
320,192,12132,1,0,0:0:0:0:
192,192,12218,1,4,0:0:0:0:
448,192,12304,1,0,0:0:0:0:
64,192,12390,1,2,0:0:0:0:
192,192,12390,1,8,0:0:0:0:
320,192,12561,128,4,12732:0:0:0:0:
64,192,12732,1,2,0:0:0:0:
192,192,12732,1,0,0:0:0:0:
320,192,12818,1,0,0:0:0:0:
448,192,12904,128,4,13075:0:0:0:0:
64,192,13075,1,8,0:0:0:0:
192,192,13075,128,2,13247:0:0:0:0:
320,192,13247,128,4,13418:0:0:0:0:
448,192,13418,1,0,0:0:0:0:
64,192,13418,1,2,0:0:0:0:
192,192,13504,1,0,0:0:0:0:
64,192,13590,128,4,13761:0:0:0:0:
320,192,13761,1,8,0:0:0:0:
448,192,13761,1,2,0:0:0:0:
192,192,13932,1,4,0:0:0:0:
64,192,14104,1,2,0:0:0:0:
192,192,14104,128,0,14275:0:0:0:0:
320,192,14190,1,0,0:0:0:0:
448,192,14275,1,4,0:0:0:0:
64,192,14447,1,8,0:0:0:0:
320,192,14447,128,2,14618:0:0:0:0:
192,192,14618,1,4,0:0:0:0:
64,192,14790,1,2,0:0:0:0:
448,192,14790,128,0,14961:0:0:0:0:
192,192,14875,1,0,0:0:0:0:
320,192,14961,1,4,0:0:0:0:
64,192,15047,1,0,0:0:0:0:
320,192,15132,1,8,0:0:0:0:
448,192,15132,1,2,0:0:0:0:
320,192,15304,128,4,15475:0:0:0:0:
64,192,15475,1,2,0:0:0:0:
192,192,15475,1,0,0:0:0:0:
448,192,15647,128,4,15818:0:0:0:0:
192,192,15818,1,8,0:0:0:0:
320,192,15818,1,2,0:0:0:0:
64,192,15990,128,4,16161:0:0:0:0:
192,192,16161,1,2,0:0:0:0:
448,192,16161,1,0,0:0:0:0:
320,192,16247,1,0,0:0:0:0:
192,192,16332,128,4,16504:0:0:0:0:
448,192,16504,1,2,0:0:0:0:
64,192,16504,1,8,0:0:0:0:
320,192,16675,1,4,0:0:0:0:
64,192,16847,128,2,17104:0:0:0:0:
448,192,16847,1,0,0:0:0:0:
448,192,17018,1,0,0:0:0:70:Tom3.wav
320,192,17104,128,0,17361:0:0:0:0:
64,192,17190,1,8,0:0:0:0:
192,192,17190,1,2,0:0:0:0:
192,192,17361,1,8,0:0:0:0:
448,192,17361,128,0,17532:0:0:0:0:
64,192,17532,128,8,17790:0:0:0:0:
320,192,17532,1,2,0:0:0:0:
192,192,17618,1,8,0:0:0:0:
320,192,17704,1,0,0:0:0:70:Tom1.wav
448,192,17790,128,0,18047:0:0:0:70:Tom1.wav
192,192,17875,1,8,0:0:0:0:
320,192,17961,1,8,0:0:0:0:
64,192,18047,128,2,18218:0:0:0:0:
192,192,18047,128,4,18218:0:0:0:0:
320,192,18561,1,4,0:0:0:20:
192,192,18732,1,4,0:0:0:20:
448,192,18818,1,4,0:0:0:20:
192,192,18904,1,4,0:0:0:20:
320,192,19161,1,4,0:0:0:20:
64,192,19247,128,4,19418:0:0:0:20:
192,192,19418,128,2,19761:0:0:0:0:
448,192,19418,128,4,19761:0:0:0:0:
64,192,19932,1,0,0:0:0:0:
320,192,20104,1,0,0:0:0:0:
448,192,20104,1,0,0:0:0:0:
192,192,20275,1,0,0:0:0:0:
64,192,20275,1,0,0:0:0:0:
320,192,20447,1,0,0:0:0:0:
64,192,20618,1,0,0:0:0:0:
192,192,20618,1,0,0:0:0:0:
320,192,20790,1,0,0:0:0:0:
448,192,20790,1,0,0:0:0:0:
192,192,21132,1,0,0:0:0:0:
320,192,21132,1,0,0:0:0:0:
448,192,21304,1,0,0:0:0:0:
64,192,21475,1,0,0:0:0:0:
192,192,21475,1,0,0:0:0:0:
320,192,21647,1,0,0:0:0:0:
64,192,21818,1,0,0:0:0:0:
448,192,21818,1,0,0:0:0:0:
192,192,21990,1,0,0:0:0:0:
320,192,22161,1,0,0:0:0:0:
448,192,22161,1,0,0:0:0:0:
192,192,22504,1,0,0:0:0:0:
320,192,22675,1,0,0:0:0:0:
64,192,22847,1,0,0:0:0:0:
448,192,23018,1,0,0:0:0:0:
192,192,23190,1,0,0:0:0:0:
320,192,23361,1,0,0:0:0:0:
64,192,23532,1,0,0:0:0:0:
192,192,23532,1,0,0:0:0:0:
320,192,23704,1,0,0:0:0:0:
448,192,23704,1,0,0:0:0:0:
192,192,23875,1,0,0:0:0:0:
320,192,24047,1,0,0:0:0:0:
64,192,24047,1,0,0:0:0:0:
192,192,24218,1,0,0:0:0:0:
448,192,24218,1,0,0:0:0:0:
64,192,24304,1,0,0:0:0:0:
448,192,24390,1,0,0:0:0:0:
64,192,24561,1,0,0:0:0:0:
320,192,24561,1,0,0:0:0:0:
192,192,24732,1,0,0:0:0:0:
64,192,24904,1,2,0:0:0:0:
320,192,24904,1,4,0:0:0:0:
448,192,24904,1,0,0:0:0:0:
320,192,25247,1,4,0:0:0:20:
192,192,25418,1,4,0:0:0:0:
64,192,25418,1,2,0:0:0:0:
448,192,25590,1,4,0:0:0:20:
320,192,25675,1,0,0:0:0:0:
64,192,25761,1,2,0:0:0:0:
192,192,25761,1,4,0:0:0:0:
448,192,25932,1,4,0:0:0:20:
64,192,26104,1,2,0:0:0:0:
192,192,26104,1,4,0:0:0:0:
448,192,26275,1,4,0:0:0:20:
320,192,26361,1,4,0:0:0:20:
64,192,26447,1,2,0:0:0:0:
192,192,26447,1,4,0:0:0:0:
192,192,26618,1,4,0:0:0:20:
320,192,26790,1,2,0:0:0:0:
448,192,26790,1,4,0:0:0:0:
64,192,26961,1,4,0:0:0:20:
192,192,27047,1,4,0:0:0:20:
448,192,27132,1,4,0:0:0:0:
320,192,27132,1,2,0:0:0:0:
64,192,27304,1,4,0:0:0:20:
192,192,27390,1,4,0:0:0:20:
320,192,27475,1,2,0:0:0:0:
448,192,27475,1,4,0:0:0:0:
64,192,27647,1,4,0:0:0:20:
192,192,27732,1,4,0:0:0:20:
320,192,27818,1,4,0:0:0:0:
448,192,27818,1,2,0:0:0:0:
448,192,27990,1,4,0:0:0:20:
320,192,28075,1,4,0:0:0:20:
64,192,28161,1,2,0:0:0:0:
192,192,28161,1,4,0:0:0:0:
448,192,28332,1,4,0:0:0:20:
320,192,28418,1,4,0:0:0:20:
192,192,28504,1,2,0:0:0:0:
64,192,28504,1,4,0:0:0:0:
64,192,28675,1,4,0:0:0:20:
320,192,28847,1,2,0:0:0:0:
448,192,28847,1,4,0:0:0:0:
448,192,29018,1,4,0:0:0:20:
64,192,29190,1,2,0:0:0:0:
192,192,29190,1,4,0:0:0:0:
64,192,29361,1,0,0:0:0:0:
192,192,29447,1,0,0:0:0:0:
320,192,29532,1,2,0:0:0:0:
448,192,29532,1,4,0:0:0:0:
320,192,29704,1,4,0:0:0:0:
448,192,29875,1,2,0:0:0:0:
64,192,29875,1,8,0:0:0:0:
192,192,30047,1,8,0:0:0:0:
320,192,30132,1,8,0:0:0:0:
64,192,30218,1,8,0:0:0:0:
192,192,30218,1,0,0:0:0:0:
64,192,30390,1,2,0:0:0:0:
320,192,30390,1,0,0:0:0:70:CrashRight.wav
448,192,30390,1,0,0:0:0:0:
64,192,30732,1,2,0:0:0:0:
192,192,30732,1,0,0:0:0:0:
64,192,30904,1,8,0:0:0:0:
320,192,30904,1,0,0:0:0:0:
448,192,30904,1,0,0:0:0:0:
192,192,31075,1,0,0:0:0:0:
448,192,31247,1,0,0:0:0:0:
320,192,31418,1,0,0:0:0:0:
64,192,31418,1,2,0:0:0:0:
64,192,31590,1,0,0:0:0:0:
192,192,31761,1,8,0:0:0:0:
320,192,31761,1,0,0:0:0:0:
448,192,31761,1,0,0:0:0:0:
64,192,32104,1,2,0:0:0:0:
448,192,32104,1,0,0:0:0:0:
64,192,32275,1,8,0:0:0:0:
192,192,32275,1,0,0:0:0:0:
320,192,32275,1,0,0:0:0:0:
192,192,32447,1,0,0:0:0:0:
64,192,32532,1,0,0:0:0:0:
448,192,32618,1,0,0:0:0:0:
320,192,32618,1,2,0:0:0:0:
448,192,32790,1,0,0:0:0:0:
320,192,32790,1,2,0:0:0:0:
64,192,32961,1,8,0:0:0:0:
192,192,32961,1,0,0:0:0:0:
448,192,32961,1,0,0:0:0:0:
64,192,33132,1,4,0:0:0:0:
192,192,33132,1,2,0:0:0:0:
320,192,33132,1,0,0:0:0:0:
192,192,33475,1,2,0:0:0:0:
320,192,33475,1,0,0:0:0:0:
64,192,33647,1,8,0:0:0:0:
320,192,33647,1,0,0:0:0:0:
448,192,33647,1,0,0:0:0:0:
192,192,33818,1,0,0:0:0:0:
320,192,33904,1,0,0:0:0:0:
448,192,33990,1,0,0:0:0:0:
192,192,34161,1,0,0:0:0:0:
64,192,34161,1,2,0:0:0:0:
192,192,34504,1,8,0:0:0:0:
320,192,34504,1,0,0:0:0:0:
448,192,34504,1,0,0:0:0:0:
448,192,34675,1,0,0:0:0:0:
64,192,34847,1,2,0:0:0:0:
192,192,34847,1,0,0:0:0:0:
64,192,35018,1,8,0:0:0:0:
320,192,35018,1,0,0:0:0:0:
448,192,35018,1,0,0:0:0:0:
320,192,35190,1,0,0:0:0:0:
64,192,35361,1,2,0:0:0:0:
448,192,35361,1,0,0:0:0:0:
320,192,35404,1,0,0:0:0:0:
192,192,35447,1,0,0:0:0:0:
64,192,35490,1,0,0:0:0:0:
320,192,35532,1,2,0:0:0:0:
448,192,35532,1,0,0:0:0:0:
192,192,35618,1,0,0:0:0:0:
64,192,35704,1,8,0:0:0:0:
448,192,35704,1,0,0:0:0:0:
320,192,35790,1,0,0:0:0:0:
64,192,35875,1,2,0:0:0:0:
448,192,35875,1,4,0:0:0:0:
192,192,35961,1,0,0:0:0:0:
320,192,36047,1,0,0:0:0:0:
64,192,36218,1,2,0:0:0:0:
192,192,36218,1,0,0:0:0:0:
448,192,36390,1,0,0:0:0:0:
320,192,36390,1,0,0:0:0:0:
64,192,36390,1,8,0:0:0:0:
192,192,36561,1,0,0:0:0:0:
448,192,36732,1,0,0:0:0:0:
64,192,36904,1,2,0:0:0:0:
192,192,36904,1,0,0:0:0:0:
320,192,37075,1,0,0:0:0:0:
64,192,37247,1,8,0:0:0:0:
320,192,37247,1,0,0:0:0:0:
448,192,37247,1,0,0:0:0:0:
192,192,37590,1,2,0:0:0:0:
320,192,37590,1,0,0:0:0:0:
64,192,37761,1,8,0:0:0:0:
320,192,37761,1,0,0:0:0:0:
448,192,37761,1,0,0:0:0:0:
448,192,37932,1,0,0:0:0:0:
64,192,38104,1,2,0:0:0:0:
192,192,38104,1,0,0:0:0:0:
64,192,38275,1,2,0:0:0:0:
192,192,38275,1,4,0:0:0:0:
64,192,38447,1,8,0:0:0:0:
320,192,38447,1,0,0:0:0:0:
448,192,38447,1,0,0:0:0:0:
192,192,38618,1,2,0:0:0:0:
320,192,38618,1,0,0:0:0:70:CrashRight.wav
448,192,38618,1,0,0:0:0:0:
64,192,38961,1,2,0:0:0:0:
192,192,38961,1,0,0:0:0:0:
64,192,39132,1,8,0:0:0:0:
320,192,39132,1,4,0:0:0:0:
448,192,39132,1,0,0:0:0:0:
192,192,39304,1,0,0:0:0:0:
448,192,39475,1,0,0:0:0:0:
64,192,39475,1,8,0:0:0:0:
320,192,39475,1,4,0:0:0:0:
64,192,39647,1,2,0:0:0:0:
192,192,39647,1,0,0:0:0:0:
320,192,39732,1,2,0:0:0:0:
448,192,39732,1,0,0:0:0:0:
64,192,39818,1,4,0:0:0:0:
192,192,39818,1,0,0:0:0:0:
64,192,39990,1,8,0:0:0:0:
192,192,39990,1,0,0:0:0:0:
320,192,39990,1,0,0:0:0:0:
448,192,40161,1,4,0:0:0:0:
192,192,40332,1,2,0:0:0:0:
448,192,40332,1,0,0:0:0:0:
320,192,40504,1,0,0:0:0:0:
192,192,40504,1,0,0:0:0:70:CrashRight.wav
64,192,40504,1,8,0:0:0:0:
64,192,40675,1,0,0:0:0:0:
192,192,40761,1,8,0:0:0:0:
320,192,40847,1,2,0:0:0:0:
448,192,40847,1,0,0:0:0:0:
64,192,41018,1,0,0:0:0:70:Tom1.wav
192,192,41018,1,0,0:0:0:0:
320,192,41104,1,0,0:0:0:70:Tom2.wav
448,192,41104,1,0,0:0:0:0:
64,192,41190,1,0,0:0:0:70:Tom3.wav
192,192,41190,1,0,0:0:0:0:
192,192,41361,1,2,0:0:0:0:
320,192,41361,1,0,0:0:0:70:CrashRight.wav
448,192,41361,1,0,0:0:0:0:
448,192,41704,1,0,0:0:0:0:
64,192,41704,1,8,0:0:0:0:
192,192,41704,1,0,0:0:0:0:
192,192,42047,1,2,0:0:0:0:
320,192,42047,1,0,0:0:0:0:
64,192,42218,1,8,0:0:0:0:
320,192,42218,1,0,0:0:0:0:
448,192,42218,1,0,0:0:0:0:
448,192,42561,128,0,42904:0:0:0:0:
64,192,42904,1,2,0:0:0:0:
192,192,42904,1,0,0:0:0:0:
64,192,43075,1,8,0:0:0:0:
320,192,43075,1,0,0:0:0:0:
448,192,43075,1,0,0:0:0:0:
448,192,43247,1,0,0:0:0:0:
320,192,43418,1,0,0:0:0:0:
192,192,43418,1,2,0:0:0:0:
64,192,43590,1,8,0:0:0:0:
192,192,43590,1,0,0:0:0:0:
448,192,43590,1,0,0:0:0:0:
64,192,43761,1,2,0:0:0:0:
320,192,43761,1,0,0:0:0:0:
448,192,43932,1,0,0:0:0:0:
192,192,44104,1,2,0:0:0:0:
320,192,44104,1,0,0:0:0:0:
64,192,44275,1,2,0:0:0:0:
192,192,44275,1,0,0:0:0:70:CrashRight.wav
448,192,44275,1,0,0:0:0:0:
64,192,44618,1,0,0:0:0:0:
448,192,44790,1,0,0:0:0:0:
320,192,44790,1,2,0:0:0:0:
64,192,44961,1,8,0:0:0:0:
192,192,44961,1,0,0:0:0:0:
448,192,44961,1,0,0:0:0:0:
320,192,45304,128,4,45647:0:0:0:0:
64,192,45647,1,8,0:0:0:0:
192,192,45647,1,0,0:0:0:70:Tom3.wav
448,192,45647,1,0,0:0:0:0:
320,192,45818,1,0,0:0:0:0:
192,192,45904,1,0,0:0:0:70:Tom1.wav
320,192,45990,1,0,0:0:0:70:Tom2.wav
448,192,45990,1,0,0:0:0:0:
320,192,46161,1,0,0:0:0:70:Tom3.wav
448,192,46161,1,0,0:0:0:0:
64,192,46161,1,8,0:0:0:0:
192,192,46332,1,0,0:0:0:0:
320,192,46418,1,0,0:0:0:70:Tom1.wav
64,192,46504,1,0,0:0:0:70:Tom2.wav
192,192,46504,1,0,0:0:0:0:
64,192,46675,1,8,0:0:0:0:
320,192,46675,1,0,0:0:0:70:Tom3.wav
448,192,46675,1,0,0:0:0:0:
192,192,46847,1,2,0:0:0:0:
320,192,46847,1,0,0:0:0:70:CrashRight.wav
448,192,46847,1,0,0:0:0:0:
192,192,47190,1,0,0:0:0:0:
448,192,47361,1,0,0:0:0:0:
320,192,47361,1,2,0:0:0:0:
448,192,47532,1,0,0:0:0:0:
64,192,47532,1,8,0:0:0:0:
192,192,47704,1,2,0:0:0:0:
448,192,47704,1,0,0:0:0:0:
64,192,47875,1,8,0:0:0:0:
192,192,47875,1,0,0:0:0:0:
192,192,48047,1,2,0:0:0:0:
320,192,48047,1,0,0:0:0:0:
64,192,48218,1,8,0:0:0:0:
320,192,48218,1,0,0:0:0:0:
320,192,48390,1,2,0:0:0:0:
448,192,48390,1,0,0:0:0:0:
64,192,48561,1,8,0:0:0:0:
192,192,48561,1,0,0:0:0:0:
320,192,48732,1,0,0:0:0:0:
64,192,48732,1,2,0:0:0:0:
320,192,48904,1,8,0:0:0:0:
448,192,48904,1,0,0:0:0:0:
192,192,49075,1,2,0:0:0:0:
320,192,49075,1,0,0:0:0:0:
192,192,49247,1,8,0:0:0:0:
448,192,49247,1,0,0:0:0:0:
64,192,49418,1,2,0:0:0:0:
192,192,49418,1,0,0:0:0:0:
64,192,49590,1,8,0:0:0:0:
320,192,49590,1,0,0:0:0:70:CrashRight.wav
448,192,49590,1,0,0:0:0:0:
192,192,49761,1,0,0:0:0:70:CrashRight.wav
320,192,49761,1,0,0:0:0:0:
64,192,49761,1,2,0:0:0:0:
320,192,49932,1,0,0:0:0:70:Tom2.wav
448,192,49932,1,0,0:0:0:0:
192,192,49932,1,8,0:0:0:0:
448,192,50104,1,0,0:0:0:0:
192,192,50104,1,2,0:0:0:0:
64,192,50104,1,8,0:0:0:0:
64,192,50275,1,8,0:0:0:0:
320,192,50275,1,0,0:0:0:70:Tom2.wav
448,192,50275,1,0,0:0:0:0:
64,192,50447,1,8,0:0:0:0:
192,192,50447,1,2,0:0:0:0:
320,192,50447,1,0,0:0:0:0:
320,192,50618,1,0,0:0:0:70:Tom1.wav
448,192,50618,1,0,0:0:0:0:
192,192,50704,1,0,0:0:0:70:Tom1.wav
64,192,50790,1,8,0:0:0:0:
448,192,50790,1,0,0:0:0:70:Tom2.wav
320,192,50875,1,8,0:0:0:0:
448,192,50961,1,0,0:0:0:0:
192,192,50961,1,0,0:0:0:70:CrashRight.wav
64,192,50961,1,2,0:0:0:0:
320,192,51304,1,2,0:0:0:0:
448,192,51304,1,0,0:0:0:0:
64,192,51475,1,8,0:0:0:0:
192,192,51475,1,4,0:0:0:0:
448,192,51475,1,0,0:0:0:0:
64,192,51818,1,2,0:0:0:0:
320,192,51818,1,0,0:0:0:70:Tom2.wav
448,192,51818,1,0,0:0:0:0:
192,192,51904,1,8,0:0:0:0:
448,192,51990,1,0,0:0:0:70:Tom1.wav
320,192,52032,1,0,0:0:0:0:
192,192,52075,1,0,0:0:0:70:Tom1.wav
64,192,52118,1,0,0:0:0:0:
448,192,52161,1,2,0:0:0:0:
320,192,52204,1,0,0:0:0:0:
192,192,52247,1,0,0:0:0:70:Tom2.wav
64,192,52290,1,0,0:0:0:0:
448,192,52332,1,0,0:0:0:70:Tom3.wav
320,192,52375,1,0,0:0:0:0:
192,192,52418,1,2,0:0:0:0:
64,192,52461,1,0,0:0:0:0:
320,192,52504,1,8,0:0:0:0:
448,192,52504,1,4,0:0:0:0:
64,192,52847,128,0,53018:0:0:0:0:
192,192,53018,128,0,53190:0:0:0:0:
448,192,53190,128,0,53361:0:0:0:0:
64,192,53361,128,0,53532:0:0:0:0:
320,192,53532,128,0,53704:0:0:0:0:
448,192,53704,1,0,0:0:0:0:
64,192,53704,1,2,0:0:0:0:
192,192,53704,128,0,54218:0:0:0:70:CrashRight.wav
64,192,54218,1,2,0:0:0:0:
320,192,54218,1,8,0:0:0:0:
448,192,54218,1,0,0:0:0:0:
448,192,54390,1,4,0:0:0:0:
64,192,54561,1,2,0:0:0:0:
192,192,54561,1,0,0:0:0:0:
320,192,54647,1,0,0:0:0:0:
448,192,54732,1,4,0:0:0:0:
64,192,54904,128,8,55247:0:0:0:0:
320,192,54904,1,2,0:0:0:0:
448,192,54904,1,0,0:0:0:0:
192,192,55075,1,4,0:0:0:0:
448,192,55247,128,0,55590:0:0:0:0:
320,192,55247,1,2,0:0:0:0:
192,192,55332,1,0,0:0:0:0:
64,192,55418,1,4,0:0:0:0:
64,192,55590,1,8,0:0:0:0:
192,192,55590,1,2,0:0:0:0:
320,192,55590,128,0,55932:0:0:0:0:
448,192,55761,1,4,0:0:0:0:
64,192,55932,128,2,56275:0:0:0:0:
192,192,55932,1,0,0:0:0:0:
320,192,56018,1,0,0:0:0:0:
448,192,56104,1,4,0:0:0:0:
192,192,56275,128,8,56447:0:0:0:0:
320,192,56275,1,2,0:0:0:0:
448,192,56275,1,0,0:0:0:0:
448,192,56447,128,4,56790:0:0:0:0:
320,192,56618,1,0,0:0:0:0:
64,192,56618,1,2,0:0:0:0:
192,192,56704,1,0,0:0:0:0:
320,192,56790,128,4,56961:0:0:0:0:
64,192,56961,128,8,57647:0:0:0:0:
192,192,56961,1,2,0:0:0:0:
448,192,56961,1,0,0:0:0:0:
192,192,57132,1,4,0:0:0:0:
448,192,57304,1,2,0:0:0:0:
320,192,57390,1,0,0:0:0:0:
192,192,57475,1,4,0:0:0:0:
192,192,57647,1,8,0:0:0:0:
320,192,57647,1,2,0:0:0:0:
448,192,57647,128,0,57990:0:0:0:0:
64,192,57818,1,4,0:0:0:0:
320,192,57990,1,0,0:0:0:0:
192,192,57990,1,2,0:0:0:0:
64,192,58161,1,4,0:0:0:0:
64,192,58332,1,8,0:0:0:0:
320,192,58332,128,2,58675:0:0:0:0:
448,192,58332,1,0,0:0:0:0:
192,192,58504,1,4,0:0:0:0:
64,192,58675,128,2,59190:0:0:0:0:
448,192,58675,1,0,0:0:0:0:
320,192,58761,1,0,0:0:0:0:
192,192,58847,1,4,0:0:0:0:
192,192,59018,1,2,0:0:0:0:
448,192,59018,1,8,0:0:0:0:
320,192,59190,1,4,0:0:0:0:
448,192,59190,128,0,59532:0:0:0:0:
192,192,59361,1,0,0:0:0:0:
64,192,59361,1,2,0:0:0:0:
320,192,59532,1,4,0:0:0:0:
64,192,59704,1,8,0:0:0:0:
192,192,59704,1,2,0:0:0:0:
448,192,59704,1,0,0:0:0:0:
192,192,59875,1,4,0:0:0:0:
64,192,60047,1,2,0:0:0:0:
448,192,60047,1,0,0:0:0:0:
320,192,60132,1,0,0:0:0:0:
192,192,60218,1,4,0:0:0:0:
64,192,60390,1,8,0:0:0:0:
320,192,60390,1,2,0:0:0:0:
448,192,60390,128,0,60732:0:0:0:0:
192,192,60561,1,4,0:0:0:0:
192,192,60732,1,0,0:0:0:0:
64,192,60732,128,2,61075:0:0:0:0:
320,192,60818,1,0,0:0:0:0:
448,192,60904,1,4,0:0:0:0:
192,192,61075,1,8,0:0:0:0:
320,192,61075,128,2,61418:0:0:0:0:
448,192,61075,1,0,0:0:0:0:
64,192,61247,1,4,0:0:0:0:
64,192,61418,1,2,0:0:0:0:
192,192,61418,128,0,61761:0:0:0:0:
320,192,61504,1,0,0:0:0:0:
448,192,61590,1,4,0:0:0:0:
64,192,61761,1,8,0:0:0:0:
320,192,61761,1,2,0:0:0:0:
448,192,61761,128,0,61932:0:0:0:0:
64,192,61932,128,4,62275:0:0:0:0:
448,192,62104,1,0,0:0:0:0:
320,192,62104,1,2,0:0:0:0:
192,192,62190,1,0,0:0:0:0:
320,192,62275,128,4,62447:0:0:0:0:
64,192,62447,1,8,0:0:0:0:
192,192,62447,128,2,62790:0:0:0:0:
448,192,62447,1,0,0:0:0:0:
320,192,62618,1,4,0:0:0:0:
64,192,62790,1,2,0:0:0:0:
448,192,62790,1,0,0:0:0:0:
192,192,62961,1,0,0:0:0:70:Tom1.wav
320,192,62961,1,0,0:0:0:0:
64,192,63132,1,8,0:0:0:0:
448,192,63132,1,0,0:0:0:0:
320,192,63132,1,0,0:0:0:0:
448,192,63304,1,0,0:0:0:0:
64,192,63304,128,2,63475:0:0:0:0:
192,192,63304,128,4,63475:0:0:0:0:
64,192,63647,1,2,0:0:0:0:
192,192,63647,1,0,0:0:0:0:
320,192,63732,1,0,0:0:0:0:
64,192,63818,1,8,0:0:0:0:
192,192,63818,1,0,0:0:0:0:
448,192,63818,1,0,0:0:0:0:
320,192,63904,1,0,0:0:0:0:
64,192,63990,1,8,0:0:0:0:
448,192,63990,1,0,0:0:0:0:
320,192,64075,1,0,0:0:0:0:
192,192,64075,1,8,0:0:0:0:
448,192,64161,1,0,0:0:0:0:
64,192,64161,1,2,0:0:0:0:
320,192,64247,1,8,0:0:0:0:
64,192,64332,1,0,0:0:0:70:Tom1.wav
192,192,64332,1,0,0:0:0:0:
320,192,64418,1,0,0:0:0:70:Tom1.wav
448,192,64418,1,0,0:0:0:0:
64,192,64504,1,0,0:0:0:70:Tom3.wav
192,192,64504,1,0,0:0:0:0:
320,192,64590,1,0,0:0:0:70:Tom3.wav
192,192,64675,128,0,65190:0:0:0:70:CrashRight.wav
448,192,64675,1,0,0:0:0:0:
64,192,64675,1,2,0:0:0:0:
320,192,65018,1,0,0:0:0:0:
320,192,65190,128,2,65532:0:0:0:0:
64,192,65190,1,8,0:0:0:0:
448,192,65190,1,0,0:0:0:0:
448,192,65361,1,4,0:0:0:0:
64,192,65532,1,2,0:0:0:0:
192,192,65532,1,0,0:0:0:0:
320,192,65618,1,0,0:0:0:0:
448,192,65704,1,4,0:0:0:0:
64,192,65875,128,2,66218:0:0:0:0:
192,192,65875,1,8,0:0:0:0:
448,192,65875,1,0,0:0:0:0:
320,192,66047,128,4,66218:0:0:0:0:
192,192,66218,1,2,0:0:0:0:
448,192,66218,128,0,66561:0:0:0:0:
320,192,66390,1,4,0:0:0:0:
192,192,66561,1,2,0:0:0:0:
320,192,66561,128,0,66904:0:0:0:0:
64,192,66561,1,8,0:0:0:0:
192,192,66732,1,4,0:0:0:0:
64,192,66904,128,2,67247:0:0:0:0:
448,192,66904,1,0,0:0:0:0:
192,192,66990,1,0,0:0:0:0:
320,192,67075,1,4,0:0:0:0:
192,192,67247,128,8,67418:0:0:0:0:
320,192,67247,1,2,0:0:0:0:
448,192,67247,1,0,0:0:0:0:
448,192,67418,128,4,67761:0:0:0:0:
64,192,67590,1,2,0:0:0:0:
320,192,67590,1,0,0:0:0:0:
192,192,67675,1,0,0:0:0:0:
320,192,67761,128,4,67932:0:0:0:0:
448,192,67932,1,0,0:0:0:0:
192,192,67932,1,8,0:0:0:0:
64,192,67932,128,2,68275:0:0:0:0:
320,192,68104,1,4,0:0:0:0:
192,192,68190,1,0,0:0:0:0:
320,192,68275,1,2,0:0:0:0:
448,192,68275,1,0,0:0:0:0:
192,192,68447,1,4,0:0:0:0:
64,192,68618,1,8,0:0:0:0:
320,192,68618,1,2,0:0:0:0:
448,192,68618,128,0,68961:0:0:0:0:
64,192,68790,1,4,0:0:0:0:
192,192,68961,1,2,0:0:0:0:
320,192,68961,1,0,0:0:0:0:
64,192,69132,1,0,0:0:0:70:Tom1.wav
192,192,69132,1,0,0:0:0:0:
448,192,69304,1,0,0:0:0:0:
64,192,69304,1,8,0:0:0:0:
320,192,69304,1,0,0:0:0:70:CrashRight.wav
448,192,69475,1,8,0:0:0:0:
320,192,69561,1,8,0:0:0:0:
64,192,69647,1,2,0:0:0:0:
192,192,69647,1,0,0:0:0:0:
320,192,69732,1,8,0:0:0:0:
448,192,69732,1,0,0:0:0:0:
64,192,69818,1,0,0:0:0:70:Tom2.wav
192,192,69818,1,0,0:0:0:0:
320,192,69904,1,0,0:0:0:70:Tom2.wav
448,192,69904,1,0,0:0:0:0:
64,192,69990,1,2,0:0:0:0:
192,192,69990,1,0,0:0:0:70:Tom3.wav
448,192,70075,1,0,0:0:0:0:
320,192,70075,1,0,0:0:0:70:Tom3.wav
192,192,70161,1,0,0:0:0:0:
64,192,70161,1,0,0:0:0:70:Tom3.wav
320,192,70247,1,0,0:0:0:70:Tom3.wav
64,192,70332,1,2,0:0:0:0:
192,192,70332,1,0,0:0:0:70:CrashRight.wav
448,192,70332,1,0,0:0:0:0:
192,192,70675,1,8,0:0:0:0:
448,192,70675,128,2,70847:0:0:0:0:
64,192,70847,128,0,71018:0:0:0:0:
192,192,71018,1,2,0:0:0:0:
320,192,71018,128,0,71190:0:0:0:0:
64,192,71275,1,0,0:0:0:0:
192,192,71275,1,0,0:0:0:0:
320,192,71361,1,8,0:0:0:0:
448,192,71361,1,2,0:0:0:0:
192,192,71532,128,0,71704:0:0:0:0:
448,192,71704,1,0,0:0:0:0:
320,192,71704,1,2,0:0:0:0:
64,192,71875,128,0,72047:0:0:0:0:
320,192,72047,1,8,0:0:0:0:
448,192,72047,128,2,72218:0:0:0:0:
192,192,72218,128,0,72390:0:0:0:0:
64,192,72390,1,2,0:0:0:0:
448,192,72390,1,0,0:0:0:0:
64,192,72561,1,0,0:0:0:70:Tom2.wav
320,192,72561,128,0,72732:0:0:0:0:
192,192,72732,1,8,0:0:0:0:
448,192,72732,1,0,0:0:0:0:
64,192,72904,1,2,0:0:0:0:
320,192,72904,1,0,0:0:0:70:CrashRight.wav
448,192,72904,1,0,0:0:0:0:
448,192,73247,1,0,0:0:0:0:
64,192,73247,1,8,0:0:0:0:
320,192,73247,1,0,0:0:0:70:Tom2.wav
64,192,73418,1,2,0:0:0:0:
320,192,73418,1,0,0:0:0:0:
448,192,73418,1,0,0:0:0:0:
64,192,73590,1,8,0:0:0:0:
192,192,73590,1,0,0:0:0:70:Tom2.wav
448,192,73590,1,0,0:0:0:0:
64,192,73761,1,2,0:0:0:0:
192,192,73761,1,0,0:0:0:0:
448,192,73761,1,0,0:0:0:0:
320,192,73932,1,0,0:0:0:0:
448,192,73932,1,0,0:0:0:0:
64,192,73990,1,8,0:0:0:0:
192,192,73990,1,0,0:0:0:0:
448,192,74104,1,0,0:0:0:0:
320,192,74104,1,2,0:0:0:0:
64,192,74190,1,0,0:0:0:70:Tom1.wav
192,192,74190,1,0,0:0:0:0:
320,192,74275,1,0,0:0:0:70:Tom2.wav
448,192,74275,1,0,0:0:0:0:
192,192,74361,1,2,0:0:0:0:
64,192,74447,1,8,0:0:0:0:
320,192,74447,1,0,0:0:0:70:CrashRight.wav
448,192,74447,128,0,75132:0:0:0:0:
64,192,75132,1,2,0:0:0:0:
192,192,75132,1,0,0:0:0:70:Tom2.wav
448,192,75218,1,0,0:0:0:70:Tom2.wav
320,192,75218,1,8,0:0:0:0:
192,192,75304,1,0,0:0:0:0:
64,192,75304,1,8,0:0:0:0:
320,192,75390,1,8,0:0:0:0:
448,192,75390,1,0,0:0:0:0:
64,192,75475,1,8,0:0:0:0:
192,192,75475,1,0,0:0:0:0:
320,192,75561,1,8,0:0:0:0:
64,192,75647,128,2,76161:0:0:0:0:
192,192,75647,128,0,76161:0:0:0:70:CrashRight.wav
448,192,75647,1,0,0:0:0:0:
320,192,76161,128,8,76332:0:0:0:0:
448,192,76161,1,2,0:0:0:0:
64,192,76332,1,4,0:0:0:0:
192,192,76504,1,2,0:0:0:0:
448,192,76504,128,0,76675:0:0:0:0:
320,192,76675,1,4,0:0:0:0:
192,192,76761,1,0,0:0:0:0:
320,192,76847,1,8,0:0:0:0:
448,192,76847,1,2,0:0:0:0:
64,192,77018,128,4,77190:0:0:0:0:
320,192,77190,1,2,0:0:0:0:
448,192,77190,1,0,0:0:0:0:
192,192,77361,128,4,77532:0:0:0:0:
64,192,77532,1,8,0:0:0:0:
448,192,77532,1,2,0:0:0:0:
448,192,77704,128,4,77875:0:0:0:0:
192,192,77875,1,2,0:0:0:0:
320,192,77875,1,0,0:0:0:0:
64,192,78047,128,4,78218:0:0:0:0:
320,192,78218,1,8,0:0:0:0:
448,192,78218,1,2,0:0:0:0:
192,192,78390,128,4,78561:0:0:0:0:
64,192,78561,1,2,0:0:0:0:
448,192,78561,128,0,78732:0:0:0:0:
320,192,78732,1,4,0:0:0:0:
192,192,78904,128,8,79075:0:0:0:0:
448,192,78904,1,2,0:0:0:0:
320,192,79075,1,4,0:0:0:0:
64,192,79247,128,2,79418:0:0:0:0:
448,192,79247,1,0,0:0:0:0:
192,192,79418,1,4,0:0:0:0:
320,192,79504,1,0,0:0:0:0:
64,192,79590,1,2,0:0:0:0:
192,192,79590,1,8,0:0:0:0:
320,192,79761,128,4,79932:0:0:0:0:
192,192,79932,1,0,0:0:0:0:
64,192,79932,1,2,0:0:0:0:
448,192,80104,128,4,80275:0:0:0:0:
64,192,80275,1,8,0:0:0:0:
320,192,80275,128,2,80447:0:0:0:0:
192,192,80447,128,4,80618:0:0:0:0:
64,192,80618,1,2,0:0:0:0:
320,192,80618,1,0,0:0:0:0:
320,192,80790,1,4,0:0:0:0:
192,192,80875,1,0,0:0:0:0:
64,192,80961,1,8,0:0:0:0:
320,192,80961,1,2,0:0:0:0:
192,192,81047,1,0,0:0:0:0:
320,192,81132,1,4,0:0:0:0:
192,192,81218,1,0,0:0:0:0:
448,192,81304,1,0,0:0:0:0:
320,192,81304,1,0,0:0:0:70:CrashRight.wav
64,192,81304,1,2,0:0:0:0:
64,192,81475,1,8,0:0:0:0:
448,192,81475,1,0,0:0:0:0:
192,192,81561,1,8,0:0:0:0:
320,192,81561,1,0,0:0:0:0:
448,192,81647,1,2,0:0:0:0:
64,192,81732,1,8,0:0:0:0:
192,192,81732,1,0,0:0:0:0:
320,192,81818,1,0,0:0:0:70:Tom1.wav
448,192,81818,1,0,0:0:0:0:
192,192,81904,1,0,0:0:0:70:Tom1.wav
64,192,81990,1,2,0:0:0:0:
448,192,81990,1,0,0:0:0:70:Tom2.wav
320,192,82075,1,0,0:0:0:70:Tom2.wav
192,192,82161,1,0,0:0:0:0:
64,192,82161,1,0,0:0:0:70:Tom3.wav
320,192,82247,1,0,0:0:0:70:Tom3.wav
64,192,82332,1,2,0:0:0:0:
448,192,82332,1,0,0:0:0:0:
192,192,82504,1,8,0:0:0:0:
320,192,82504,1,0,0:0:0:70:CrashRight.wav
448,192,82504,1,0,0:0:0:0:
64,192,82675,1,2,0:0:0:0:
320,192,82675,1,0,0:0:0:0:
64,192,82847,1,0,0:0:0:70:Tom1.wav
192,192,82847,1,0,0:0:0:0:
192,192,83018,1,2,0:0:0:0:
320,192,83018,1,4,0:0:0:0:
448,192,83018,1,8,0:0:0:0:
320,192,83190,1,0,0:0:0:0:
192,192,83361,1,0,0:0:0:0:
64,192,83361,1,2,0:0:0:0:
320,192,83532,1,8,0:0:0:0:
448,192,83532,1,0,0:0:0:0:
64,192,83618,1,8,0:0:0:0:
192,192,83618,1,0,0:0:0:0:
320,192,83704,1,2,0:0:0:0:
64,192,83790,1,8,0:0:0:0:
448,192,83790,1,0,0:0:0:0:
192,192,83875,1,8,0:0:0:0:
320,192,83875,1,0,0:0:0:0:
64,192,83961,1,8,0:0:0:0:
192,192,84047,1,2,0:0:0:0:
320,192,84047,1,0,0:0:0:70:CrashRight.wav
448,192,84047,1,0,0:0:0:0:
192,192,84218,1,0,0:0:0:0:
64,192,84218,1,8,0:0:0:0:
320,192,84304,1,8,0:0:0:0:
448,192,84304,1,0,0:0:0:0:
64,192,84390,1,2,0:0:0:0:
320,192,84475,1,8,0:0:0:0:
448,192,84475,1,0,0:0:0:0:
64,192,84561,1,0,0:0:0:70:Tom1.wav
192,192,84561,1,0,0:0:0:0:
320,192,84647,1,0,0:0:0:70:Tom1.wav
64,192,84732,1,2,0:0:0:0:
448,192,84732,1,0,0:0:0:70:Tom2.wav
192,192,84818,1,8,0:0:0:0:
448,192,84904,1,0,0:0:0:0:
320,192,84904,1,8,0:0:0:0:
192,192,84990,1,0,0:0:0:0:
64,192,84990,1,8,0:0:0:0:
320,192,85075,1,8,0:0:0:0:
448,192,85075,1,0,0:0:0:0:
192,192,85161,1,8,0:0:0:0:
64,192,85247,1,2,0:0:0:0:
320,192,85247,1,0,0:0:0:70:CrashRight.wav
448,192,85247,1,0,0:0:0:0:
320,192,85590,1,2,0:0:0:0:
448,192,85590,1,0,0:0:0:0:
64,192,85761,1,8,0:0:0:0:
192,192,85761,1,4,0:0:0:0:
448,192,85761,1,0,0:0:0:0:
320,192,85932,1,0,0:0:0:0:
192,192,86104,1,2,0:0:0:0:
448,192,86104,1,0,0:0:0:0:
448,192,86275,1,0,0:0:0:70:Tom3.wav
192,192,86275,1,8,0:0:0:0:
64,192,86447,1,8,0:0:0:0:
320,192,86447,1,0,0:0:0:70:Tom3.wav
64,192,86618,1,8,0:0:0:0:
320,192,86618,1,0,0:0:0:70:Tom3.wav
192,192,86790,1,0,0:0:0:0:
448,192,86790,128,0,87475:0:0:0:0:
64,192,87475,1,0,0:0:0:40:LR_Drum Hit P2.wav
192,192,87475,128,0,88161:0:0:0:0:
448,192,88161,128,0,88675:0:0:0:0:
320,192,88504,1,0,0:0:0:0:
192,192,88675,128,0,89018:0:0:0:0:
64,192,88847,1,0,0:0:0:40:LR_Drum Hit P2.wav
320,192,89018,128,0,89361:0:0:0:0:
64,192,89361,128,0,90904:0:0:0:0:
192,192,90218,1,0,0:0:0:40:LR_Drum Hit P2.wav
192,192,90561,1,0,0:0:0:0:
448,192,90647,1,0,0:0:0:0:
320,192,90732,1,0,0:0:0:0:
192,192,90818,1,2,0:0:0:0:
320,192,90904,1,2,0:0:0:0:
448,192,90904,1,8,0:0:0:0:
192,192,90990,1,0,0:0:0:0:
320,192,91075,1,0,0:0:0:0:
64,192,91161,1,0,0:0:0:70:Tom1.wav
192,192,91161,1,0,0:0:0:0:
320,192,91247,1,8,0:0:0:0:
448,192,91247,1,0,0:0:0:0:
192,192,91332,1,0,0:0:0:70:Tom1.wav
448,192,91418,1,0,0:0:0:0:
64,192,91418,1,0,0:0:0:70:Tom2.wav
320,192,91504,1,0,0:0:0:70:Tom3.wav
64,192,91590,1,2,0:0:0:0:
192,192,91590,1,0,0:0:0:0:
64,192,91761,1,8,0:0:0:0:
320,192,91761,1,0,0:0:0:0:
448,192,91761,1,0,0:0:0:0:
64,192,91932,1,2,0:0:0:0:
320,192,91932,1,8,0:0:0:0:
448,192,91932,1,0,0:0:0:0:
64,192,92104,128,8,92447:0:0:0:0:
320,192,92104,128,2,92447:0:0:0:0:
448,192,92104,128,0,92447:0:0:0:0:
192,192,92275,128,0,92447:0:0:0:0:
