osu file format v14

[General]
AudioFilename: audio.mp3
AudioLeadIn: 0
PreviewTime: 52847
Countdown: 0
SampleSet: Drum
StackLeniency: 0.7
Mode: 3
LetterboxInBreaks: 0
SpecialStyle: 0
WidescreenStoryboard: 1

[Editor]
Bookmarks: 8447,19590,25418,30747,53704,64675
DistanceSpacing: 0.7
BeatDivisor: 4
GridSize: 8
TimelineZoom: 1.6

[Metadata]
Title:Scar/let
TitleUnicode:Scar/let
Artist:ReoNa
ArtistUnicode:ReoNa
Creator:Drum-Hitnormal
Version:Easy
Source:ソードアート・オンライン アリシゼーション リコリス
Tags:faputa paran dudehacker scarlet SWORD ART ONLINE Alicization Lycoris sao video game size version bandai namco japanese female vocalist jpop j-pop VVCL-1683 VVCL-1684 レオナ4th single SACRA MUSIC op opening short Kei Hayashi ハヤシケイ Kegani Ryohei Arahata 毛蟹 荒幡亮平 ANIMA
BeatmapID:2600513
BeatmapSetID:1226426

[Difficulty]
HPDrainRate:6.5
CircleSize:4
OverallDifficulty:6.5
ApproachRate:5
SliderMultiplier:1.4
SliderTickRate:1

[Events]
//Background and Video events
Video,-335,"video.mp4"
0,0,"bg.jpg",0,0
//Break Periods
//Storyboard Layer 0 (Background)
//Storyboard Layer 1 (Fail)
//Storyboard Layer 2 (Pass)
//Storyboard Layer 3 (Foreground)
//Storyboard Layer 4 (Overlay)
//Storyboard Sound Samples
Sample,40504,0,"CrashRight.wav",70
Sample,45647,0,"Tom3.wav",70
Sample,46161,0,"Tom3.wav",70
Sample,46847,0,"CrashRight.wav",70
Sample,49932,0,"Tom2.wav",70
Sample,50275,0,"Tom2.wav",70
Sample,50790,0,"Tom2.wav",70
Sample,69304,0,"CrashRight.wav",70
Sample,69990,0,"Tom3.wav",70
Sample,72904,0,"CrashRight.wav",70
Sample,73247,0,"Tom2.wav",70
Sample,73590,0,"Tom2.wav",70
Sample,74447,0,"CrashRight.wav",70
Sample,75132,0,"Tom2.wav",70
Sample,81990,0,"Tom2.wav",70
Sample,84732,0,"Tom2.wav",70
Sample,86275,0,"Tom3.wav",70

[TimingPoints]
390,342.857142857143,4,3,1,70,1,0
52847,-100,4,3,1,70,0,1
75647,-100,4,3,1,70,0,0

[HitObjects]
192,192,390,5,0,0:0:0:0:
448,192,390,1,0,0:0:0:0:
320,192,1590,1,0,0:0:0:0:
64,192,1761,1,0,0:0:0:0:
448,192,2275,1,0,0:0:0:0:
192,192,2790,1,0,0:0:0:0:
64,192,3132,1,0,0:0:0:0:
192,192,3647,1,0,0:0:0:0:
320,192,4161,1,0,0:0:0:0:
64,192,4504,128,0,7247:0:0:0:0:
192,192,7932,128,8,8447:0:0:0:0:
64,192,8447,1,2,0:0:0:0:
448,192,8447,1,0,0:0:0:70:CrashRight.wav
320,192,8961,1,10,0:0:0:0:
448,192,9304,1,2,0:0:0:0:
192,192,9561,1,0,0:0:0:0:
320,192,9818,1,4,0:0:0:0:
64,192,10161,1,4,0:0:0:0:
448,192,10504,1,4,0:0:0:0:
192,192,10847,1,4,0:0:0:0:
320,192,11361,1,2,0:0:0:0:
64,192,11704,1,10,0:0:0:0:
320,192,12047,1,2,0:0:0:0:
192,192,12304,1,0,0:0:0:0:
448,192,12561,1,4,0:0:0:0:
320,192,12904,1,4,0:0:0:0:
192,192,13075,1,10,0:0:0:0:
64,192,13247,1,4,0:0:0:0:
448,192,13590,1,4,0:0:0:0:
320,192,14104,1,2,0:0:0:0:
64,192,14447,1,10,0:0:0:0:
448,192,14790,1,2,0:0:0:0:
192,192,15047,1,0,0:0:0:0:
320,192,15304,1,4,0:0:0:0:
64,192,15647,1,4,0:0:0:0:
448,192,15990,1,4,0:0:0:0:
192,192,16332,1,4,0:0:0:0:
320,192,16847,1,2,0:0:0:0:
192,192,17104,1,0,0:0:0:0:
64,192,17361,1,8,0:0:0:0:
448,192,17532,1,10,0:0:0:0:
320,192,17790,1,0,0:0:0:70:Tom1.wav
64,192,18047,1,2,0:0:0:0:
192,192,18047,1,4,0:0:0:0:
64,192,19247,1,4,0:0:0:20:
448,192,19418,128,6,19761:0:0:0:0:
320,192,20104,1,0,0:0:0:0:
64,192,20275,1,0,0:0:0:0:
192,192,20618,1,0,0:0:0:0:
448,192,20790,128,0,21132:0:0:0:0:
320,192,21132,128,0,21475:0:0:0:0:
64,192,21475,128,0,21818:0:0:0:0:
192,192,21818,128,0,22161:0:0:0:0:
320,192,22161,128,0,22504:0:0:0:0:
64,192,23532,1,0,0:0:0:0:
448,192,23704,128,0,24047:0:0:0:0:
320,192,24047,1,0,0:0:0:0:
64,192,24218,128,0,24561:0:0:0:0:
192,192,24561,128,0,24904:0:0:0:0:
448,192,24904,1,4,0:0:0:0:
320,192,24904,1,2,0:0:0:0:
64,192,25590,1,4,0:0:0:20:
448,192,25761,1,6,0:0:0:0:
320,192,25932,1,4,0:0:0:20:
192,192,26275,128,4,26618:0:0:0:20:
64,192,26790,1,6,0:0:0:0:
320,192,26961,128,4,27304:0:0:0:20:
192,192,27304,128,4,27647:0:0:0:20:
448,192,27647,128,4,27990:0:0:0:20:
320,192,28332,1,4,0:0:0:20:
64,192,28504,128,6,28847:0:0:0:0:
192,192,29018,1,4,0:0:0:20:
448,192,29190,128,6,29532:0:0:0:0:
320,192,29532,1,6,0:0:0:0:
64,192,29704,1,4,0:0:0:0:
192,192,30047,128,8,30390:0:0:0:0:
320,192,30390,1,2,0:0:0:0:
448,192,30390,1,0,0:0:0:70:CrashRight.wav
192,192,31075,1,0,0:0:0:0:
448,192,31247,1,0,0:0:0:0:
320,192,31590,1,0,0:0:0:0:
64,192,31761,1,8,0:0:0:0:
320,192,32104,1,2,0:0:0:0:
192,192,32447,1,0,0:0:0:0:
448,192,32790,1,2,0:0:0:0:
192,192,33132,1,2,0:0:0:0:
64,192,33132,1,4,0:0:0:0:
320,192,33647,1,8,0:0:0:0:
448,192,33818,1,0,0:0:0:0:
192,192,34161,1,2,0:0:0:0:
320,192,34504,1,8,0:0:0:0:
64,192,34675,1,0,0:0:0:0:
448,192,35018,1,8,0:0:0:0:
192,192,35190,128,0,35532:0:0:0:0:
320,192,35532,128,2,35875:0:0:0:0:
64,192,35875,1,2,0:0:0:0:
192,192,35875,1,4,0:0:0:0:
448,192,36218,1,2,0:0:0:0:
192,192,36390,1,8,0:0:0:0:
64,192,36732,128,0,37247:0:0:0:0:
448,192,37418,128,0,37761:0:0:0:0:
192,192,37932,1,0,0:0:0:0:
320,192,38104,128,2,38447:0:0:0:0:
192,192,38618,1,0,0:0:0:70:CrashRight.wav
64,192,38618,1,2,0:0:0:0:
448,192,38790,128,4,39132:0:0:0:0:
64,192,39304,1,0,0:0:0:0:
320,192,39475,128,12,39990:0:0:0:0:
448,192,39990,1,8,0:0:0:0:
192,192,40161,128,4,40504:0:0:0:0:
320,192,40504,1,8,0:0:0:0:
64,192,40675,1,0,0:0:0:0:
320,192,41018,1,0,0:0:0:70:Tom1.wav
64,192,41361,1,2,0:0:0:0:
448,192,41361,1,0,0:0:0:70:CrashRight.wav
192,192,41704,1,8,0:0:0:0:
320,192,42218,1,8,0:0:0:0:
448,192,42561,128,0,42904:0:0:0:0:
192,192,42904,128,2,43247:0:0:0:0:
320,192,43247,128,0,43590:0:0:0:0:
192,192,43590,128,8,43932:0:0:0:0:
64,192,43932,128,0,44275:0:0:0:0:
320,192,44275,1,2,0:0:0:0:
448,192,44275,1,0,0:0:0:70:CrashRight.wav
320,192,44961,1,8,0:0:0:0:
192,192,45304,128,4,45647:0:0:0:0:
448,192,45647,128,8,46161:0:0:0:0:
64,192,46161,1,8,0:0:0:0:
320,192,46332,128,0,46675:0:0:0:0:
64,192,46847,128,2,47190:0:0:0:0:
448,192,47190,1,0,0:0:0:0:
320,192,47361,1,2,0:0:0:0:
192,192,47532,128,8,47875:0:0:0:0:
64,192,48047,1,2,0:0:0:0:
448,192,48218,128,8,48561:0:0:0:0:
320,192,48561,1,8,0:0:0:0:
192,192,48732,1,2,0:0:0:0:
64,192,48904,128,8,49247:0:0:0:0:
192,192,49247,1,8,0:0:0:0:
320,192,49418,1,2,0:0:0:0:
64,192,49590,1,8,0:0:0:0:
448,192,49590,1,0,0:0:0:70:CrashRight.wav
192,192,49932,1,8,0:0:0:0:
320,192,50275,1,8,0:0:0:0:
64,192,50618,1,0,0:0:0:70:Tom1.wav
448,192,50790,1,8,0:0:0:0:
64,192,50961,128,2,52504:0:0:0:0:
192,192,50961,1,0,0:0:0:70:CrashRight.wav
320,192,51475,1,12,0:0:0:0:
448,192,52504,1,12,0:0:0:0:
64,192,53704,1,2,0:0:0:0:
448,192,53704,128,0,54218:0:0:0:70:CrashRight.wav
192,192,54218,128,10,54561:0:0:0:0:
320,192,54561,1,2,0:0:0:0:
64,192,54904,128,10,55247:0:0:0:0:
192,192,55247,128,2,55590:0:0:0:0:
448,192,55590,128,10,55932:0:0:0:0:
64,192,55932,128,2,56275:0:0:0:0:
192,192,56275,1,10,0:0:0:0:
320,192,56447,128,4,56790:0:0:0:0:
448,192,56790,1,4,0:0:0:0:
192,192,56961,128,10,57475:0:0:0:0:
448,192,57647,128,10,57990:0:0:0:0:
64,192,57990,128,2,58332:0:0:0:0:
192,192,58332,1,10,0:0:0:0:
320,192,58675,128,2,59018:0:0:0:0:
192,192,59018,1,10,0:0:0:0:
448,192,59190,128,4,59532:0:0:0:0:
64,192,59704,1,10,0:0:0:0:
320,192,60047,1,2,0:0:0:0:
192,192,60390,128,10,60732:0:0:0:0:
448,192,60732,128,2,61075:0:0:0:0:
320,192,61075,128,10,61418:0:0:0:0:
64,192,61418,128,2,61761:0:0:0:0:
192,192,61761,1,10,0:0:0:0:
448,192,61932,128,4,62275:0:0:0:0:
320,192,62275,1,4,0:0:0:0:
64,192,62447,128,10,62790:0:0:0:0:
448,192,62790,1,2,0:0:0:0:
320,192,62961,1,0,0:0:0:70:Tom1.wav
192,192,63132,1,8,0:0:0:0:
320,192,63304,1,2,0:0:0:0:
448,192,63304,1,4,0:0:0:0:
192,192,63818,128,8,64161:0:0:0:0:
320,192,64161,128,2,64504:0:0:0:0:
448,192,64504,1,0,0:0:0:70:Tom3.wav
64,192,64675,128,2,65190:0:0:0:0:
192,192,64675,1,0,0:0:0:70:CrashRight.wav
448,192,65190,128,10,65532:0:0:0:0:
192,192,65532,1,2,0:0:0:0:
320,192,65875,1,10,0:0:0:0:
192,192,66047,1,4,0:0:0:0:
64,192,66218,128,2,66561:0:0:0:0:
448,192,66561,128,10,66904:0:0:0:0:
192,192,66904,128,2,67247:0:0:0:0:
320,192,67247,1,10,0:0:0:0:
64,192,67418,128,4,67761:0:0:0:0:
192,192,67761,1,4,0:0:0:0:
448,192,67932,128,10,68275:0:0:0:0:
320,192,68275,1,2,0:0:0:0:
192,192,68618,128,10,68961:0:0:0:0:
320,192,68961,128,2,69304:0:0:0:0:
64,192,69304,128,8,69647:0:0:0:0:
448,192,69647,128,2,69990:0:0:0:0:
192,192,69990,128,2,70332:0:0:0:0:
320,192,70332,128,2,70675:0:0:0:0:
448,192,70332,1,0,0:0:0:70:CrashRight.wav
64,192,70675,1,10,0:0:0:0:
192,192,70847,1,0,0:0:0:0:
448,192,71018,128,2,71361:0:0:0:0:
192,192,71361,1,10,0:0:0:0:
320,192,71532,128,0,71875:0:0:0:0:
64,192,71875,1,0,0:0:0:0:
192,192,72047,1,10,0:0:0:0:
448,192,72218,128,0,72561:0:0:0:0:
64,192,72561,1,0,0:0:0:70:Tom2.wav
320,192,72732,1,8,0:0:0:0:
192,192,72904,128,2,73247:0:0:0:0:
64,192,73247,1,8,0:0:0:0:
320,192,73418,1,2,0:0:0:0:
448,192,73590,128,8,73932:0:0:0:0:
192,192,73932,1,0,0:0:0:0:
64,192,74104,128,2,74447:0:0:0:0:
320,192,74447,128,8,74961:0:0:0:0:
192,192,75132,128,2,75647:0:0:0:0:
448,192,75647,1,0,0:0:0:70:CrashRight.wav
320,192,75647,1,2,0:0:0:0:
192,192,76161,1,10,0:0:0:0:
320,192,76504,1,2,0:0:0:0:
64,192,76761,1,0,0:0:0:0:
448,192,77018,1,4,0:0:0:0:
192,192,77361,1,4,0:0:0:0:
320,192,77704,1,4,0:0:0:0:
64,192,78047,1,4,0:0:0:0:
320,192,78390,1,4,0:0:0:0:
192,192,78561,1,2,0:0:0:0:
448,192,78904,1,10,0:0:0:0:
64,192,79247,1,2,0:0:0:0:
320,192,79504,1,0,0:0:0:0:
192,192,79761,1,4,0:0:0:0:
320,192,80104,1,4,0:0:0:0:
192,192,80275,1,10,0:0:0:0:
64,192,80447,1,4,0:0:0:0:
448,192,80790,1,4,0:0:0:0:
64,192,81304,1,2,0:0:0:0:
192,192,81304,1,0,0:0:0:70:CrashRight.wav
320,192,81647,1,2,0:0:0:0:
192,192,81990,1,2,0:0:0:0:
448,192,82247,1,0,0:0:0:70:Tom3.wav
64,192,82504,1,8,0:0:0:0:
192,192,82504,1,0,0:0:0:70:CrashRight.wav
320,192,82847,1,0,0:0:0:70:Tom1.wav
64,192,83190,1,0,0:0:0:0:
448,192,83532,1,8,0:0:0:0:
64,192,84047,1,2,0:0:0:0:
192,192,84047,1,0,0:0:0:70:CrashRight.wav
320,192,84390,1,2,0:0:0:0:
192,192,84732,1,2,0:0:0:0:
448,192,84990,1,8,0:0:0:0:
320,192,85247,1,0,0:0:0:70:CrashRight.wav
64,192,85247,1,2,0:0:0:0:
192,192,85590,1,2,0:0:0:0:
448,192,85932,1,0,0:0:0:0:
64,192,86275,1,8,0:0:0:0:
448,192,86790,128,0,87475:0:0:0:0:
64,192,87475,128,0,88161:0:0:0:40:LR_Drum Hit P2.wav
320,192,88161,128,0,88504:0:0:0:0:
192,192,88504,1,0,0:0:0:0:
448,192,88675,128,0,89018:0:0:0:0:
192,192,89018,128,0,89361:0:0:0:0:
64,192,89361,128,0,90561:0:0:0:0:
448,192,90561,128,0,90904:0:0:0:0:
192,192,90904,1,10,0:0:0:0:
320,192,91075,1,0,0:0:0:0:
64,192,91247,128,8,91761:0:0:0:0:
448,192,91761,1,8,0:0:0:0:
192,192,91932,1,10,0:0:0:0:
448,192,92104,1,10,0:0:0:0:
