osu file format v14

[General]
AudioFilename: audio.mp3
AudioLeadIn: 0
PreviewTime: 47674
Countdown: 0
SampleSet: Soft
StackLeniency: 0.7
Mode: 0
LetterboxInBreaks: 0
WidescreenStoryboard: 0

[Editor]
DistanceSpacing: 1.3
BeatDivisor: 4
GridSize: 32
TimelineZoom: 0.4

[Metadata]
Title:SWEET HURT (TV Size)
TitleUnicode:SWEET HURT (TV Size)
Artist:ReoNa
ArtistUnicode:ReoNa
Creator:Garden
Version:Normal
Source:ハッピーシュガーライフ
Tags:happy sugar life ending anime japanese j-pop jpop
BeatmapID:2835258
BeatmapSetID:1371297

[Difficulty]
HPDrainRate:4
CircleSize:4
OverallDifficulty:4
ApproachRate:5
SliderMultiplier:1.4
SliderTickRate:1

[Events]
//Background and Video events
0,0,"1040190.jpg",0,0
//Break Periods
//Storyboard Layer 0 (Background)
//Storyboard Layer 1 (Fail)
//Storyboard Layer 2 (Pass)
//Storyboard Layer 3 (Foreground)
//Storyboard Layer 4 (Overlay)
//Storyboard Sound Samples

[TimingPoints]
175,714.285714285714,4,2,1,20,1,0
11603,-100,4,2,1,40,0,0
34460,-100,4,2,1,50,0,0
48746,-100,4,2,1,66,0,1
71603,-100,4,2,1,66,0,0
83210,-100,4,2,1,40,0,0

[Colours]
Combo1 : 255,128,255
Combo2 : 128,128,255

[HitObjects]
8,13,175,6,0,P|76:14|116:69,1,140,2|2,0:0|0:0,0:0:0:0:
127,144,1246,1,2,0:0:0:0:
57,176,1603,2,0,P|38:205|32:239,1,70,2|2,0:0|0:0,0:0:0:0:
102,271,2317,2,0,P|129:249|147:219,1,70,2|2,0:0|0:0,0:0:0:0:
127,144,3032,5,2,0:0:0:0:
187,97,3389,1,2,0:0:0:0:
256,129,3746,2,0,L|245:198,1,70,2|2,0:0|0:0,0:0:0:0:
319,216,4460,2,0,L|339:68,1,140,2|2,0:0|0:0,0:0:0:0:
446,186,5889,6,0,P|434:269|252:332,1,280,2|0,0:0|0:0,0:0:0:0:
197,313,7674,1,2,0:0:0:0:
123,335,8032,2,0,P|95:309|88:266,1,70,2|2,0:0|0:0,0:0:0:0:
89,202,8746,5,2,0:0:0:0:
115,129,9103,1,2,0:0:0:0:
256,192,9817,1,2,0:0:0:0:
256,192,9996,12,2,11603,0:0:0:0:
345,335,12674,5,2,0:0:0:0:
416,304,13032,2,0,P|449:244|436:177,1,140,2|2,0:0|0:3,0:0:0:0:
388,115,14103,1,2,0:0:0:0:
327,162,14460,6,0,L|246:171,2,70,2|2|2,0:0|0:0|0:0,0:0:0:0:
388,115,15532,1,2,0:0:0:0:
339,55,15889,2,0,L|197:71,1,140,2|2,0:0|0:3,0:0:0:0:
133,32,16960,1,2,0:0:0:0:
70,76,17317,6,0,P|53:146|91:206,1,140,2|0,0:0|0:0,0:0:0:0:
155,235,18389,1,2,0:0:0:0:
210,181,18746,2,0,P|282:183|331:229,1,140,2|2,0:0|0:3,0:0:0:0:
351,300,19817,1,2,0:0:0:0:
290,347,20174,6,0,L|219:339,1,70,2|2,0:0|0:0,0:0:0:0:
157,294,20889,2,0,L|86:286,1,70,2|2,0:0|0:0,0:0:0:0:
30,234,21603,2,0,L|11:95,1,140,2|2,0:0|0:0,0:0:0:0:
138,9,23032,6,0,P|174:58|156:143,1,140,2|0,0:0|0:0,0:0:0:0:
122,198,24103,1,2,0:0:0:0:
159,265,24460,2,0,P|204:306|303:293,1,140,2|2,0:0|0:3,0:0:0:0:
347,269,25532,1,2,0:0:0:0:
301,206,25889,6,0,L|317:130,2,70,2|2|2,0:0|0:0|0:0,0:0:0:0:
347,269,26960,1,2,0:0:0:0:
419,242,27317,2,0,L|451:87,1,140,2|2,0:0|0:3,0:0:0:0:
419,32,28389,1,2,0:0:0:0:
351,69,28746,6,0,P|283:77|227:38,2,140,2|2|2,0:0|0:0|0:0,0:0:0:0:
467,169,30889,2,0,P|467:204|453:237,1,70,2|2,0:0|0:0,0:0:0:0:
398,290,31603,5,8,0:0:0:0:
307,165,32317,1,2,0:3:0:0:
168,232,33032,1,8,0:0:0:0:
259,357,33746,1,2,0:3:0:0:
329,325,34103,1,2,0:3:0:0:
398,290,34460,6,0,P|439:237|430:169,2,140,10|2|10,0:0|1:2|0:0,0:0:0:0:
250,243,36603,2,0,P|283:214|327:207,1,70,2|2,1:2|0:3,0:0:0:0:
351,143,37317,6,0,L|367:3,1,140,10|2,0:0|1:2,0:0:0:0:
231,76,38746,2,0,L|222:145,2,70,8|2|2,0:0|0:3|1:2,0:0:0:0:
293,30,39817,1,2,0:0:0:0:
366,3,40174,6,0,P|401:7|427:29,1,70,10|2,0:0|0:3,0:0:0:0:
504,30,40889,2,0,P|475:96|408:106,1,140,2|10,1:2|0:0,0:0:0:0:
338,91,41960,1,2,0:3:0:0:
314,164,42317,2,0,P|317:199|336:228,1,70,2|2,1:2|0:0,0:0:0:0:
394,278,43032,5,2,0:0:0:0:
478,149,43746,1,0,0:0:0:0:
394,278,44460,2,0,L|234:309,1,140,2|2,0:0|0:0,0:0:0:0:
193,349,45532,1,2,0:0:0:0:
118,331,45889,6,0,P|102:301|106:267,1,70,4|4,1:2|1:0,0:0:0:0:
25,224,46603,2,0,P|42:194|74:180,1,70,4|4,1:2|1:0,0:0:0:0:
163,194,47317,1,10,0:0:0:0:
197,278,47674,1,8,0:0:0:0:
287,292,48032,2,0,P|318:278|336:248,1,70,4|2,1:2|0:3,0:0:0:0:
328,157,48746,6,0,L|466:180,2,140,12|4|12,0:0|3:1|0:0,0:0:0:0:
499,95,50889,1,2,1:2:0:0:
474,187,51246,1,2,1:2:0:0:
474,187,51424,1,0,1:0:0:0:
474,187,51603,6,0,P|459:223|462:253,1,70,12|8,0:0|0:0,0:0:0:0:
503,333,52317,2,0,P|469:368|408:372,1,105,2|0,1:2|0:0,0:0:0:0:
380,344,53032,2,0,P|353:330|311:330,1,70,10|8,0:0|0:0,0:0:0:0:
230,365,53746,1,2,1:2:0:0:
157,329,54103,1,2,0:3:0:0:
157,329,54282,1,2,0:0:0:0:
157,329,54460,6,0,L|172:260,1,70,12|8,0:0|0:0,0:0:0:0:
118,186,55174,2,0,L|133:117,1,70,2|0,1:2|0:0,0:0:0:0:
119,74,55710,1,0,3:0:0:0:
153,44,55889,2,0,L|238:31,1,70,10|0,0:0|0:0,0:0:0:0:
295,86,56603,2,0,L|380:73,1,70,2|2,1:2|0:3,0:0:0:0:
409,70,57139,1,0,3:0:0:0:
433,108,57317,6,0,P|417:139|417:174,1,70,12|8,0:0|0:0,0:0:0:0:
487,231,58032,2,0,P|487:265|472:296,1,70,2|8,1:2|0:0,0:0:0:0:
429,313,58567,1,0,3:0:0:0:
385,326,58746,1,2,1:2:0:0:
306,281,59103,1,0,3:0:0:0:
220,311,59460,1,2,1:2:0:0:
142,352,59817,1,10,0:0:0:0:
142,352,59996,1,0,3:0:0:0:
142,352,60174,6,0,L|2:337,2,140,12|4|12,0:0|1:0|0:0,0:0:0:0:
0,237,62317,1,2,1:2:0:0:
61,169,62674,1,2,0:3:0:0:
32,134,62853,1,2,0:0:0:0:
3,99,63032,6,0,P|3:66|24:29,1,70,12|8,0:0|0:0,0:0:0:0:
108,17,63746,2,0,P|145:52|196:59,1,105,2|0,1:2|3:0,0:0:0:0:
236,36,64460,2,0,P|264:15|298:11,1,70,10|8,0:0|0:0,0:0:0:0:
385,34,65174,1,2,1:2:0:0:
469,68,65532,1,2,0:3:0:0:
450,109,65710,1,2,0:0:0:0:
432,151,65889,6,0,L|453:217,1,70,12|8,0:0|0:0,0:0:0:0:
381,273,66603,2,0,L|402:339,1,70,2|0,1:2|0:0,0:0:0:0:
371,373,67139,1,0,3:0:0:0:
327,359,67317,2,0,L|180:345,1,140,10|2,0:0|1:2,0:0:0:0:
112,293,68389,1,0,3:0:0:0:
144,261,68567,1,2,0:0:0:0:
179,231,68746,6,0,P|191:198|187:164,1,70,12|8,0:0|0:0,0:0:0:0:
105,125,69460,2,0,P|101:90|113:58,1,70,4|0,1:2|0:0,0:0:0:0:
145,25,69996,1,2,0:3:0:0:
189,15,70174,1,10,0:0:0:0:
265,64,70532,1,8,0:3:0:0:
353,39,70889,2,0,P|387:37|419:51,1,70,0|0,1:0|1:0,0:0:0:0:
450,84,71424,1,0,3:0:0:0:
479,119,71603,5,12,0:0:0:0:
335,230,72317,1,10,0:0:0:0:
453,368,73032,2,0,L|464:334,2,35,10|2|2,0:0|0:0|3:0,0:0:0:0:
362,373,73746,2,0,L|385:305,1,70,10|2,0:0|3:0,0:0:0:0:
335,230,74460,5,12,0:0:0:0:
205,357,75174,1,0,1:0:0:0:
40,279,75889,2,0,P|57:271|75:266,2,35,10|0|2,0:0|1:0|3:0,0:0:0:0:
51,369,76603,2,0,P|88:358|119:342,1,70,4|2,1:2|3:0,0:0:0:0:
205,357,77317,5,12,0:0:0:0:
142,185,78032,1,2,1:2:0:0:
286,74,78746,2,0,L|275:124,2,35,10|2|2,0:0|0:0|1:2,0:0:0:0:
202,38,79460,2,0,L|184:119,1,70,2|2,1:2|1:2,0:0:0:0:
142,185,80174,6,0,P|104:250|132:324,1,140,10|2,0:0|1:2,0:0:0:0:
194,360,81246,1,2,1:2:0:0:
283,345,81603,2,0,P|300:357|313:370,2,35,10|0|2,0:0|0:0|1:2,0:0:0:0:
317,260,82317,2,0,P|336:264|351:269,2,35,10|2|2,0:0|1:2|1:2,0:0:0:0:
256,192,83032,1,4,3:1:0:0:
256,192,83210,12,2,85889,0:0:0:0:
