osu file format v14

[General]
AudioFilename: audio.mp3
AudioLeadIn: 0
PreviewTime: 47674
Countdown: 0
SampleSet: Soft
StackLeniency: 0.7
Mode: 0
LetterboxInBreaks: 0
WidescreenStoryboard: 0

[Editor]
DistanceSpacing: 1.9
BeatDivisor: 4
GridSize: 32
TimelineZoom: 0.9999999

[Metadata]
Title:SWEET HURT (TV Size)
TitleUnicode:SWEET HURT (TV Size)
Artist:ReoNa
ArtistUnicode:ReoNa
Creator:Garden
Version:Hard
Source:ハッピーシュガーライフ
Tags:happy sugar life ending anime japanese j-pop jpop
BeatmapID:2835257
BeatmapSetID:1371297

[Difficulty]
HPDrainRate:5
CircleSize:4
OverallDifficulty:6
ApproachRate:7
SliderMultiplier:1.8
SliderTickRate:1

[Events]
//Background and Video events
0,0,"1040190.jpg",0,0
//Break Periods
//Storyboard Layer 0 (Background)
//Storyboard Layer 1 (Fail)
//Storyboard Layer 2 (Pass)
//Storyboard Layer 3 (Foreground)
//Storyboard Layer 4 (Overlay)
//Storyboard Sound Samples

[TimingPoints]
175,714.285714285714,4,2,1,20,1,0
175,-133.333333333333,4,2,1,20,0,0
11603,-111.111111111111,4,2,1,40,0,0
34460,-100,4,2,1,50,0,0
48746,-90.9090909090909,4,2,1,66,0,1
71603,-111.111111111111,4,2,1,66,0,0
77317,-100,4,2,1,66,0,0
83210,-100,4,2,1,40,0,0

[Colours]
Combo1 : 255,128,255
Combo2 : 128,128,255

[HitObjects]
391,53,175,6,0,P|418:33|451:30,1,67.5000025749208,2|2,0:0|0:0,0:0:0:0:
482,107,889,2,0,P|454:126|421:129,1,67.5000025749208,2|2,0:0|0:0,0:0:0:0:
355,186,1603,2,0,P|336:214|335:247,1,67.5000025749208,2|2,0:0|0:0,0:0:0:0:
417,273,2317,2,0,P|435:244|436:211,1,67.5000025749208,2|2,0:0|0:0,0:0:0:0:
421,129,3032,5,2,0:0:0:0:
355,186,3389,1,2,0:0:0:0:
280,139,3746,1,2,0:0:0:0:
301,54,4103,1,2,0:0:0:0:
389,48,4460,1,2,0:0:0:0:
389,48,5174,1,2,0:0:0:0:
389,48,5889,6,0,P|438:94|424:178,2,135.000005149842,2|2|0,0:0|0:0|0:0,0:0:0:0:
304,23,7674,1,2,0:0:0:0:
256,96,8032,2,0,P|222:93|193:76,1,67.5000025749208,2|2,0:0|0:0,0:0:0:0:
135,10,8746,5,2,0:0:0:0:
193,76,9103,2,0,L|179:167,1,67.5000025749208,2|0,0:0|0:0,0:0:0:0:
256,192,9817,1,2,0:0:0:0:
256,192,9996,12,2,11603,0:0:0:0:
80,143,12674,6,0,P|80:165|73:187,1,40.4999987640381,2|0,0:0|0:0,0:0:0:0:
61,221,13032,2,0,P|122:171|201:171,1,161.999995056153,2|2,0:0|0:3,0:0:0:0:
290,244,14103,1,2,0:0:0:0:
290,244,14282,1,0,0:0:0:0:
290,244,14460,6,0,L|276:331,1,80.9999975280763,2|2,0:0|0:0,0:0:0:0:
367,378,15174,2,0,L|379:298,1,80.9999975280763,2|2,0:0|0:0,0:0:0:0:
277,323,15889,2,0,L|116:344,1,161.999995056153,2|2,0:0|0:3,0:0:0:0:
11,356,16960,2,0,L|22:290,1,40.4999987640381,2|0,0:0|0:0,0:0:0:0:
0,280,17317,6,0,P|64:275|122:201,1,161.999995056153,2|0,0:0|0:0,0:0:0:0:
105,106,18389,1,2,0:0:0:0:
105,106,18567,1,0,0:0:0:0:
105,106,18746,2,0,P|148:40|226:28,1,161.999995056153,2|2,0:0|0:3,0:0:0:0:
323,91,19817,1,2,0:0:0:0:
323,91,19996,1,0,0:0:0:0:
323,91,20174,6,0,L|411:67,1,80.9999975280763,2|2,0:0|0:0,0:0:0:0:
477,142,20889,2,0,L|398:163,1,80.9999975280763,2|2,0:0|0:0,0:0:0:0:
296,186,21603,2,0,L|274:305,1,121.499996292114,2|0,0:0|0:0,0:0:0:0:
254,341,22317,2,0,L|203:355,2,40.4999987640381,2|2|2,0:0|0:3|0:3,0:0:0:0:
358,354,23032,6,0,P|430:352|478:251,1,161.999995056153,2|0,0:0|0:0,0:0:0:0:
384,265,24103,1,2,0:0:0:0:
384,265,24282,1,0,0:0:0:0:
384,265,24460,2,0,P|333:215|356:119,1,161.999995056153,2|2,0:0|0:3,0:0:0:0:
425,63,25532,1,2,0:0:0:0:
425,63,25710,1,0,0:0:0:0:
425,63,25889,5,2,0:0:0:0:
444,166,26246,1,2,0:0:0:0:
344,131,26603,1,2,0:0:0:0:
425,63,26960,1,2,0:0:0:0:
325,27,27317,2,0,L|164:50,1,161.999995056153,2|2,0:0|0:3,0:0:0:0:
77,10,28389,1,2,0:0:0:0:
77,10,28567,1,0,0:0:0:0:
77,10,28746,6,0,P|65:73|121:131,1,121.499996292114,2|0,0:0|0:0,0:0:0:0:
131,138,29460,2,0,P|132:177|110:210,1,80.9999975280763,2|0,0:0|0:0,0:0:0:0:
19,264,30174,2,0,P|58:308|123:315,1,121.499996292114,2|0,0:0|0:0,0:0:0:0:
157,308,30889,2,0,P|150:333|147:358,2,40.4999987640381,2|0|2,0:0|0:0|0:0,0:0:0:0:
230,232,31603,5,8,0:0:0:0:
230,232,31782,2,0,L|366:212,1,121.499996292114,8|2,0:0|0:3,0:0:0:0:
389,227,32496,2,0,L|407:138,1,80.9999975280763,2|0,0:0|0:0,0:0:0:0:
446,135,33032,1,8,0:0:0:0:
446,135,33210,2,0,L|464:46,1,80.9999975280763,8|2,0:0|0:0,0:0:0:0:
435,25,33746,1,2,0:3:0:0:
337,65,34103,2,0,L|326:122,1,40.4999987640381,2|0,0:3|3:0,0:0:0:0:
312,189,34460,6,0,P|246:189|202:137,1,135,10|8,0:0|0:0,0:0:0:0:
138,84,35174,2,0,P|172:57|225:60,1,90,2|0,1:2|0:0,0:0:0:0:
139,211,35889,1,10,0:0:0:0:
139,211,36067,2,0,P|104:238|60:238,1,90,0|0,0:0|0:0,0:0:0:0:
1,175,36603,2,0,P|3:155|8:129,1,45,2|0,1:2|0:3,0:0:0:0:
88,99,36960,2,0,P|90:79|95:53,1,45,2|0,0:3|3:3,0:0:0:0:
176,28,37317,6,0,L|264:11,1,90,10|0,0:0|0:0,0:0:0:0:
348,45,37853,1,8,0:0:0:0:
348,45,38032,2,0,L|494:19,1,135,2|2,1:2|0:0,0:0:0:0:
509,102,38746,2,0,L|499:146,1,45,8|2,0:0|0:0,0:0:0:0:
420,178,39103,2,0,L|397:284,1,90,2|2,0:3|1:2,0:0:0:0:
277,383,39817,1,2,0:0:0:0:
400,265,40174,6,0,P|434:270|456:279,2,45,10|0|2,0:0|0:0|0:3,0:0:0:0:
320,296,40710,1,0,3:0:0:0:
320,296,40889,2,0,P|255:309|203:270,1,135,2|0,1:2|0:0,0:0:0:0:
167,203,41603,1,10,0:0:0:0:
167,203,41782,1,0,0:0:0:0:
167,203,41960,2,0,P|172:174|190:150,1,45,2|0,0:3|0:0,0:0:0:0:
265,156,42317,2,0,P|290:119|286:75,1,90,2|2,1:2|0:0,0:0:0:0:
131,2,43032,5,2,0:0:0:0:
131,2,43746,1,0,0:0:0:0:
131,2,44460,2,0,B|293:28,1,135,2|0,0:0|0:0,0:0:0:0:
335,71,45174,2,0,L|399:81,2,45,2|0|2,0:0|0:0|0:0,0:0:0:0:
496,13,45889,5,4,1:2:0:0:
440,174,46246,1,4,1:0:0:0:
272,210,46603,1,4,1:2:0:0:
216,371,46960,1,4,1:0:0:0:
384,335,47317,6,0,L|430:342,2,30,10|0|0,0:0|1:0|1:0,0:0:0:0:
316,292,47674,2,0,L|286:287,2,30,8|4|4,0:0|0:3|0:3,0:0:0:0:
389,254,48032,2,0,L|370:116,1,135,4|2,1:2|0:3,0:0:0:0:
283,85,48746,6,0,P|365:84|446:-10,2,198.000006042481,12|4|12,0:0|3:1|0:0,0:0:0:0:
257,64,50294,1,0,1:0:0:0:
224,62,50413,1,0,1:0:0:0:
198,82,50532,2,0,P|192:99|191:121,3,33.0000010070801,0|0|0|2,1:0|1:0|1:0|1:2,0:0:0:0:
252,183,51067,1,2,1:2:0:0:
236,276,51246,1,2,1:2:0:0:
147,307,51424,1,0,1:0:0:0:
63,263,51603,6,0,L|94:109,1,148.50000453186,12|0,0:0|0:0,0:0:0:0:
39,39,52317,2,0,L|139:21,1,99.0000030212403,2|0,1:2|0:0,0:0:0:0:
208,90,52853,1,0,0:0:0:0:
208,90,53032,2,0,L|308:72,1,99.0000030212403,10|8,0:0|0:0,0:0:0:0:
484,14,53746,2,0,L|469:89,1,49.5000015106202,2|2,1:2|0:0,0:0:0:0:
392,109,54103,2,0,L|377:184,1,49.5000015106202,2|2,0:3|0:0,0:0:0:0:
446,226,54460,6,0,P|456:273|434:316,1,99.0000030212403,12|8,0:0|0:0,0:0:0:0:
343,331,54996,1,2,0:3:0:0:
343,331,55174,2,0,P|299:308|252:318,1,99.0000030212403,2|0,1:2|0:0,0:0:0:0:
176,372,55710,1,0,3:0:0:0:
176,372,55889,2,0,P|218:313|206:242,1,148.50000453186,10|0,0:0|0:0,0:0:0:0:
126,189,56603,1,2,1:2:0:0:
151,98,56782,1,2,0:0:0:0:
245,94,56960,1,2,0:3:0:0:
279,181,57139,1,0,3:0:0:0:
206,242,57317,6,0,L|37:256,1,148.50000453186,12|2,0:0|0:3,0:0:0:0:
3,176,58032,2,0,L|123:165,1,99.0000030212403,2|8,1:2|0:0,0:0:0:0:
198,160,58567,1,0,3:0:0:0:
198,160,58746,2,0,L|230:11,1,148.50000453186,2|0,1:2|1:0,0:0:0:0:
323,12,59460,2,0,L|308:85,1,49.5000015106202,2|0,1:2|3:0,0:0:0:0:
293,152,59817,1,10,0:0:0:0:
383,125,59996,1,0,3:0:0:0:
472,98,60174,6,0,P|446:200|356:218,2,198.000006042481,12|4|12,0:0|1:0|0:0,0:0:0:0:
293,152,61960,1,8,0:0:0:0:
293,152,62317,1,2,1:2:0:0:
249,235,62496,1,2,0:0:0:0:
289,319,62674,1,2,0:3:0:0:
381,337,62853,1,0,3:0:0:0:
456,280,63032,6,0,L|433:134,1,148.50000453186,12|0,0:0|0:0,0:0:0:0:
475,49,63746,2,0,L|360:32,1,99.0000030212403,2|0,1:2|0:0,0:0:0:0:
310,100,64282,1,0,3:0:0:0:
310,100,64460,2,0,L|195:83,1,99.0000030212403,10|8,0:0|0:0,0:0:0:0:
35,21,65174,2,0,L|47:84,1,49.5000015106202,2|2,1:2|0:0,0:0:0:0:
125,118,65532,2,0,L|137:181,1,49.5000015106202,2|2,0:3|0:0,0:0:0:0:
71,236,65889,6,0,P|70:284|101:321,1,99.0000030212403,12|8,0:0|0:0,0:0:0:0:
194,317,66424,1,2,0:3:0:0:
194,317,66603,2,0,P|232:285|280:285,1,99.0000030212403,2|0,1:2|0:0,0:0:0:0:
366,322,67139,1,0,3:0:0:0:
366,322,67317,2,0,P|312:273|309:201,1,148.50000453186,10|0,0:0|0:0,0:0:0:0:
377,133,68032,1,2,1:2:0:0:
466,160,68210,1,2,0:0:0:0:
405,232,68389,1,0,3:0:0:0:
377,133,68567,1,2,0:0:0:0:
351,42,68746,6,0,L|253:23,1,99.0000030212403,12|8,0:0|0:0,0:0:0:0:
188,91,69282,1,2,0:3:0:0:
188,91,69460,2,0,L|90:72,1,99.0000030212403,4|0,1:2|0:0,0:0:0:0:
12,19,69996,1,2,0:3:0:0:
90,72,70174,2,0,L|97:120,1,49.5000015106202,10|0,0:0|1:0,0:0:0:0:
34,192,70532,2,0,L|41:240,1,49.5000015106202,8|0,0:3|3:0,0:0:0:0:
124,285,70889,1,0,1:0:0:0:
197,226,71067,1,0,3:0:0:0:
280,271,71246,2,0,L|287:315,3,24.7500007553101,0|0|0|0,1:0|3:0|3:0|3:0,0:0:0:0:
289,319,71603,6,0,P|365:336|428:288,1,161.999995056153,12|10,0:0|0:0,0:0:0:0:
336,164,72674,2,0,P|325:164|315:168,4,20.2499993820191,0|0|0|0|10,1:0|3:0|3:0|3:0|0:0,0:0:0:0:
416,157,73210,1,2,0:0:0:0:
416,157,73389,2,0,P|442:113|429:72,1,80.9999975280763,2|10,3:0|0:0,0:0:0:0:
294,28,74103,2,0,P|297:50|302:71,2,26.9999991760254,2|0|0,3:0|0:0|0:0,0:0:0:0:
296,0,74460,6,0,L|123:24,1,161.999995056153,12|0,0:0|1:0,0:0:0:0:
38,141,75532,2,0,L|11:144,2,26.9999991760254,0|0|0,3:0|3:0|3:0,0:0:0:0:
71,137,75889,1,10,0:0:0:0:
100,207,76067,1,0,1:0:0:0:
129,277,76246,1,2,3:0:0:0:
271,219,76603,1,4,1:2:0:0:
300,289,76781,1,10,0:0:0:0:
329,359,76960,2,0,L|442:344,1,80.9999975280763,2|12,3:0|0:0,0:0:0:0:
490,315,77496,5,2,0:0:0:0:
490,315,77674,2,0,P|515:271|499:215,1,90,10|2,0:0|1:2,0:0:0:0:
447,183,78210,1,2,0:0:0:0:
447,183,78389,1,2,1:2:0:0:
467,13,78746,2,0,P|489:7|512:4,2,45,10|2|2,0:0|0:0|1:2,0:0:0:0:
447,183,79460,1,2,1:2:0:0:
447,183,79639,2,0,P|415:149|417:93,1,90,2|0,0:0|0:0,0:0:0:0:
376,30,80174,6,0,L|268:19,1,90,10|10,0:0|0:0,0:0:0:0:
172,148,80889,2,0,L|64:137,1,90,2|2,1:2|1:2,0:0:0:0:
64,149,81365,1,0,3:0:0:0:
45,158,81484,1,0,3:0:0:0:
26,168,81603,2,0,L|17:212,2,45,10|2|2,0:0|0:0|1:2,0:0:0:0:
153,283,82317,2,0,L|144:327,1,45,10|2,0:0|1:2,0:0:0:0:
223,361,82674,1,2,1:2:0:0:
239,276,82853,1,0,1:0:0:0:
256,192,83032,1,4,3:1:0:0:
256,192,83210,12,2,85889,0:0:0:0:
