osu file format v14

[General]
AudioFilename: audio.mp3
AudioLeadIn: 0
PreviewTime: 47674
Countdown: 0
SampleSet: Soft
StackLeniency: 0.7
Mode: 0
LetterboxInBreaks: 0
WidescreenStoryboard: 0

[Editor]
DistanceSpacing: 0.7
BeatDivisor: 8
GridSize: 32
TimelineZoom: 1.3

[Metadata]
Title:SWEET HURT (TV Size)
TitleUnicode:SWEET HURT (TV Size)
Artist:ReoNa
ArtistUnicode:ReoNa
Creator:Garden
Version:Destined
Source:ハッピーシュガーライフ
Tags:happy sugar life ending anime japanese j-pop jpop
BeatmapID:2835255
BeatmapSetID:1371297

[Difficulty]
HPDrainRate:7
CircleSize:5
OverallDifficulty:8
ApproachRate:9
SliderMultiplier:2
SliderTickRate:1

[Events]
//Background and Video events
0,0,"1040190.jpg",0,0
//Break Periods
//Storyboard Layer 0 (Background)
//Storyboard Layer 1 (Fail)
//Storyboard Layer 2 (Pass)
//Storyboard Layer 3 (Foreground)
//Storyboard Layer 4 (Overlay)
//Storyboard Sound Samples

[TimingPoints]
175,714.285714285714,4,2,1,20,1,0
5889,-133.333333333333,4,2,1,20,0,0
8587,-100,4,2,1,20,0,0
8746,-133.333333333333,4,2,1,20,0,0
9817,-149.253731343284,4,2,1,20,0,0
10472,-133.333333333333,4,2,1,5,0,0
11603,-100,4,2,1,40,0,0
12585,-100,4,2,1,5,0,0
12674,-100,4,2,1,40,0,0
14014,-100,4,2,1,5,0,0
14103,-100,4,2,1,40,0,0
18299,-100,4,2,1,5,0,0
18389,-100,4,2,1,40,0,0
19728,-100,4,2,1,5,0,0
19817,-100,4,2,1,40,0,0
24014,-100,4,2,1,5,0,0
24103,-100,4,2,1,40,0,0
25442,-100,4,2,1,5,0,0
25532,-100,4,2,1,40,0,0
34460,-83.3333333333333,4,2,1,50,0,0
35174,-125,4,2,1,50,0,0
35532,-100,4,2,1,50,0,0
37317,-83.3333333333333,4,2,1,50,0,0
38032,-125,4,2,1,50,0,0
38389,-100,4,2,1,50,0,0
42674,-83.3333333333333,4,2,1,50,0,0
42942,-83.3333333333333,4,2,1,10,0,0
43032,-125,4,2,1,50,0,0
45889,-50,4,2,1,50,0,0
46157,-50,4,2,1,5,0,0
46246,-50,4,2,1,50,0,0
46514,-50,4,2,1,5,0,0
46603,-50,4,2,1,50,0,0
46871,-50,4,2,1,5,0,0
46960,-50,4,2,1,50,0,0
47228,-50,4,2,1,5,0,0
47317,-50,4,2,1,50,0,0
48032,-100,4,2,1,50,0,0
48746,-66.6666666666667,4,2,1,66,0,1
50264,-66.6666666666667,4,2,1,44,0,1
50889,-66.6666666666667,4,2,1,66,0,1
51871,-66.6666666666667,4,2,1,6,0,1
51960,-66.6666666666667,4,2,1,66,0,1
60442,-66.6666666666667,4,2,1,6,0,1
60532,-66.6666666666667,4,2,1,66,0,1
61603,-100,4,2,1,66,0,1
61960,-66.6666666666667,4,2,1,66,0,1
63299,-66.6666666666667,4,2,1,6,0,1
63389,-66.6666666666667,4,2,1,66,0,1
67585,-66.6666666666667,4,2,1,6,0,1
67674,-66.6666666666667,4,2,1,66,0,1
71603,-100,4,2,1,66,0,0
81692,-100,4,2,1,55,0,0
82317,-100,4,2,1,66,0,0
83210,-100,4,2,1,40,0,0

[Colours]
Combo1 : 255,128,255
Combo2 : 128,128,255

[HitObjects]
21,350,175,5,2,0:0:0:0:
45,284,532,1,2,0:0:0:0:
103,245,889,1,2,0:0:0:0:
171,236,1246,1,2,0:0:0:0:
239,256,1484,6,0,L|236:281,2,16.6666666666667,0|2|2,0:0|0:0|0:0,0:0:0:0:
226,183,1960,1,2,0:0:0:0:
293,148,2317,1,2,0:0:0:0:
347,200,2674,1,2,0:0:0:0:
314,268,3032,5,2,0:0:0:0:
293,148,3389,1,2,0:0:0:0:
400,89,3746,1,2,0:0:0:0:
486,175,4103,1,2,0:0:0:0:
436,286,4341,6,0,L|439:312,2,16.6666666666667,0|2|2,0:0|0:0|0:0,0:0:0:0:
428,216,4817,1,0,0:0:0:0:
486,175,5174,1,2,0:0:0:0:
423,206,5532,1,0,0:0:0:0:
350,196,5770,6,0,P|352:185|360:172,2,16.6666666666667,0|2|2,0:0|0:0|0:0,0:0:0:0:
419,217,6246,1,0,0:0:0:0:
436,286,6603,2,0,P|428:322|400:346,1,75.0000028610231,2|0,0:0|0:0,0:0:0:0:
326,359,7317,5,2,0:0:0:0:
288,293,7674,1,2,0:0:0:0:
218,264,8032,1,2,0:0:0:0:
144,276,8389,1,2,0:0:0:0:
84,324,8587,6,0,P|85:338|96:346,2,22.2222222222222,0|2|2,0:0|0:0|0:0,0:0:0:0:
144,276,9103,2,0,P|174:246|176:210,1,75.0000028610231,2|0,0:0|0:0,0:0:0:0:
144,276,9817,2,0,P|63:245|178:220,1,301.499985738373,2|0,0:0|0:0,0:0:0:0:
215,275,11603,5,2,0:0:0:0:
143,359,11782,1,0,0:0:0:0:
223,283,11960,1,0,0:0:0:0:
295,199,12139,1,2,0:3:0:0:
231,290,12317,2,0,L|254:377,1,75
262,369,12674,2,0,L|246:312,1,50,2|0,0:0|0:0,0:0:0:0:
295,199,13032,5,2,0:0:0:0:
377,300,13210,1,0,0:0:0:0:
248,320,13389,1,0,0:0:0:0:
307,272,13567,1,0,0:0:0:0:
369,225,13746,2,0,P|373:183|351:148,1,75,2|0,0:3|0:0,0:0:0:0:
347,146,14103,2,0,P|355:121|374:102,1,50,2|0,0:0|0:0,0:0:0:0:
495,49,14460,6,0,L|396:34,1,100,2|2,0:0|0:0,0:0:0:0:
396,34,14996,1,0,0:0:0:0:
446,116,15174,2,0,L|459:164,1,50,2|0,0:0|0:0,0:0:0:0:
322,48,15532,2,0,L|308:0,1,50,2|0,0:0|0:0,0:0:0:0:
172,197,15889,5,2,0:0:0:0:
243,173,16067,1,0,0:0:0:0:
315,152,16246,1,0,0:0:0:0:
186,121,16424,1,0,0:0:0:0:
55,94,16603,2,0,P|57:154|88:179,1,100,2|2,0:3|0:0,0:0:0:0:
84,177,17139,1,0,0:0:0:0:
0,347,17317,5,2,0:0:0:0:
39,283,17496,1,0,0:0:0:0:
108,253,17674,1,0,0:0:0:0:
182,254,17853,1,2,0:3:0:0:
247,292,18032,2,0,L|236:381,1,75
223,374,18389,2,0,L|229:325,1,50,2|0,0:0|0:0,0:0:0:0:
243,173,18746,5,2,0:0:0:0:
108,253,18924,1,0,0:0:0:0:
247,292,19103,1,0,0:0:0:0:
175,212,19282,1,0,0:0:0:0:
104,132,19460,2,0,P|89:89|111:50,1,75,2|0,0:3|0:0,0:0:0:0:
109,49,19817,2,0,P|84:44|66:27,1,50,2|0,0:0|0:0,0:0:0:0:
176,92,20174,6,0,L|274:73,1,100,2|2,0:0|0:0,0:0:0:0:
274,73,20710,1,0,0:0:0:0:
445,1,20889,2,0,L|431:68,1,50,2|0,0:0|0:0,0:0:0:0:
343,149,21246,2,0,L|353:100,1,50,2|0,0:0|0:0,0:0:0:0:
362,85,21514,1,0,0:0:0:0:
362,85,21603,6,0,P|426:74|477:133,1,150,2|0,0:0|0:0,0:0:0:0:
512,282,22317,1,2,0:0:0:0:
417,186,22496,1,2,0:3:0:0:
493,208,22674,1,2,0:3:0:0:
362,243,22853,1,0,0:0:0:0:
362,243,22942,1,0,0:0:0:0:
362,243,23032,5,2,0:0:0:0:
477,133,23210,1,0,0:0:0:0:
436,263,23389,1,0,0:0:0:0:
304,299,23567,1,2,0:3:0:0:
198,211,23746,2,0,L|210:137,1,75
225,131,24103,2,0,L|214:195,1,50,2|0,0:0|0:0,0:0:0:0:
169,340,24460,5,2,0:0:0:0:
79,226,24639,1,0,0:0:0:0:
216,180,24817,1,0,0:0:0:0:
125,284,24996,1,0,0:0:0:0:
31,384,25174,2,0,P|3:357|-4:320,1,75,2|0,0:3|0:0,0:0:0:0:
0,308,25532,2,0,P|28:306|53:293,1,50,2|0,0:0|0:0,0:0:0:0:
216,180,25889,6,0,L|95:159,1,100,2|2,0:0|0:0,0:0:0:0:
117,162,26424,1,0,0:0:0:0:
172,54,26603,2,0,L|180:104,1,50,2|0,0:0|0:0,0:0:0:0:
46,223,26960,2,0,L|38:173,1,50,2|0,0:0|0:0,0:0:0:0:
38,156,27228,1,0,0:0:0:0:
38,156,27317,5,2,0:0:0:0:
216,180,27674,1,0,0:0:0:0:
394,204,28032,1,2,0:3:0:0:
330,155,28389,5,2,0:0:0:0:
319,234,28567,1,0,0:0:0:0:
308,313,28746,6,0,P|387:278|395:220,1,150,2|0,0:0|0:0,0:0:0:0:
463,180,29460,6,0,B|409:201|409:201|329:154,1,150,2|0,0:0|0:0,0:0:0:0:
249,162,30174,6,0,P|328:127|336:69,1,150,2|0,0:0|0:0,0:0:0:0:
271,4,30889,5,2,0:0:0:0:
260,83,31067,1,0,0:0:0:0:
249,162,31246,1,2,0:0:0:0:
0,274,31603,5,8,0:0:0:0:
146,243,31782,1,8,0:0:0:0:
48,330,31960,5,2,0:3:0:0:
121,314,32139,1,2,0:0:0:0:
98,384,32317,5,2,0:3:0:0:
98,384,32496,6,0,L|76:281,1,100,2|0,0:0|0:0,0:0:0:0:
249,162,33032,5,8,0:0:0:0:
201,303,33210,1,8,0:0:0:0:
303,219,33389,5,2,0:3:0:0:
278,289,33567,1,2,0:0:0:0:
190,219,33746,5,2,0:3:0:0:
354,277,33924,1,2,0:0:0:0:
512,355,34103,5,2,0:3:0:0:
348,297,34282,1,0,3:0:0:0:
348,297,34371,1,0,3:0:0:0:
348,297,34460,6,0,P|428:275|444:183,1,179.999994506836,10|8,0:0|0:0,0:0:0:0:
440,116,35174,2,0,P|402:126|378:158,1,80,2|0,1:2|0:0,0:0:0:0:
328,21,35889,5,10,0:0:0:0:
378,157,36067,2,0,L|394:51,1,100
167,47,36603,5,2,1:2:0:0:
268,96,36782,1,0,0:3:0:0:
378,157,36960,5,2,0:3:0:0:
277,108,37139,1,0,3:3:0:0:
193,300,37317,6,0,P|276:276|292:192,1,179.999994506836,10|8,0:0|0:0,0:0:0:0:
286,120,38032,2,0,P|248:130|224:162,1,80,2|0,1:2|0:0,0:0:0:0:
193,300,38567,1,2,0:0:0:0:
88,203,38746,5,8,0:0:0:0:
168,222,38924,1,2,0:0:0:0:
111,284,39103,2,0,L|8:265,1,100,2|2,0:3|1:2,0:0:0:0:
224,161,39817,1,2,0:0:0:0:
224,161,40174,5,10,0:0:0:0:
290,117,40353,1,0,0:0:0:0:
393,146,40532,5,2,0:3:0:0:
431,215,40710,1,0,3:0:0:0:
357,75,40889,6,0,P|441:58|471:1,1,150,2|0,1:2|0:0,0:0:0:0:
318,7,41603,5,10,0:0:0:0:
290,117,41782,1,0,0:0:0:0:
273,238,41960,5,2,0:3:0:0:
301,128,42139,1,0,0:0:0:0:
156,214,42317,6,0,L|216:197,1,50,2|0,1:2|3:0,0:0:0:0:
369,223,42674,2,0,L|268:252,1,89.9999972534181,2|0,0:0|0:0,0:0:0:0:
273,238,43032,6,0,P|361:251|369:322,1,160,2|0,0:0|0:0,0:0:0:0:
427,377,44460,2,0,P|369:325|291:325,1,160,2|2,0:0|0:0,0:0:0:0:
229,272,45353,1,0,0:0:0:0:
214,352,45532,1,2,0:0:0:0:
37,236,45710,1,8,0:0:0:0:
37,236,45799,1,8,0:0:0:0:
37,236,45889,6,0,B|127:193|127:193|181:234,1,150,4|0,1:2|0:0,0:0:0:0:
229,272,46246,6,0,P|184:219|200:143,1,150,4|0,1:0|0:0,0:0:0:0:
263,97,46603,6,0,B|207:124|207:124|127:62,1,150,4|0,1:2|0:0,0:0:0:0:
62,61,46960,6,0,B|152:63|110:18|219:19,1,150,4|0,1:0|0:0,0:0:0:0:
279,24,47317,5,10,0:0:0:0:
334,71,47436,1,0,1:0:0:0:
323,143,47555,1,0,1:0:0:0:
267,190,47674,5,8,0:0:0:0:
275,116,47794,1,4,0:3:0:0:
334,71,47913,1,4,0:3:0:0:
408,79,48032,6,0,L|424:140,1,50,4|2,1:2|0:3,0:0:0:0:
490,196,48389,1,2,0:3:0:0:
493,186,48478,1,2,0:3:0:0:
496,176,48567,1,2,0:3:0:0:
499,166,48657,1,2,0:3:0:0:
503,157,48746,6,0,P|407:158|350:271,1,225.000008583069,12|0,0:0|0:0,0:0:0:0:
472,333,49460,2,0,B|405:357|355:309|384:297|329:253|248:291,1,225.000008583069,4|0,3:1|0:0,0:0:0:0:
146,381,50174,5,12,0:0:0:0:
201,329,50294,1,0,1:0:0:0:
189,254,50413,1,0,1:0:0:0:
122,218,50532,5,0,1:0:0:0:
100,184,50651,1,0,1:0:0:0:
113,146,50770,1,0,1:0:0:0:
124,152,50889,5,2,1:2:0:0:
248,60,51067,1,2,1:2:0:0:
105,0,51246,1,2,1:2:0:0:
185,104,51424,1,0,1:0:0:0:
273,202,51603,6,0,P|330:199|371:145,1,112.500004291535,12|0,0:0|0:0,0:0:0:0:
369,87,51960,2,0,P|347:116|352:152,1,75.0000028610231,8|0,0:0|0:0,0:0:0:0:
369,331,52317,2,0,P|305:241|197:229,1,225.000008583069,2|0,1:2|0:0,0:0:0:0:
444,199,53032,5,10,0:0:0:0:
357,255,53210,1,2,0:0:0:0:
352,152,53389,1,8,0:0:0:0:
352,152,53746,5,2,1:2:0:0:
433,274,53924,1,2,0:0:0:0:
309,358,54103,5,2,0:3:0:0:
228,236,54282,1,2,0:0:0:0:
385,339,54460,6,0,B|344:348|310:330|327:318|289:295|237:314,1,150.000005722046,12|8,0:0|0:0,0:0:0:0:
243,312,54996,1,2,0:3:0:0:
94,384,55174,2,0,P|151:339|153:267,1,150.000005722046,2|0,1:2|0:0,0:0:0:0:
47,123,55710,1,0,3:0:0:0:
47,123,55799,1,0,3:0:0:0:
47,123,55889,2,0,B|-15:152|-41:215|-9:273|68:265|72:213,1,225.000008583069,10|0,0:0|0:0,0:0:0:0:
138,150,56603,5,2,1:2:0:0:
115,54,56782,1,2,0:0:0:0:
47,123,56960,1,2,0:3:0:0:
214,89,57139,1,0,3:0:0:0:
214,89,57228,1,0,3:0:0:0:
214,89,57317,6,0,P|296:100|328:166,1,150.000005722046,12|8,0:0|0:0,0:0:0:0:
306,236,57853,1,2,0:3:0:0:
453,209,58032,6,0,L|305:236,1,150.000005722046,2|8,1:2|0:0,0:0:0:0:
224,258,58567,1,0,3:0:0:0:
224,258,58657,1,0,3:0:0:0:
224,258,58746,5,2,1:2:0:0:
247,336,58924,1,0,3:0:0:0:
319,374,59103,1,0,3:0:0:0:
397,348,59282,1,0,1:0:0:0:
141,299,59460,5,2,1:2:0:0:
177,174,59639,1,0,3:0:0:0:
293,113,59817,1,10,0:0:0:0:
418,155,59996,1,0,3:0:0:0:
88,220,60174,6,0,P|55:184|80:96,1,112.500004291535,12|0,0:0|0:0,0:0:0:0:
17,65,60532,2,0,P|51:79|69:111,1,75.0000028610231,8|0,0:0|0:0,0:0:0:0:
201,181,60889,2,0,P|91:183|21:266,1,225.000008583069,4|0,1:0|0:0,0:0:0:0:
9,348,61603,2,0,P|67:335|96:299,1,100,12|8,0:0|0:0,0:0:0:0:
222,32,62317,5,2,1:2:0:0:
340,124,62496,1,2,0:0:0:0:
201,181,62674,1,2,0:3:0:0:
253,115,62853,1,0,3:0:0:0:
253,115,62942,1,0,3:0:0:0:
253,115,63032,6,0,P|285:158|272:226,1,112.500004291535,12|0,0:0|0:0,0:0:0:0:
205,261,63389,2,0,P|231:234|267:227,1,75.0000028610231,8|0,0:0|0:0,0:0:0:0:
382,111,63746,2,0,P|269:96|230:-2,1,225.000008583069,2|0,1:2|3:0,0:0:0:0:
229,2,64371,1,0,3:0:0:0:
229,2,64460,5,10,0:0:0:0:
253,115,64639,1,2,0:3:0:0:
149,80,64817,1,8,0:0:0:0:
149,80,65174,5,2,1:2:0:0:
301,52,65353,1,2,0:0:0:0:
329,204,65532,5,2,0:3:0:0:
177,232,65710,1,2,0:0:0:0:
306,130,65889,6,0,B|316:166|291:207|276:192|250:216|261:266,1,150.000005722046,12|8,0:0|0:0,0:0:0:0:
260,264,66424,1,2,0:3:0:0:
467,337,66603,2,0,P|426:273|354:262,1,150.000005722046,2|0,1:2|0:0,0:0:0:0:
306,130,67139,1,0,3:0:0:0:
306,130,67228,1,0,3:0:0:0:
306,130,67317,2,0,P|343:169|412:167,1,112.500004291535,10|0,0:0|0:0,0:0:0:0:
415,165,67674,2,0,P|433:125|423:87,1,75.0000028610231,8|0,0:0|0:0,0:0:0:0:
257,11,68032,5,2,1:2:0:0:
342,53,68210,1,2,0:0:0:0:
427,95,68389,5,0,3:0:0:0:
306,130,68567,1,2,0:0:0:0:
184,164,68746,6,0,L|212:10,1,150.000005722046,12|8,0:0|0:0,0:0:0:0:
210,16,69282,1,2,0:3:0:0:
241,231,69460,6,0,P|171:252|112:212,1,150.000005722046,4|0,1:2|0:0,0:0:0:0:
111,211,69996,1,2,0:3:0:0:
27,97,70174,5,10,0:0:0:0:
184,164,70353,1,0,1:0:0:0:
47,265,70532,1,8,0:3:0:0:
105,133,70710,1,0,3:0:0:0:
163,1,70889,6,0,P|183:31|190:68,1,75.0000028610231,2|0,1:2|0:0,0:0:0:0:
126,284,71246,1,0,1:0:0:0:
122,266,71335,1,0,3:0:0:0:
118,248,71424,1,0,3:0:0:0:
115,229,71514,1,0,3:0:0:0:
111,211,71603,6,0,L|309:237,1,200,12|10,0:0|0:0,0:0:0:0:
461,241,72674,2,0,L|456:272,3,25,0|0|0|0,1:0|3:0|3:0|3:0,0:0:0:0:
399,308,73032,5,10,0:0:0:0:
512,188,73210,1,2,0:0:0:0:
447,35,73389,1,2,3:0:0:0:
447,35,73746,5,10,0:0:0:0:
479,111,73924,1,2,0:0:0:0:
423,171,74103,2,0,L|371:165,1,50,2|0,3:0|0:0,0:0:0:0:
241,213,74460,6,0,P|332:183|351:90,1,200,12|0,0:0|1:0,0:0:0:0:
198,28,75532,2,0,P|193:45|190:72,2,33.3333333333333,0|0|0,3:0|3:0|3:0,0:0:0:0:
266,0,75889,5,10,0:0:0:0:
122,84,76067,1,0,1:0:0:0:
174,243,76246,1,2,3:0:0:0:
174,243,76603,5,4,1:2:0:0:
147,163,76782,1,10,0:0:0:0:
220,121,76960,2,0,P|248:122|275:134,1,50,2|0,3:0|0:0,0:0:0:0:
423,72,77317,5,12,0:0:0:0:
293,203,77496,1,2,0:0:0:0:
470,251,77674,1,10,0:0:0:0:
470,251,78032,5,2,1:2:0:0:
382,227,78210,1,2,0:0:0:0:
447,162,78389,1,2,1:2:0:0:
443,147,78478,1,0,3:0:0:0:
439,132,78567,1,0,3:0:0:0:
435,117,78657,1,0,3:0:0:0:
431,102,78746,5,10,0:0:0:0:
382,227,78924,1,2,0:0:0:0:
333,352,79103,1,2,1:2:0:0:
333,352,79460,5,2,1:2:0:0:
266,328,79639,1,2,0:0:0:0:
199,305,79817,1,2,1:2:0:0:
181,289,79936,1,0,3:0:0:0:
181,265,80055,1,0,3:0:0:0:
196,247,80174,5,10,0:0:0:0:
66,372,80353,1,2,0:0:0:0:
24,196,80532,1,10,0:0:0:0:
24,196,80889,5,2,1:2:0:0:
45,284,81067,1,2,0:0:0:0:
110,221,81246,1,2,1:2:0:0:
122,201,81365,1,0,3:0:0:0:
122,177,81484,1,0,3:0:0:0:
105,160,81603,6,0,L|89:113,2,33.3333333333333,10|4|4,0:0|0:3|0:3,0:0:0:0:
150,76,81960,2,0,L|138:44,2,33.3333333333333,2|0|0,1:2|1:0|1:0,0:0:0:0:
66,32,82317,5,10,0:0:0:0:
224,91,82496,5,2,1:2:0:0:
299,205,82674,5,2,1:2:0:0:
304,287,82853,5,0,1:0:0:0:
256,338,83032,5,4,3:1:0:0:
256,192,83210,12,2,85889,0:0:0:0:
