osu file format v14

[General]
AudioFilename: audio.mp3
AudioLeadIn: 0
PreviewTime: 202095
Countdown: 0
SampleSet: Soft
StackLeniency: 0.5
Mode: 0
LetterboxInBreaks: 0
WidescreenStoryboard: 1

[Editor]
Bookmarks: 11649,23078,34506,48792,60220,71649,83078,94506,105935,117363,131649,143078,154506,163078,171649,183078,194506,203078,217363,228792,245935,257363
DistanceSpacing: 1
BeatDivisor: 8
GridSize: 32
TimelineZoom: 1.3

[Metadata]
Title:SWEET HURT
TitleUnicode:SWEET HURT
Artist:ReoNa
ArtistUnicode:ReoNa
Creator:Shirahane Suou
Version:Insane
Source:ハッピーシュガーライフ
Tags:happy sugar life ed ending japanese anime pop jpop j-pop iceluin
BeatmapID:4243035
BeatmapSetID:2035107

[Difficulty]
HPDrainRate:5
CircleSize:4.2
OverallDifficulty:8
ApproachRate:9
SliderMultiplier:1.6
SliderTickRate:1

[Events]
//Background and Video events
0,0,"reona.jpg",0,0
//Break Periods
//Storyboard Layer 0 (Background)
//Storyboard Layer 1 (Fail)
//Storyboard Layer 2 (Pass)
//Storyboard Layer 3 (Foreground)
//Storyboard Layer 4 (Overlay)
//Storyboard Sound Samples

[TimingPoints]
221,714.285714285714,4,2,1,35,1,0
221,-117.647058823529,4,2,1,35,0,0
5220,-166.666666666667,4,2,1,35,0,0
5935,-100,4,2,1,35,0,0
9863,-200,4,2,1,35,0,0
11649,-83.3333333333333,4,2,1,35,0,0
15220,-142.857142857143,4,2,1,35,0,0
15935,-83.3333333333333,4,2,1,35,0,0
20935,-142.857142857143,4,2,1,35,0,0
21649,-71.4285714285714,4,2,1,35,0,0
23078,-83.3333333333333,4,2,1,35,0,0
26649,-142.857142857143,4,2,1,35,0,0
27363,-83.3333333333333,4,2,1,35,0,0
30935,-200,4,2,1,35,0,0
31649,-83.3333333333333,4,2,1,35,0,0
34506,-71.4285714285714,4,2,1,50,0,0
35220,-100,4,2,1,50,0,0
35935,-71.4285714285714,4,2,1,50,0,0
36649,-100,4,2,1,50,0,0
37363,-71.4285714285714,4,2,1,50,0,0
38078,-100,4,2,1,50,0,0
38792,-71.4285714285714,4,2,1,50,0,0
40935,-100,4,2,1,50,0,0
41649,-71.4285714285714,4,2,1,50,0,0
43078,-71.4285714285714,4,2,1,40,0,0
45220,-133.333333333333,4,2,1,40,0,0
45935,-71.4285714285714,4,2,1,65,0,0
48078,-133.333333333333,4,2,1,65,0,0
48792,-62.5,4,2,1,75,0,1
49506,-50,4,2,1,75,0,1
51649,-62.5,4,2,1,75,0,1
52006,-83.3333333333333,4,2,1,75,0,1
52363,-50,4,2,1,75,0,1
53078,-83.3333333333333,4,2,1,75,0,1
54506,-62.5,4,2,1,75,0,1
54863,-83.3333333333333,4,2,1,75,0,1
55220,-50,4,2,1,75,0,1
55935,-83.3333333333333,4,2,1,75,0,1
57363,-62.5,4,2,1,75,0,1
57720,-83.3333333333333,4,2,1,75,0,1
58078,-50,4,2,1,75,0,1
60220,-62.5,4,2,1,75,0,1
60578,-83.3333333333333,4,2,1,75,0,1
60934,-50,4,2,1,75,0,1
61649,-83.3333333333333,4,2,1,75,0,1
63078,-62.5,4,2,1,75,0,1
63435,-83.3333333333333,4,2,1,75,0,1
63792,-50,4,2,1,75,0,1
64506,-83.3333333333333,4,2,1,75,0,1
65935,-62.5,4,2,1,75,0,1
66292,-83.3333333333333,4,2,1,75,0,1
66649,-50,4,2,1,75,0,1
67363,-83.3333333333333,4,2,1,75,0,1
68792,-62.5,4,2,1,75,0,1
69149,-83.3333333333333,4,2,1,75,0,1
69506,-50,4,2,1,75,0,1
71649,-62.5,4,2,1,70,0,0
73792,-50,4,2,1,70,0,0
74506,-62.5,4,2,1,70,0,0
76292,-83.3333333333333,4,2,1,70,0,0
76649,-62.5,4,2,1,70,0,0
77720,-133.333333333333,4,2,1,70,0,0
78078,-62.5,4,2,1,70,0,0
80220,-50,4,2,1,70,0,0
80578,-133.333333333333,4,2,1,70,0,0
80935,-50,4,2,1,70,0,0
81292,-133.333333333333,4,2,1,70,0,0
83078,-111.111111111111,4,2,1,40,0,0
94506,-76.9230769230769,4,2,1,50,0,0
105935,-153.846153846153,4,2,1,40,0,0
108792,-111.111111111111,4,2,1,40,0,0
109506,-153.846153846153,4,2,1,40,0,0
110220,-111.111111111111,4,2,1,40,0,0
111649,-83.3333333333333,4,2,1,60,0,0
112363,-71.4285714285714,4,2,1,60,0,0
113078,-62.5,4,2,1,60,0,0
113792,-83.3333333333333,4,2,1,60,0,0
117363,-71.4285714285714,4,2,1,60,0,0
119506,-125,4,2,1,60,0,0
120220,-71.4285714285714,4,2,1,60,0,0
122006,-111.111111111111,4,2,1,60,0,0
123078,-166.666666666666,4,2,1,60,0,0
124506,-71.4285714285714,4,2,1,60,0,0
125935,-100,4,2,1,40,0,0
128792,-50,4,2,1,60,0,0
129506,-62.5,4,2,1,60,0,0
130220,-83.3333333333333,4,2,1,60,0,0
131649,-62.5,4,2,1,75,0,1
132363,-50,4,2,1,75,0,1
133078,-83.3333333333333,4,2,1,75,0,1
134506,-62.5,4,2,1,75,0,1
134863,-83.3333333333333,4,2,1,75,0,1
135220,-50,4,2,1,75,0,1
135935,-83.3333333333333,4,2,1,75,0,1
137363,-62.5,4,2,1,75,0,1
137720,-83.3333333333333,4,2,1,75,0,1
138077,-50,4,2,1,75,0,1
138792,-83.3333333333333,4,2,1,75,0,1
140220,-62.5,4,2,1,75,0,1
140577,-83.3333333333333,4,2,1,75,0,1
140935,-50,4,2,1,75,0,1
142006,-200,4,2,1,75,0,1
143077,-62.5,4,2,1,75,0,1
143435,-83.3333333333333,4,2,1,75,0,1
143791,-50,4,2,1,75,0,1
144506,-83.3333333333333,4,2,1,75,0,1
145935,-62.5,4,2,1,75,0,1
146292,-83.3333333333333,4,2,1,75,0,1
146649,-50,4,2,1,75,0,1
147363,-83.3333333333333,4,2,1,75,0,1
148792,-62.5,4,2,1,75,0,1
149149,-83.3333333333333,4,2,1,75,0,1
149506,-50,4,2,1,75,0,1
150220,-83.3333333333333,4,2,1,75,0,1
151649,-62.5,4,2,1,75,0,1
152006,-83.3333333333333,4,2,1,75,0,1
152363,-50,4,2,1,75,0,1
154149,-100,4,2,1,75,0,1
154506,-55.5555555555556,4,2,1,70,0,0
158078,-62.5,4,2,1,70,0,0
159685,-41.6666666666667,4,2,1,70,0,0
160220,-62.5,4,2,1,70,0,0
168792,-100,4,2,1,70,0,0
169149,-80,4,2,1,70,0,0
169506,-66.6666666666667,4,2,1,70,0,0
169863,-57.1428571428571,4,2,1,70,0,0
170220,-40,4,2,1,70,0,0
170935,-50,4,2,1,70,0,0
171649,-71.4285714285714,4,2,1,55,0,0
183078,-71.4285714285714,4,2,1,55,0,0
194506,-71.4285714285714,4,2,1,65,0,0
198435,-153.846153846153,4,2,1,65,0,0
200220,-100,4,2,1,35,0,0
203078,-200,4,2,1,35,0,0
208792,-117.647058823529,4,2,1,40,0,0
212363,-100,4,2,1,40,0,0
214506,-400,4,2,1,40,0,0
216292,-133.333333333333,4,2,1,40,0,0
216649,-40,4,2,1,40,0,0
217363,-62.5,4,2,1,65,0,0
218078,-50,4,2,1,65,0,0
220220,-62.5,4,2,1,75,0,1
220578,-71.4285714285714,4,2,1,75,0,1
220935,-50,4,2,1,75,0,1
221649,-83.3333333333333,4,2,1,75,0,1
223078,-62.5,4,2,1,75,0,1
223435,-83.3333333333333,4,2,1,75,0,1
223792,-50,4,2,1,75,0,1
224507,-83.3333333333333,4,2,1,75,0,1
225935,-62.5,4,2,1,75,0,1
226292,-83.3333333333333,4,2,1,75,0,1
226650,-50,4,2,1,75,0,1
227363,-133.333333333333,4,2,1,75,0,1
227720,-50,4,2,1,75,0,1
228792,-62.5,4,2,1,75,0,1
229149,-83.3333333333333,4,2,1,75,0,1
229506,-50,4,2,1,75,0,1
230220,-83.3333333333333,4,2,1,75,0,1
231649,-62.5,4,2,1,75,0,1
232006,-83.3333333333333,4,2,1,75,0,1
232363,-50,4,2,1,75,0,1
232720,-133.333333333333,4,2,1,75,0,1
234506,-62.5,4,2,1,75,0,1
235220,-50,4,2,1,75,0,1
235935,-62.5,4,2,1,75,0,1
237720,-83.3333333333333,4,2,1,75,0,1
238792,-62.5,4,2,1,75,0,1
240220,-100,4,2,1,40,0,0
240935,-100,4,2,1,40,0,0
241649,-100,4,2,1,40,0,0
242185,-100,4,2,1,65,0,0
243078,-71.4285714285714,4,2,1,65,0,0
245935,-33.3333333333333,4,2,1,75,0,0
246292,-250,4,2,1,75,0,0
246649,-50,4,2,1,75,0,0
247006,-250,4,2,1,75,0,0
247363,-50,4,2,1,75,0,0
247720,-83.3333333333333,4,2,1,75,0,0
248078,-41.6666666666667,4,2,1,75,0,0
248435,-83.3333333333333,4,2,1,75,0,0
248792,-33.3333333333333,4,2,1,75,0,0
249149,-250,4,2,1,75,0,0
249506,-50,4,2,1,75,0,0
249863,-250,4,2,1,75,0,0
250220,-50,4,2,1,75,0,0
251649,-33.3333333333333,4,2,1,75,0,0
252006,-250,4,2,1,75,0,0
252363,-50,4,2,1,75,0,0
252720,-250,4,2,1,75,0,0
253077,-50,4,2,1,75,0,0
253434,-83.3333333333333,4,2,1,75,0,0
253792,-41.6666666666667,4,2,1,75,0,0
254149,-83.3333333333333,4,2,1,75,0,0
254506,-33.3333333333333,4,2,1,75,0,0
254863,-250,4,2,1,75,0,0
255220,-50,4,2,1,75,0,0
255577,-250,4,2,1,75,0,0
255935,-33.3333333333333,4,2,1,75,0,0
256292,-38.4615384615385,4,2,1,75,0,0
256649,-33.3333333333333,4,2,1,75,0,0
257363,-33.3333333333333,4,2,1,75,0,0
257720,-250,4,2,1,75,0,0
258078,-50,4,2,1,75,0,0
258435,-250,4,2,1,75,0,0
258792,-50,4,2,1,75,0,0
259149,-83.3333333333333,4,2,1,75,0,0
259506,-41.6666666666667,4,2,1,75,0,0
259863,-83.3333333333333,4,2,1,75,0,0
263078,-100,4,2,1,55,0,0
263792,-100,4,2,1,35,0,0
265935,-100,4,2,1,25,0,0
268078,-100,4,2,1,5,0,0

[Colours]
Combo1 : 146,210,224
Combo2 : 234,159,187
Combo3 : 209,176,213
Combo4 : 167,184,222

[HitObjects]
480,256,221,6,0,L|488:223,1,34.0000006484985,2|0,0:0|0:0,0:0:0:0:
411,204,578,2,0,L|402:236,1,34.0000006484985
426,318,935,2,0,P|392:325|360:336,1,68.0000012969971
248,237,1530,5,0,0:0:0:0:
254,235,1590,1,0,0:0:0:0:
262,238,1649,2,0,P|283:263|281:296,1,68.0000012969971,2|0,0:0|0:0,0:0:0:0:
107,356,2363,2,0,P|85:330|87:297,1,68.0000012969971,2|0,0:0|0:0,0:0:0:0:
128,177,3078,5,2,0:0:0:0:
167,253,3435,5,2,0:0:0:0:
260,292,3792,5,2,0:0:0:0:
378,278,4149,5,2,0:0:0:0:
459,189,4387,5,0,0:0:0:0:
463,184,4447,1,0,0:0:0:0:
468,178,4506,2,0,P|474:145|453:119,1,68.0000012969971,2|0,0:0|0:0,0:0:0:0:
256,32,5220,6,0,P|268:70|278:108,1,79.9999975585938
281,117,5875,1,0,0:0:0:0:
284,126,5935,6,0,P|220:82|142:102,2,160,2|0|2,0:0|0:0|0:0,0:0:0:0:
368,82,7720,5,2,0:0:0:0:
448,164,8078,5,2,0:0:0:0:
410,297,8435,5,2,0:0:0:0:
262,356,8792,6,0,P|240:351|216:347,1,40,2|0,0:0|0:0,0:0:0:0:
220,260,9149,2,0,P|258:269|297:278,1,80
138,375,9863,6,0,P|116:282|89:191,1,190,2|0,0:0|0:0,0:0:0:0:
79,181,11649,6,0,P|50:187|31:205,2,47.9999985351563,2|0|0,0:0|0:0|0:0,0:0:0:0:
115,96,12185,2,0,P|136:105|151:124,1,47.9999985351563
301,205,12720,1,2,0:0:0:0:
301,205,12899,1,0,0:0:0:0:
250,281,13078,6,0,P|261:301|267:325,2,47.9999985351563,2|0|0,0:0|0:0|0:0,0:0:0:0:
162,247,13613,2,0,P|179:230|191:209,1,47.9999985351563
325,120,14149,1,2,0:0:0:0:
325,120,14328,1,0,0:0:0:0:
145,87,14506,6,0,P|155:108|162:131,1,47.9999985351563,2|0,0:0|0:0,0:0:0:0:
236,100,14863,2,0,P|229:76|218:55,1,47.9999985351563,2|0,0:0|0:0,0:0:0:0:
103,196,15220,2,0,P|94:224|82:250,1,55.9999982910157,2|0,0:0|0:0,0:0:0:0:
294,372,15935,6,0,P|283:350|276:327,1,47.9999985351563,2|0,0:0|0:0,0:0:0:0:
195,285,16292,2,0,P|208:265|224:247,1,47.9999985351563
367,138,16649,2,0,L|409:147,2,23.9999992675781
318,255,17006,1,0,0:0:0:0:
403,229,17185,1,0,0:0:0:0:
263,131,17363,6,0,P|274:152|279:175,2,47.9999985351563,2|0|0,0:0|0:0|0:0,0:0:0:0:
180,162,17899,2,0,P|185:185|197:207,1,47.9999985351563
308,343,18435,1,2,0:0:0:0:
308,343,18613,1,0,0:0:0:0:
396,310,18792,6,0,P|425:323|449:325,2,47.9999985351563,2|0|0,0:0|0:0|0:0,0:0:0:0:
439,239,19328,2,0,P|464:220|478:200,1,47.9999985351563
330,50,19863,1,2,0:0:0:0:
330,50,20042,1,0,0:0:0:0:
399,159,20220,6,0,P|395:127|385:105,1,47.9999985351563,2|0,0:0|0:0,0:0:0:0:
312,132,20578,2,0,P|315:163|325:185,1,47.9999985351563,2|0,0:0|0:0,0:0:0:0:
440,325,20935,2,0,L|378:309,1,55.9999982910157,2|0,0:0|0:0,0:0:0:0:
230,178,21649,5,2,0:0:0:0:
203,249,21828,1,0,0:0:0:0:
123,266,22006,1,0,0:0:0:0:
46,219,22185,1,0,0:0:0:0:
62,113,22363,2,0,P|55:85|44:60,2,55.9999982910157
265,205,23078,6,0,P|252:185|229:177,2,47.9999985351563,2|0|0,0:0|0:0|0:0,0:0:0:0:
343,167,23613,2,0,P|347:143|337:122,1,47.9999985351563
196,30,24149,1,2,0:0:0:0:
196,30,24328,1,0,0:0:0:0:
279,52,24507,6,0,P|268:72|257:98,2,47.9999985351563,2|0|0,0:0|0:0|0:0,0:0:0:0:
354,15,25042,2,0,P|365:35|382:52,1,47.9999985351563
325,120,25578,1,2,0:0:0:0:
325,120,25757,1,0,0:0:0:0:
467,201,25935,6,0,P|471:224|452:242,1,47.9999985351563,2|0,0:0|0:0,0:0:0:0:
376,220,26292,2,0,P|371:196|390:178,1,47.9999985351563,2|0,0:0|0:0,0:0:0:0:
505,319,26649,2,0,P|477:325|450:332,1,55.9999982910157,2|0,0:0|0:0,0:0:0:0:
299,266,27363,6,0,P|282:249|286:226,1,47.9999985351563,2|0,0:0|0:0,0:0:0:0:
201,212,27720,2,0,P|201:188|219:174,1,47.9999985351563
296,141,28078,1,0,0:0:0:0:
159,294,28435,5,0,0:0:0:0:
159,294,28613,1,0,0:0:0:0:
159,294,28792,2,0,P|184:300|214:307,2,47.9999985351563,2|0|0,0:0|0:0|0:0,0:0:0:0:
0,335,29328,1,0,0:0:0:0:
95,384,29506,2,0,P|79:316|57:235,1,143.999995605469,2|0,0:0|0:0,0:0:0:0:
169,115,30221,6,0,P|192:114|211:128,2,47.9999985351563,2|0|0,0:0|0:0|0:0,0:0:0:0:
114,176,30756,1,0,0:0:0:0:
51,50,30935,6,0,P|28:75|34:108,1,70,2|0,0:0|0:0,0:0:0:0:
48,121,31649,5,2,1:2:0:0:
105,223,31828,2,0,P|110:193|114:169,2,47.9999985351563,0|0|0,1:0|0:0|0:0,0:0:0:0:
210,140,32363,1,2,0:0:0:0:
210,140,32542,2,0,P|201:187|194:234,1,95.9999970703126,2|0,0:0|0:0,0:0:0:0:
311,379,33078,5,2,1:2:0:0:
249,311,33257,2,0,P|261:291|284:286,1,47.9999985351563,0|0,1:0|0:0,0:0:0:0:
292,288,33524,1,0,0:0:0:0:
298,293,33613,1,0,0:0:0:0:
446,365,33792,2,0,P|449:344|455:317,1,47.9999985351563,0|0,3:0|0:0,0:0:0:0:
445,176,34149,5,8,0:0:0:0:
461,183,34238,1,8,0:0:0:0:
467,199,34328,1,8,0:0:0:0:
463,215,34417,1,8,0:0:0:0:
453,223,34506,6,0,P|426:229|396:244,1,55.9999982910157,6|0,1:2|0:0,0:0:0:0:
320,187,34863,2,0,P|293:193|263:208,1,55.9999982910157,0|0,1:0|1:0,0:0:0:0:
156,367,35220,6,0,L|184:235,1,120,10|0,0:0|0:0,0:0:0:0:
22,194,35935,5,2,1:2:0:0:
22,194,36113,2,0,P|84:196|133:159,1,111.999996582031,2|0,0:0|0:0,0:0:0:0:
238,57,36649,6,0,P|230:38|223:19,1,40,10|0,0:0|0:0,0:0:0:0:
150,50,37006,2,0,P|157:68|164:87,1,40,0|0,0:0|1:0,0:0:0:0:
315,106,37363,6,0,P|348:93|378:93,1,55.9999982910157,2|0,1:2|0:0,0:0:0:0:
461,0,37720,2,0,P|427:12|397:12,1,55.9999982910157,0|0,1:0|0:0,0:0:0:0:
363,181,38078,6,0,L|393:310,1,120,10|0,0:0|0:0,0:0:0:0:
487,316,38792,5,2,1:2:0:0:
421,384,38970,1,2,0:0:0:0:
487,316,39149,2,0,L|473:259,1,55.9999982910157,2|0,0:0|0:0,0:0:0:0:
293,167,39506,5,8,0:0:0:0:
293,167,39863,2,0,P|262:194|204:192,1,83.9999974365235,2|0,1:2|0:0,0:0:0:0:
211,190,40220,5,2,1:2:0:0:
230,114,40399,1,2,0:0:0:0:
173,59,40578,1,2,0:0:0:0:
96,80,40757,1,2,1:2:0:0:
133,210,40935,6,0,L|16:188,1,120,10|0,0:0|0:0,0:0:0:0:
186,287,41649,5,2,1:2:0:0:
261,308,41828,1,2,0:0:0:0:
318,253,42007,1,2,0:0:0:0:
299,175,42186,1,2,0:0:0:0:
242,230,42363,5,10,0:0:0:0:
337,329,42542,1,0,1:0:0:0:
470,296,42720,2,0,L|485:231,1,55.9999982910157,2|0,0:0|0:0,0:0:0:0:
477,231,42988,1,0,0:0:0:0:
471,220,43078,5,2,0:0:0:0:
57,40,43792,1,2,0:0:0:0:
57,40,45220,6,0,L|77:135,1,90.0000034332277,2|0,0:2|1:0,0:0:0:0:
71,140,45845,1,0,1:0:0:0:
66,151,45935,5,6,1:2:0:0:
245,97,46113,1,0,1:0:0:0:
44,225,46292,5,10,0:0:0:0:
206,205,46470,1,0,1:0:0:0:
22,299,46649,5,10,0:0:0:0:
158,304,46828,1,0,1:0:0:0:
0,372,47006,5,10,0:0:0:0:
93,384,47185,1,0,1:0:0:0:
284,261,47363,5,8,0:0:0:0:
332,261,47482,5,8,0:0:0:0:
366,294,47601,5,8,0:0:0:0:
371,336,47720,5,0,1:0:0:0:
349,364,47840,5,0,1:0:0:0:
324,374,47959,5,0,1:0:0:0:
307,371,48078,6,0,L|290:321,3,30.0000011444092,10|0|0|0,0:0|0:0|0:0|0:0,0:0:0:0:
281,178,48792,6,0,B|304:222|254:269|243:253|193:291|212:340,1,192,6|0,1:2|0:0,0:0:0:0:
214,117,49506,6,0,P|256:229|296:342,1,240,6|0,1:2|0:0,0:0:0:0:
452,218,50220,5,10,0:0:0:0:
410,259,50340,5,8,0:0:0:0:
352,264,50459,5,8,0:0:0:0:
301,233,50578,5,8,0:0:0:0:
281,178,50697,5,8,0:0:0:0:
298,122,50816,5,8,0:0:0:0:
352,99,50935,5,10,0:0:0:0:
301,233,51113,1,10,0:0:0:0:
217,47,51292,1,10,0:0:0:0:
166,181,51470,1,10,0:0:0:0:
36,83,51649,6,0,P|64:47|110:50,1,96,6|0,1:2|0:0,0:0:0:0:
126,61,52006,2,0,P|117:83|111:106,1,47.9999985351563,0|0,1:0|0:0,0:0:0:0:
300,232,52363,6,0,P|183:228|95:305,1,240,10|2,0:0|0:0,0:0:0:0:
0,181,53078,6,0,P|-10:226|22:259,2,95.9999970703126,2|0|10,1:2|1:0|0:0,0:0:0:0:
213,103,53970,5,2,0:0:0:0:
118,101,54149,1,2,0:0:0:0:
88,192,54328,1,2,0:0:0:0:
242,283,54506,6,0,P|252:236|266:190,1,96,6|0,1:2|0:0,0:0:0:0:
282,179,54863,2,0,P|306:184|320:203,1,47.9999985351563,2|2,1:2|0:0,0:0:0:0:
123,285,55220,6,0,B|176:252|240:309|221:325|274:382|333:354,1,240,8|2,0:0|0:0,0:0:0:0:
445,225,55935,6,0,P|407:251|409:297,1,95.9999970703126,0|0,1:0|1:0,0:0:0:0:
409,297,56470,1,0,0:0:0:0:
512,145,56649,5,10,0:0:0:0:
412,131,56828,1,2,0:0:0:0:
325,181,57006,1,2,0:0:0:0:
303,281,57185,1,2,0:0:0:0:
126,181,57363,6,0,P|86:204|82:250,1,96,6|0,1:2|0:0,0:0:0:0:
80,266,57720,2,0,P|94:284|118:286,1,47.9999985351563,2|2,1:2|0:0,0:0:0:0:
243,80,58078,6,0,P|228:158|214:237,1,160,8|2,0:0|1:2,0:0:0:0:
408,150,58613,5,0,1:0:0:0:
408,150,58703,1,0,1:0:0:0:
408,150,58792,1,8,0:3:0:0:
439,232,58971,1,8,0:3:0:0:
357,263,59149,1,0,1:0:0:0:
325,181,59328,1,4,0:3:0:0:
439,232,59506,5,8,0:0:0:0:
335,94,59685,1,8,0:3:0:0:
270,248,59863,1,8,0:3:0:0:
166,110,60042,1,4,0:3:0:0:
99,270,60220,6,0,P|56:271|14:231,1,96,6|0,1:2|0:0,0:0:0:0:
2,240,60578,2,0,L|13:193,1,47.9999985351563,0|0,1:0|0:0,0:0:0:0:
155,366,60935,6,0,B|205:274|315:322|315:322|299:354|298:392,1,240,10|0,0:0|0:0,0:0:0:0:
482,351,61649,6,0,P|435:361|389:374,2,95.9999970703126,0|0|10,1:0|1:0|0:0,0:0:0:0:
335,221,62542,5,2,0:0:0:0:
273,286,62720,1,2,0:0:0:0:
185,264,62899,1,2,0:0:0:0:
185,264,62988,1,0,0:0:0:0:
185,264,63078,6,0,P|176:214|158:169,1,96,6|0,1:2|0:0,0:0:0:0:
145,165,63435,2,0,P|118:169|90:183,1,47.9999985351563,0|0,1:0|0:0,0:0:0:0:
259,20,63792,6,0,P|333:93|464:76,1,240,10|0,0:0|1:0,0:0:0:0:
422,0,64506,6,0,P|400:11|377:17,1,47.9999985351563,2|8,1:2|0:0,0:0:0:0:
272,159,64863,2,0,P|318:171|360:193,1,95.9999970703126,0|10,1:0|0:0,0:0:0:0:
512,315,65399,5,2,0:0:0:0:
449,375,65578,1,2,0:0:0:0:
364,351,65757,1,2,0:0:0:0:
463,185,65935,6,0,P|443:229|430:285,1,96,6|0,1:2|0:0,0:0:0:0:
432,293,66292,2,0,P|402:275|385:270,1,47.9999985351563,2|2,1:2|0:0,0:0:0:0:
176,335,66649,6,0,P|246:321|276:159,1,240,8|2,0:0|0:0,0:0:0:0:
326,88,67363,5,0,1:0:0:0:
198,182,67542,1,8,0:0:0:0:
326,88,67720,2,0,P|289:81|272:74,1,47.9999985351563,0|0,1:0|0:0,0:0:0:0:
94,116,68077,5,10,0:0:0:0:
67,30,68256,1,2,0:0:0:0:
152,4,68435,1,2,1:2:0:0:
189,99,68614,1,2,0:0:0:0:
189,99,68703,1,0,0:0:0:0:
189,99,68792,6,0,L|163:220,1,96,6|0,1:2|0:0,0:0:0:0:
156,206,69149,2,0,L|96:195,1,47.9999985351563,2|2,1:2|0:0,0:0:0:0:
0,377,69506,6,0,B|69:403|122:335|98:327|139:271|217:302,1,240,14|10,0:2|0:0,0:0:0:0:
326,384,70220,5,0,1:0:0:0:
385,204,70399,1,8,0:0:0:0:
512,346,70578,1,8,0:3:0:0:
407,310,70756,1,0,1:0:0:0:
466,130,70935,5,8,0:0:0:0:
466,130,71293,1,8,0:0:0:0:
463,120,71382,1,8,0:0:0:0:
460,110,71471,1,8,0:0:0:0:
457,101,71560,1,8,0:0:0:0:
453,91,71649,6,0,P|406:87|370:117,1,96,6|0,1:2|0:0,0:0:0:0:
355,100,72006,2,0,P|328:116|323:147,1,64
214,278,72363,2,0,P|151:264|87:256,1,128,10|8,0:0|0:0,0:0:0:0:
77,268,72810,1,8,0:0:0:0:
69,283,72899,1,8,0:0:0:0:
75,296,72988,1,8,0:0:0:0:
87,304,73078,5,10,0:0:0:0:
214,278,73256,1,2,0:0:0:0:
319,284,73435,2,0,P|365:288|399:321,1,96,2|0,1:2|0:0,0:0:0:0:
413,337,73792,2,0,P|447:302|439:267,1,80,8|0,0:0|0:0,0:0:0:0:
313,128,74149,5,10,0:0:0:0:
322,74,74268,5,8,0:0:0:0:
370,54,74387,5,8,0:0:0:0:
417,79,74506,6,0,P|402:135|391:192,1,96,2|0,1:2|0:0,0:0:0:0:
394,188,74863,2,0,P|363:197|333:207,1,64,0|0,1:0|0:0,0:0:0:0:
214,82,75220,6,0,P|151:78|106:128,1,128,10|8,0:0|0:0,0:0:0:0:
38,159,75697,5,8,0:0:0:0:
57,197,75816,5,8,0:0:0:0:
101,203,75935,5,2,1:2:0:0:
187,171,76113,1,2,0:0:0:0:
247,240,76292,2,0,P|241:264|237:287,1,47.9999985351563,2|0,0:0|0:0,0:0:0:0:
332,207,76649,5,12,1:2:0:0:
506,345,76828,1,0,1:0:0:0:
443,207,77006,5,2,3:0:0:0:
447,219,77095,1,0,3:0:0:0:
451,231,77185,1,0,3:0:0:0:
455,242,77274,1,0,3:0:0:0:
460,254,77363,1,6,1:2:0:0:
407,324,77542,1,0,0:0:0:0:
343,384,77720,2,0,P|320:379|298:376,1,45.0000017166138,0|0,1:0|0:0,0:0:0:0:
279,372,78078,5,10,0:0:0:0:
182,332,78256,1,0,0:0:0:0:
48,266,78435,1,8,0:0:0:0:
62,260,78524,1,8,0:0:0:0:
77,265,78613,1,8,0:0:0:0:
88,275,78703,1,8,0:0:0:0:
95,290,78792,5,10,0:0:0:0:
246,180,78970,1,2,0:0:0:0:
155,171,79149,2,0,P|163:201|170:233,1,64,2|0,1:2|0:0,0:0:0:0:
84,117,79506,1,8,0:0:0:0:
84,117,79685,1,0,0:0:0:0:
263,276,79863,5,10,0:0:0:0:
304,288,79982,5,8,0:0:0:0:
341,266,80101,5,8,0:0:0:0:
354,222,80220,6,0,P|358:164|311:130,1,120,6|0,1:2|0:0,0:0:0:0:
298,115,80578,2,0,P|273:118|261:141,1,45.0000017166138,0|0,1:0|0:0,0:0:0:0:
127,130,80935,6,0,P|123:72|170:38,1,120,10|0,0:0|0:0,0:0:0:0:
183,23,81293,2,0,P|208:26|220:49,1,45.0000017166138,8|0,0:0|0:0,0:0:0:0:
298,115,81649,5,10,1:2:0:0:
304,101,81768,5,8,0:0:0:0:
324,89,81887,5,8,0:0:0:0:
361,88,82006,5,8,0:0:0:0:
396,112,82125,5,8,0:0:0:0:
418,152,82244,5,8,0:0:0:0:
408,204,82363,5,8,0:0:0:0:
319,314,82542,1,8,0:0:0:0:
209,225,82720,1,8,0:0:0:0:
298,115,82899,1,8,0:0:0:0:
310,234,83078,6,0,L|319:199,1,35.9999989013672,2|0,0:0|0:0,0:0:0:0:
407,203,83435,2,0,L|399:239,1,35.9999989013672
446,310,83792,2,0,P|472:313|518:287,1,71.9999978027344
458,118,84387,5,0,0:0:0:0:
458,118,84447,1,0,0:0:0:0:
458,118,84506,2,0,P|474:149|505:167,1,71.9999978027344,2|0,0:0|0:0,0:0:0:0:
363,49,85220,2,0,P|344:78|344:114,1,71.9999978027344,2|0,0:0|0:0,0:0:0:0:
229,282,85935,6,0,P|239:303|245:322,1,35.9999989013672,2|0,0:0|0:0,0:0:0:0:
318,277,86292,2,0,P|309:260|303:243,1,35.9999989013672,2|0,0:0|0:0,0:0:0:0:
148,151,86649,2,0,P|158:130|164:111,1,35.9999989013672,2|0,0:0|0:0,0:0:0:0:
247,148,87006,2,0,P|233:173|224:199,1,47.9999985351563,2|0,0:0|0:0,0:0:0:0:
225,203,87304,1,0,0:0:0:0:
229,212,87363,6,0,P|170:232|126:258,1,107.999996704102,2|0,0:0|0:0,0:0:0:0:
42,241,88078,2,0,P|38:273|60:312,1,71.9999978027344
55,307,88613,1,0,0:0:0:0:
215,384,88792,6,0,P|218:369|230:338,1,35.9999989013672,6|0,1:2|0:0,0:0:0:0:
144,328,89149,2,0,P|138:345|135:363,2,35.9999989013672,0|0|2,0:0|0:0|0:0,0:0:0:0:
305,319,89863,5,0,0:0:0:0:
433,272,90220,1,2,0:0:0:0:
470,125,90578,1,0,0:0:0:0:
355,4,90935,1,2,0:0:0:0:
192,86,91292,2,0,L|181:128,1,35.9999989013672,0|0,0:0|1:0,0:0:0:0:
242,216,91649,5,2,1:2:0:0:
11,15,92006,1,2,1:2:0:0:
11,15,92720,2,0,L|60:205,1,179.999994506836,6|0,1:2|1:0,0:0:0:0:
138,224,93792,5,8,0:0:0:0:
0,356,93970,1,8,0:0:0:0:
138,224,94149,2,0,L|121:289,1,53.9999983520508,2|0,0:0|0:0,0:0:0:0:
103,352,94506,6,0,P|139:317|189:322,1,103.999995239258,2|0,1:2|0:0,0:0:0:0:
333,256,95042,1,0,1:0:0:0:
207,162,95220,1,8,0:0:0:0:
289,342,95578,5,0,1:0:0:0:
289,342,95756,1,0,0:0:0:0:
419,225,95935,6,0,P|368:220|332:255,1,103.999995239258,2|0,1:2|0:0,0:0:0:0:
453,144,96471,1,0,1:0:0:0:
307,81,96649,1,8,0:0:0:0:
162,250,97007,5,0,1:0:0:0:
162,250,97185,1,0,0:0:0:0:
245,253,97363,6,0,B|264:215|226:180|216:191|179:150|201:116,1,155.999992858887,2|0,1:2|1:0,0:0:0:0:
45,11,98077,1,10,0:0:0:0:
45,11,98435,1,2,1:2:0:0:
94,182,98613,5,0,3:0:0:0:
94,182,98703,1,0,3:0:0:0:
94,182,98792,1,2,1:2:0:0:
19,109,98970,2,0,P|69:95|119:83,1,103.999995239258,8|0,0:0|1:0,0:0:0:0:
194,22,99506,1,10,0:0:0:0:
191,33,99595,1,2,0:0:0:0:
188,43,99685,1,2,0:0:0:0:
344,132,99864,5,0,1:0:0:0:
344,132,100042,1,0,0:0:0:0:
378,45,100220,6,0,P|327:101|251:105,1,155.999992858887,2|0,1:2|1:0,0:0:0:0:
387,205,100935,1,8,0:0:0:0:
269,336,101292,5,0,1:0:0:0:
269,336,101470,1,0,0:0:0:0:
352,357,101649,6,0,P|358:306|326:268,1,103.999995239258,2|0,1:2|0:0,0:0:0:0:
165,206,102185,1,0,1:0:0:0:
189,370,102363,1,8,0:0:0:0:
269,166,102720,5,0,1:0:0:0:
269,166,102899,1,0,0:0:0:0:
272,80,103078,6,0,P|246:77|226:92,1,51.999997619629,2|0,1:2|0:0,0:0:0:0:
161,43,103435,2,0,P|141:59|137:84,1,51.999997619629,2|0,0:0|1:0,0:0:0:0:
57,95,103792,2,0,P|54:120|69:140,1,51.999997619629,10|0,0:0|0:0,0:0:0:0:
21,205,104149,2,0,P|37:224|62:228,1,51.999997619629,2|0,1:2|0:0,0:0:0:0:
233,310,104506,5,2,1:2:0:0:
262,223,104685,1,8,0:0:0:0:
147,280,104863,1,8,0:0:0:0:
176,195,105042,1,0,1:0:0:0:
329,288,105220,5,8,0:3:0:0:
406,179,105399,5,8,0:3:0:0:
377,61,105578,5,4,0:3:0:0:
280,21,105756,5,4,0:3:0:0:
202,74,105935,6,0,P|215:124|225:175,1,103.999995239258,6|0,1:2|0:0,0:0:0:0:
367,317,107005,5,0,0:0:0:0:
367,317,107184,1,0,1:0:0:0:
269,346,107363,2,0,P|282:296|292:245,1,103.999995239258,2|0,1:2|0:0,0:0:0:0:
383,63,108435,2,0,P|398:61|412:56,1,25.9999988098145
464,148,108792,6,0,P|402:147|363:182,1,107.999996704102,2|0,1:2|0:0,0:0:0:0:
289,121,109506,2,0,P|272:160|280:201,1,77.9999964294435,0|0,0:0|1:0,0:0:0:0:
417,366,110220,6,0,L|443:242,1,125.999996154785,0|0,1:0|0:0,0:0:0:0:
452,236,110935,1,8,0:0:0:0:
403,76,111113,1,8,0:0:0:0:
368,174,111292,2,0,L|418:157,1,35.9999989013672,4|0,0:3|0:0,0:0:0:0:
309,22,111649,6,0,P|260:46|257:139,1,143.999995605469,6|0,1:2|1:0,0:0:0:0:
86,128,112363,2,0,P|96:181|207:203,1,167.999994873047,6|0,1:2|1:0,0:0:0:0:
181,367,113078,2,0,P|235:370|285:261,1,192,6|0,1:2|1:0,0:0:0:0:
114,161,113792,6,0,L|95:224,1,47.9999985351563,10|0,0:0|0:0,0:0:0:0:
26,258,114149,1,8,0:3:0:0:
26,258,114328,1,8,0:3:0:0:
0,77,114506,6,0,P|56:81|141:27,1,143.999995605469,4|0,1:2|1:0,0:0:0:0:
203,151,115220,5,8,0:0:0:0:
257,77,115399,1,0,3:0:0:0:
347,63,115578,1,0,3:0:0:0:
421,117,115756,1,0,3:0:0:0:
435,207,115935,5,0,1:0:0:0:
321,309,116113,1,8,0:0:0:0:
420,384,116292,2,0,L|411:358,2,23.9999992675781,8|0|0,0:3|3:0|1:0,0:0:0:0:
321,197,116649,5,8,0:0:0:0:
218,322,116828,1,8,0:0:0:0:
58,295,117007,1,4,0:3:0:0:
58,295,117363,6,0,P|53:267|49:239,1,55.9999982910157,6|0,1:2|0:0,0:0:0:0:
140,277,117720,2,0,P|134:249|129:221,1,55.9999982910157
275,63,118078,6,0,P|192:59|136:0,1,167.999994873047,10|0,0:0|0:0,0:0:0:0:
240,156,118792,1,2,1:2:0:0:
156,141,118970,2,0,P|157:113|177:94,1,55.9999982910157,2|0,0:0|1:0,0:0:0:0:
308,230,119328,1,0,0:0:0:0:
334,137,119506,6,0,P|287:147|240:156,1,96,10|0,0:0|0:0,0:0:0:0:
154,299,120220,6,0,P|126:300|105:283,1,55.9999982910157,2|0,1:2|0:0,0:0:0:0:
135,205,120578,2,0,P|162:203|183:220,1,55.9999982910157
82,377,120935,2,0,P|62:295|41:213,1,167.999994873047,10|0,0:0|0:0,0:0:0:0:
153,93,121649,5,2,1:2:0:0:
108,23,121828,1,0,0:0:0:0:
34,63,122006,2,0,P|12:90|17:125,1,71.9999978027344,2|4,1:2|0:3,0:0:0:0:
256,352,122720,6,0,L|265:317,1,35.9999989013672
335,165,123078,5,6,1:2:0:0:
259,133,123257,1,2,0:0:0:0:
193,180,123436,1,2,0:0:0:0:
200,262,123613,1,2,0:0:0:0:
342,355,123793,6,0,L|421:340,1,71.9999978027344,10|0,0:0|0:0,0:0:0:0:
512,220,124507,5,2,1:2:0:0:
437,262,124686,1,2,0:0:0:0:
361,221,124863,1,2,1:2:0:0:
358,133,125042,1,2,0:0:0:0:
500,32,125220,6,0,P|486:73|470:130,1,83.9999974365235,6|0,0:3|0:0,0:0:0:0:
470,126,125578,1,8,0:3:0:0:
311,13,125756,1,8,0:3:0:0:
266,94,125935,6,0,P|322:40|400:45,2,160,6|0|0,1:2|0:0|0:0,0:0:0:0:
109,50,128792,6,0,P|145:64|160:100,1,80,6|0,1:2|1:0,0:0:0:0:
204,319,129150,5,10,0:0:0:0:
86,170,129328,1,0,1:0:0:0:
269,87,129506,6,0,P|273:118|254:143,1,64,10|0,0:0|1:0,0:0:0:0:
204,319,129864,5,10,0:0:0:0:
175,199,130043,1,0,1:0:0:0:
303,227,130220,6,0,P|283:242|258:239,1,47.9999985351563,10|0,0:0|1:0,0:0:0:0:
254,145,130578,5,10,0:0:0:0:
254,145,130756,1,0,1:0:0:0:
422,55,130935,5,0,1:0:0:0:
446,96,131054,5,0,1:0:0:0:
434,142,131173,5,8,0:0:0:0:
400,167,131292,5,8,0:0:0:0:
365,162,131412,5,8,0:0:0:0:
344,146,131531,5,8,0:0:0:0:
339,130,131649,6,0,P|328:83|293:9,1,128,0|0,1:0|1:0,0:0:0:0:
44,328,132363,6,0,B|94:236|204:284|204:284|188:316|187:354,1,240,6|0,1:2|0:0,0:0:0:0:
287,366,133078,6,0,P|301:316|326:265,1,95.9999970703126,2|0,1:2|1:0,0:0:0:0:
322,62,133792,5,10,0:0:0:0:
406,37,133970,1,2,1:2:0:0:
431,121,134149,1,2,0:0:0:0:
347,151,134327,5,2,0:0:0:0:
347,151,134417,1,0,3:0:0:0:
347,151,134506,2,0,P|330:212|318:275,1,128,6|0,1:2|1:0,0:0:0:0:
355,359,135042,1,2,0:0:0:0:
236,222,135220,6,0,B|138:184|97:274|112:332|186:329|196:304,1,240,10|2,0:0|0:0,0:0:0:0:
327,200,135935,5,2,1:2:0:0:
224,126,136113,1,8,0:0:0:0:
327,200,136292,2,0,P|339:157|351:137,1,47.9999985351563,0|0,1:0|0:0,0:0:0:0:
224,12,136649,5,10,0:0:0:0:
144,58,136828,1,2,0:0:0:0:
121,146,137006,1,2,0:0:0:0:
167,226,137185,5,2,0:0:0:0:
167,226,137274,1,0,3:0:0:0:
167,226,137363,2,0,P|204:228|258:267,1,96,6|0,1:2|0:0,0:0:0:0:
258,274,137720,2,0,P|248:304|247:329,1,47.9999985351563,2|2,1:2|0:0,0:0:0:0:
454,384,138078,6,0,B|480:315|412:262|404:286|348:245|379:167,1,240,8|2,0:0|0:0,0:0:0:0:
503,68,138792,6,0,P|456:76|410:89,2,95.9999970703126,0|0|10,1:0|1:0|0:0,0:0:0:0:
349,11,139685,5,2,0:0:0:0:
314,101,139863,1,2,0:0:0:0:
218,115,140042,1,2,0:0:0:0:
157,38,140220,5,6,1:2:0:0:
314,101,140399,1,0,0:0:0:0:
181,206,140578,2,0,P|149:217|133:226,1,47.9999985351563,2|2,1:2|0:0,0:0:0:0:
316,350,140935,6,0,L|277:180,1,160,8|2,0:0|1:2,0:0:0:0:
218,115,141470,5,0,1:0:0:0:
218,115,141560,1,0,1:0:0:0:
218,115,141649,1,0,1:0:0:0:
127,370,142006,1,8,0:0:0:0:
394,322,142363,5,8,0:0:0:0:
356,206,142542,1,8,0:3:0:0:
240,244,142720,1,8,0:3:0:0:
278,360,142899,1,4,0:3:0:0:
271,149,143078,6,0,P|234:119|188:126,1,96,6|0,1:2|0:0,0:0:0:0:
162,118,143435,2,0,P|146:134|149:157,1,47.9999985351563,0|0,1:0|0:0,0:0:0:0:
354,252,143792,6,0,P|370:174|391:97,1,160,10|0,0:0|1:0,0:0:0:0:
326,36,144328,1,0,1:0:0:0:
473,130,144506,6,0,P|451:171|406:184,2,95.9999970703126,4|0|10,1:2|1:0|0:0,0:0:0:0:
391,96,145399,5,2,0:0:0:0:
510,241,145578,1,10,0:0:0:0:
340,363,145756,1,10,0:0:0:0:
333,274,145935,6,0,P|379:270|407:306,1,96,6|0,1:2|0:0,0:0:0:0:
425,310,146292,2,0,P|437:330|435:353,1,47.9999985351563,0|0,1:0|0:0,0:0:0:0:
239,378,146649,6,0,B|215:316|277:269|291:289|353:230|324:176,1,240,10|0,0:0|1:0,0:0:0:0:
180,49,147363,6,0,P|162:64|163:87,1,47.9999985351563,2|8,1:2|0:0,0:0:0:0:
226,194,147720,2,0,P|237:147|250:101,1,95.9999970703126,0|10,1:0|0:0,0:0:0:0:
88,22,148256,5,2,0:0:0:0:
18,81,148435,1,2,0:0:0:0:
40,174,148614,1,2,0:0:0:0:
226,194,148792,6,0,P|179:197|148:232,1,96,6|0,1:2|0:0,0:0:0:0:
127,241,149149,2,0,P|120:263|133:282,1,47.9999985351563,2|2,1:2|0:0,0:0:0:0:
313,365,149506,6,0,B|409:316|378:222|317:201|266:257|289:277,1,240,8|2,0:0|0:0,0:0:0:0:
429,378,150220,6,0,P|452:372|475:366,2,47.9999985351563,0|8|0,1:0|0:0|1:0,0:0:0:0:
429,378,150756,1,0,0:0:0:0:
288,276,150935,5,10,0:0:0:0:
275,185,151114,1,2,0:0:0:0:
320,106,151292,1,2,1:2:0:0:
412,86,151471,1,2,0:0:0:0:
478,232,151649,6,0,P|455:192|409:188,1,96,6|0,1:2|0:0,0:0:0:0:
393,186,152006,2,0,P|375:200|373:224,1,47.9999985351563,2|2,1:2|0:0,0:0:0:0:
214,343,152363,6,0,B|150:367|103:305|123:291|64:229|9:257,1,240,14|10,0:2|0:0,0:0:0:0:
203,128,153078,5,0,1:0:0:0:
174,85,153197,5,0,1:0:0:0:
122,68,153316,5,0,1:0:0:0:
71,85,153435,5,8,0:0:0:0:
45,131,153554,5,8,0:0:0:0:
48,184,153673,5,8,0:0:0:0:
85,221,153792,5,4,1:3:0:0:
203,128,153970,1,4,3:0:0:0:
288,285,154149,2,0,P|283:256|301:233,1,60,4|0,3:0|0:0,0:0:0:0:
320,229,154506,6,0,P|345:238|371:242,3,35.9999989013672,6|0|0|0,1:2|0:0|0:0|0:0,0:0:0:0:
406,317,154863,2,0,P|426:299|442:279,3,35.9999989013672,0|0|0|0,1:0|0:0|0:0|0:0,0:0:0:0:
497,247,155220,5,10,0:0:0:0:
492,234,155309,1,0,0:0:0:0:
488,221,155398,1,0,0:0:0:0:
484,208,155487,1,0,0:0:0:0:
480,195,155577,1,0,0:0:0:0:
476,182,155666,1,0,0:0:0:0:
472,169,155756,1,0,0:0:0:0:
467,157,155844,1,0,0:0:0:0:
463,144,155935,6,0,P|442:137|414:134,3,35.9999989013672,2|0|0|0,1:2|0:0|0:0|0:0,0:0:0:0:
373,57,156292,2,0,P|356:71|339:94,3,35.9999989013672,2|0|0|0,1:2|0:0|0:0|0:0,0:0:0:0:
267,116,156649,5,10,0:0:0:0:
268,133,156738,1,0,0:0:0:0:
276,149,156827,1,0,0:0:0:0:
289,161,156916,1,0,0:0:0:0:
301,190,157006,1,2,0:0:0:0:
313,201,157095,1,0,0:0:0:0:
330,206,157184,1,0,0:0:0:0:
348,206,157273,1,0,0:0:0:0:
367,191,157363,6,0,L|409:202,1,35.9999989013672,2|0,1:2|0:0,0:0:0:0:
466,254,157542,2,0,L|508:243,1,35.9999989013672,8|0,0:0|0:0,0:0:0:0:
419,326,157720,1,2,0:0:0:0:
401,330,157809,1,0,0:0:0:0:
384,335,157898,1,0,0:0:0:0:
366,339,157987,1,0,0:0:0:0:
349,344,158078,6,0,P|324:304|328:277,1,64,6|0,1:2|0:0,0:0:0:0:
378,145,158435,2,0,P|403:185|399:212,1,64,2|8,1:2|0:0,0:0:0:0:
241,331,158792,5,0,1:0:0:0:
153,304,158970,1,8,0:0:0:0:
65,277,159148,1,8,0:0:0:0:
92,373,159328,1,8,0:3:0:0:
92,373,159417,1,8,0:3:0:0:
92,373,159506,1,8,0:3:0:0:
221,242,159685,6,0,B|243:189|195:142|190:156|144:116|184:48,1,191.999994140625,6|0,1:2|0:0,0:0:0:0:
293,8,160220,6,0,P|334:35|397:24,1,96,0|0,1:0|0:0,0:0:0:0:
391,52,160578,2,0,P|379:84|377:123,1,64,0|0,1:0|0:0,0:0:0:0:
506,228,160935,5,10,0:0:0:0:
423,204,161113,1,0,0:0:0:0:
347,245,161292,1,2,0:0:0:0:
323,328,161470,1,0,1:0:0:0:
175,274,161649,6,0,P|145:297|98:311,1,64,2|0,1:2|0:0,0:0:0:0:
89,304,161917,1,0,0:0:0:0:
89,304,162006,1,2,1:2:0:0:
140,189,162185,2,0,P|105:174|69:140,1,64,2|8,0:0|0:0,0:0:0:0:
200,90,162542,2,0,P|196:52|207:4,1,64,2|8,0:0|0:0,0:0:0:0:
106,63,162899,1,8,0:0:0:0:
249,189,163078,6,0,P|294:175|341:163,1,96,6|0,1:2|0:0,0:0:0:0:
351,172,163435,2,0,P|396:158|443:146,1,96,0|0,1:0|0:0,0:0:0:0:
452,154,163792,2,0,P|467:181|458:212,1,64,8|0,0:0|0:0,0:0:0:0:
346,332,164149,1,2,0:0:0:0:
338,306,164238,1,0,0:0:0:0:
321,287,164328,1,0,1:0:0:0:
297,281,164417,1,0,1:0:0:0:
273,286,164506,5,0,1:0:0:0:
104,377,164685,1,8,0:0:0:0:
127,192,164863,1,0,1:0:0:0:
170,293,165042,1,0,1:0:0:0:
12,166,165220,6,0,P|25:212|36:258,1,96,6|0,1:2|0:0,0:0:0:0:
46,279,165578,1,8,0:3:0:0:
86,101,165756,1,8,0:3:0:0:
221,212,165935,6,0,P|235:206|243:192,3,32,6|0|0|0,1:2|0:0|0:0|0:0,0:0:0:0:
331,220,166292,2,0,P|336:205|332:189,3,32,2|0|0|0,1:2|0:0|0:0|0:0,0:0:0:0:
416,140,166649,6,0,P|410:124|396:116,3,32,10|0|0|0,0:0|0:0|0:0|0:0,0:0:0:0:
415,9,167006,2,0,P|400:2|384:6,3,32,2|0|0|0,0:0|0:0|0:0|0:0,0:0:0:0:
315,70,167363,5,2,1:2:0:0:
304,57,167453,1,0,0:0:0:0:
289,50,167542,1,0,0:0:0:0:
273,49,167631,1,0,0:0:0:0:
258,55,167720,1,0,1:0:0:0:
245,65,167810,1,0,0:0:0:0:
238,79,167899,1,0,0:0:0:0:
238,94,167988,1,0,0:0:0:0:
246,104,168078,6,0,L|257:141,3,32,10|0|0|0,0:0|0:0|0:0|0:0,0:0:0:0:
314,190,168435,1,0,0:0:0:0:
310,203,168525,1,0,0:0:0:0:
306,216,168614,1,0,0:0:0:0:
302,229,168704,1,0,0:0:0:0:
297,240,168792,6,0,P|276:260|247:255,1,60,6|0,1:2|0:0,0:0:0:0:
235,336,169149,6,0,P|199:335|177:306,1,75,2|0,1:2|0:0,0:0:0:0:
97,344,169506,6,0,P|76:306|93:266,1,90.0000034332277,10|0,0:0|0:0,0:0:0:0:
9,215,169863,6,0,P|35:170|87:164,1,105.000001001358,10|0,0:0|0:0,0:0:0:0:
43,52,170220,6,0,P|120:53|194:153,1,200,6|0,1:2|1:0,0:0:0:0:
232,217,170697,5,0,1:0:0:0:
267,181,170816,5,0,1:0:0:0:
313,204,170935,6,0,B|335:239|296:283|285:270|247:306|266:346,1,160,8|0,0:0|1:0,0:0:0:0:
277,357,171381,1,0,1:0:0:0:
292,367,171470,1,0,1:0:0:0:
312,363,171560,1,0,1:0:0:0:
325,351,171649,5,10,0:2:0:0:
408,175,171828,1,0,1:0:0:0:
408,175,172185,1,0,1:0:0:0:
470,299,172363,2,0,L|374:268,1,83.9999974365235,8|0,0:0|0:0,0:0:0:0:
374,267,172720,5,6,1:2:0:0:
210,349,172899,2,0,P|203:320|188:287,1,55.9999982910157,2|0,0:0|0:0,0:0:0:0:
257,182,173256,2,0,P|263:210|279:244,1,55.9999982910157,8|0,0:0|1:0,0:0:0:0:
352,183,173613,1,0,0:0:0:0:
201,101,173792,2,0,P|179:120|158:151,1,55.9999982910157,8|0,0:0|1:0,0:0:0:0:
241,12,174149,2,0,P|213:3|176:0,1,55.9999982910157
303,94,174506,5,10,0:0:0:0:
483,22,174685,1,0,1:0:0:0:
483,22,175042,1,0,1:0:0:0:
456,212,175220,2,0,L|421:123,1,83.9999974365235,8|0,0:0|0:0,0:0:0:0:
418,118,175578,5,6,1:2:0:0:
390,309,175756,2,0,L|284:350,1,111.999996582031,2|0,0:0|0:0,0:0:0:0:
162,258,176292,2,0,L|225:282,1,55.9999982910157,8|0,0:0|0:0,0:0:0:0:
336,190,176649,5,0,1:0:0:0:
343,166,176768,5,0,1:0:0:0:
328,151,176887,5,0,1:0:0:0:
340,119,177006,5,8,0:0:0:0:
307,89,177125,5,8,0:0:0:0:
265,94,177244,5,8,0:0:0:0:
243,133,177363,6,0,P|176:151|118:185,1,111.999996582031,4|2,1:2|0:0,0:0:0:0:
90,253,177899,1,0,1:0:0:0:
0,138,178078,2,0,P|23:100|96:108,1,111.999996582031,8|2,0:0|0:0,0:0:0:0:
218,225,178613,5,2,0:0:0:0:
218,225,178703,1,0,3:0:0:0:
218,225,178792,2,0,L|204:295,1,55.9999982910157,0|8,1:0|0:0,0:0:0:0:
115,380,179149,2,0,L|125:325,1,55.9999982910157,2|2,1:2|0:0,0:0:0:0:
301,274,179506,2,0,L|355:284,2,55.9999982910157,8|0|2,0:0|0:0|1:2,0:0:0:0:
93,137,180220,6,0,P|159:144|201:111,1,111.999996582031,6|2,1:2|1:2,0:0:0:0:
345,181,180756,1,14,0:2:0:0:
311,49,180935,2,0,P|299:74|293:101,1,55.9999982910157,2|2,0:0|1:2,0:0:0:0:
420,259,181292,2,0,P|433:204|456:153,1,111.999996582031,10|8,0:0|0:0,0:0:0:0:
512,65,181768,5,8,0:0:0:0:
476,76,181887,5,8,0:0:0:0:
436,58,182006,5,8,0:3:0:0:
418,24,182125,5,8,0:3:0:0:
385,0,182244,5,8,0:3:0:0:
343,9,182363,5,6,0:3:0:0:
302,96,182542,1,2,1:2:0:0:
360,175,182720,1,10,0:0:0:0:
456,154,182899,1,0,0:0:0:0:
485,343,183078,6,0,P|498:284|517:217,1,111.999996582031,6|0,1:2|0:0,0:0:0:0:
302,96,183792,2,0,P|288:154|269:221,1,111.999996582031,10|0,0:0|0:0,0:0:0:0:
381,46,184328,5,0,1:0:0:0:
381,46,184417,1,0,1:0:0:0:
381,46,184506,1,0,1:0:0:0:
204,128,184863,1,0,0:0:0:0:
204,128,185220,6,0,P|181:111|154:115,1,55.9999982910157,10|0,0:0|0:0,0:0:0:0:
105,47,185578,2,0,P|77:51|61:72,1,55.9999982910157,2|0,0:0|0:0,0:0:0:0:
0,245,185935,6,0,P|35:203|24:150,1,111.999996582031,6|0,1:2|0:0,0:0:0:0:
227,295,186649,2,0,P|216:241|251:200,1,111.999996582031,10|0,0:0|0:0,0:0:0:0:
164,357,187185,5,0,1:0:0:0:
164,357,187274,1,0,1:0:0:0:
164,357,187363,1,0,1:0:0:0:
362,284,187542,2,0,P|335:275|307:269,1,55.9999982910157
32,130,188078,6,0,P|43:91|82:77,1,83.9999974365235,10|0,0:0|0:0,0:0:0:0:
95,84,188435,1,2,1:2:0:0:
250,200,188613,1,0,1:0:0:0:
195,57,188792,6,0,P|185:97|178:139,1,83.9999974365235,4|0,1:2|0:0,0:0:0:0:
169,155,189149,2,0,P|141:163|103:172,1,55.9999982910157,2|0,0:0|0:0,0:0:0:0:
273,113,189506,1,10,0:0:0:0:
127,2,189685,1,2,0:0:0:0:
273,113,189863,2,0,P|300:105|327:99,1,55.9999982910157,0|0,1:0|1:0,0:0:0:0:
382,45,190131,1,0,1:0:0:0:
387,36,190220,6,0,P|427:30|460:54,1,83.9999974365235,4|0,1:2|0:0,0:0:0:0:
476,53,190577,2,0,P|493:73|489:100,1,55.9999982910157,2|0,1:2|0:0,0:0:0:0:
502,308,190935,2,0,P|460:299|419:293,1,83.9999974365235,10|0,0:0|0:0,0:0:0:0:
410,307,191292,1,8,0:0:0:0:
265,181,191470,1,8,0:0:0:0:
310,335,191649,6,0,P|316:294|325:247,1,83.9999974365235,6|0,1:2|0:0,0:0:0:0:
345,239,192006,2,0,P|361:217|355:191,1,55.9999982910157,2|0,0:0|1:0,0:0:0:0:
236,69,192363,6,0,P|208:68|188:86,1,55.9999982910157,10|0,0:0|0:0,0:0:0:0:
144,80,192631,1,2,0:0:0:0:
144,80,192720,2,0,P|124:99|122:126,1,55.9999982910157,0|0,0:0|1:0,0:0:0:0:
79,320,193078,6,0,P|106:320|126:302,1,55.9999982910157,0|0,1:0|0:0,0:0:0:0:
169,309,193346,1,2,0:0:0:0:
169,309,193435,2,0,P|188:289|190:262,1,55.9999982910157,0|2,1:0|0:0,0:0:0:0:
13,141,193792,6,0,P|26:164|52:173,1,55.9999982910157,10|0,0:0|0:0,0:0:0:0:
68,215,194060,1,2,0:0:0:0:
68,215,194149,2,0,P|94:222|118:210,1,55.9999982910157,0|2,1:0|1:2,0:0:0:0:
242,101,194506,6,0,P|208:90|169:83,1,55.9999982910157,6|0,1:2|0:0,0:0:0:0:
279,251,194863,2,0,P|287:214|299:179,1,74.6666643880209,2|0,1:2|0:0,0:0:0:0:
373,140,195220,5,8,0:0:0:0:
401,179,195340,1,2,0:0:0:0:
444,198,195459,1,2,0:0:0:0:
490,192,195579,1,2,0:0:0:0:
222,236,195935,5,2,1:2:0:0:
257,232,196055,1,2,0:0:0:0:
286,211,196174,1,2,0:0:0:0:
299,179,196292,1,2,0:0:0:0:
220,365,196649,5,10,0:0:0:0:
227,348,196769,1,2,0:0:0:0:
225,331,196888,1,2,0:0:0:0:
214,317,197006,1,2,1:2:0:0:
286,211,197363,5,10,0:0:0:0:
11,365,197720,1,0,1:0:0:0:
11,365,198435,2,0,L|76:116,1,242.666655558269,6|0,1:2|0:0,0:0:0:0:
65,123,200161,1,0,0:0:0:0:
57,115,200220,6,0,L|17:123,1,40,2|2,0:0|0:0,0:0:0:0:
140,60,200935,2,0,L|153:21,1,40,2|2,0:0|0:0,0:0:0:0:
146,159,201650,2,0,L|172:189,1,40,2|2,0:0|0:0,0:0:0:0:
448,320,203078,6,0,P|467:297|463:268,1,60,2|0,0:0|0:0,0:0:0:0:
382,244,203792,2,0,P|362:266|366:295,1,60,2|0,0:0|0:0,0:0:0:0:
442,194,204506,1,2,0:0:0:0:
256,64,205220,6,0,L|230:70,1,20,0|0,3:0|0:0,0:0:0:0:
166,28,205578,2,0,L|140:34,1,20
106,105,205935,6,0,P|113:136|121:166,1,60,2|0,0:0|0:0,0:0:0:0:
41,183,206649,2,0,P|33:151|25:121,1,60,2|0,0:0|0:0,0:0:0:0:
97,241,207363,1,2,0:0:0:0:
352,64,208078,6,0,P|360:64|374:73,1,20
438,23,208435,2,0,P|443:28|447:44,1,20
511,95,208792,5,2,1:2:0:0:
426,266,208970,1,0,1:0:0:0:
426,266,209506,6,0,P|366:252|325:245,1,102.000001945496,2|0,0:2|0:0,0:0:0:0:
348,338,210220,5,2,1:2:0:0:
273,174,210398,1,0,1:0:0:0:
273,174,210934,2,0,P|269:141|317:90,1,102.000001945496,2|0,3:2|0:0,0:0:0:0:
360,169,211649,5,0,1:0:0:0:
254,314,211828,1,0,1:0:0:0:
32,128,212185,5,0,0:0:0:0:
32,128,212363,1,2,0:0:0:0:
80,45,212720,5,2,0:0:0:0:
192,14,213078,5,2,1:2:0:0:
314,60,213435,5,2,0:0:0:0:
400,187,213792,5,2,0:0:0:0:
353,364,214149,5,2,0:0:0:0:
127,153,214506,6,0,P|127:126|161:100,1,70,2|8,0:0|0:0,0:0:0:0:
158,100,215845,1,8,0:0:0:0:
158,100,215935,1,8,0:0:0:0:
62,66,216113,5,8,0:3:0:0:
214,176,216292,1,4,0:3:0:0:
47,258,216470,1,4,0:3:0:0:
262,352,216649,6,0,B|369:406|472:314|444:197|357:164|303:188|294:234|314:250,1,350,2|0,1:2|0:0,0:0:0:0:
315,236,217363,6,0,P|410:207|501:201,1,192,6|0,1:2|0:0,0:0:0:0:
322,17,218078,2,0,P|275:80|105:95,1,240,6|0,1:2|0:0,0:0:0:0:
0,210,218792,5,8,0:0:0:0:
35,187,218911,5,8,0:0:0:0:
77,184,219030,5,8,0:0:0:0:
116,200,219149,5,8,0:0:0:0:
143,233,219268,5,8,0:0:0:0:
151,274,219387,5,8,0:0:0:0:
143,306,219506,5,0,1:0:0:0:
124,330,219625,5,8,0:3:0:0:
94,341,219744,5,8,0:3:0:0:
65,334,219863,5,8,0:3:0:0:
49,315,219982,5,8,0:3:0:0:
46,293,220101,5,4,0:3:0:0:
55,277,220220,6,0,P|62:229|77:183,1,96,6|0,1:2|0:0,0:0:0:0:
90,173,220578,2,0,P|122:174|151:157,1,55.9999982910157,0|0,1:0|0:0,0:0:0:0:
327,50,220935,6,0,P|268:89|265:255,1,240,10|2,0:0|0:0,0:0:0:0:
343,273,221649,5,2,1:2:0:0:
226,327,221828,1,8,0:0:0:0:
343,273,222006,2,0,P|374:279|394:288,1,47.9999985351563,0|0,1:0|0:0,0:0:0:0:
227,160,222363,5,10,0:0:0:0:
169,226,222542,1,2,0:0:0:0:
313,176,222720,1,10,0:0:0:0:
198,77,222899,1,10,0:0:0:0:
372,0,223078,6,0,P|355:45|343:91,1,96,6|0,1:2|0:0,0:0:0:0:
353,99,223435,2,0,P|386:95|401:82,1,47.9999985351563,2|2,1:2|0:0,0:0:0:0:
251,258,223792,6,0,B|182:284|129:216|153:208|112:152|34:183,1,240,8|2,0:0|0:0,0:0:0:0:
72,262,224506,5,0,1:0:0:0:
219,175,224685,1,8,0:0:0:0:
72,262,224863,2,0,P|88:298|90:310,1,47.9999985351563,0|0,1:0|0:0,0:0:0:0:
253,368,225220,5,10,0:0:0:0:
332,309,225399,1,2,0:0:0:0:
427,338,225578,1,6,0:3:0:0:
438,340,225667,1,0,1:0:0:0:
450,341,225756,1,0,1:0:0:0:
462,338,225845,1,0,1:0:0:0:
472,333,225935,6,0,P|480:290|498:231,1,96,6|0,1:2|0:0,0:0:0:0:
485,224,226292,2,0,P|453:217|424:201,1,47.9999985351563,2|2,1:2|0:0,0:0:0:0:
263,73,226649,5,8,0:0:0:0:
335,251,226828,1,0,1:0:0:0:
366,31,227006,5,8,0:0:0:0:
248,183,227185,1,0,1:0:0:0:
439,210,227363,5,8,0:3:0:0:
351,141,227542,1,8,0:3:0:0:
231,292,227720,2,0,P|188:277|142:273,1,80,4|0,1:2|1:0,0:0:0:0:
143,277,227988,1,8,0:0:0:0:
135,283,228078,5,8,0:0:0:0:
33,209,228256,1,8,0:3:0:0:
22,99,228435,1,8,0:3:0:0:
79,23,228613,1,4,0:3:0:0:
256,128,228792,6,0,P|287:93|277:48,1,96,6|0,1:2|0:0,0:0:0:0:
259,35,229149,2,0,P|235:36|220:53,1,47.9999985351563,0|0,1:0|0:0,0:0:0:0:
400,207,229506,6,0,P|283:234|166:269,1,240,10|8,0:0|0:0,0:0:0:0:
20,355,230220,5,0,1:0:0:0:
55,204,230399,1,8,0:0:0:0:
20,355,230578,2,0,P|0:341|0:318,1,47.9999985351563,0|0,1:0|0:0,0:0:0:0:
146,174,230935,5,10,0:0:0:0:
146,174,231113,1,2,0:0:0:0:
87,301,231292,1,10,0:0:0:0:
233,205,231470,1,10,0:0:0:0:
32,110,231649,6,0,P|43:157|55:206,1,96,6|0,1:2|0:0,0:0:0:0:
42,210,232006,2,0,P|37:186|32:162,1,47.9999985351563,0|0,1:0|0:0,0:0:0:0:
209,15,232363,6,0,P|266:6|311:44,1,120,10|0,0:0|0:0,0:0:0:0:
400,43,232720,6,0,P|393:64|388:86,1,45.0000017166138,8|0,0:0|0:0,0:0:0:0:
384,102,233078,5,2,1:2:0:0:
503,260,233256,1,8,0:0:0:0:
497,172,233435,1,0,1:0:0:0:
474,164,233524,1,0,1:0:0:0:
450,167,233613,1,0,1:0:0:0:
431,182,233703,1,0,1:0:0:0:
426,205,233792,5,10,0:0:0:0:
326,360,233970,1,2,0:0:0:0:
199,265,234149,1,6,0:3:0:0:
115,360,234328,1,4,0:3:0:0:
32,333,234506,6,0,P|18:286|3:241,1,96,6|0,1:2|0:0,0:0:0:0:
17,223,234863,2,0,P|48:219|73:238,1,64,0|0,1:0|0:0,0:0:0:0:
210,113,235220,2,0,B|247:90|285:125|274:136|320:170|352:145,1,160,10|0,0:0|0:0,0:0:0:0:
446,35,235756,5,0,1:0:0:0:
446,35,235845,1,0,1:0:0:0:
446,35,235935,2,0,P|436:65|430:96,1,64,2|0,1:2|0:0,0:0:0:0:
512,277,236292,2,0,P|526:217|484:171,1,128,2|8,1:2|0:0,0:0:0:0:
160,352,237006,6,0,P|128:346|66:335,1,96,2|0,1:2|0:0,0:0:0:0:
50,351,237363,1,6,1:2:0:0:
224,276,237542,1,2,0:0:0:0:
112,139,237720,2,0,P|86:163|90:197,1,71.9999978027344,2|0,1:2|0:0,0:0:0:0:
104,216,238078,2,0,L|152:207,1,47.9999985351563,8|0,0:0|0:0,0:0:0:0:
307,337,238435,2,0,P|314:301|323:266,1,71.9999978027344,2|0,0:0|0:0,0:0:0:0:
312,250,238792,6,0,P|342:277|384:279,1,85.3333333333333,8|0,0:0|0:0,0:0:0:0:
458,188,239149,5,0,1:0:0:0:
470,192,239268,5,0,1:0:0:0:
489,187,239387,5,0,1:0:0:0:
505,170,239506,5,8,0:0:0:0:
512,141,239625,5,8,0:0:0:0:
505,105,239744,5,8,0:0:0:0:
471,79,239863,5,8,0:3:0:0:
424,74,239982,5,8,0:3:0:0:
380,102,240101,5,4,0:3:0:0:
364,156,240220,6,0,L|377:199,1,40,6|2,1:2|0:0,0:0:0:0:
326,358,240935,2,0,L|353:328,1,40,2|2,0:0|0:0,0:0:0:0:
512,317,241649,2,0,L|473:307,1,40,2|2,0:0|0:0,0:0:0:0:
128,64,242363,5,10,0:0:0:0:
78,74,242482,5,8,0:0:0:0:
51,116,242601,5,8,0:3:0:0:
58,158,242720,5,8,0:3:0:0:
82,178,242840,5,4,0:3:0:0:
101,187,242959,5,4,0:3:0:0:
113,187,243078,6,0,P|131:166|158:161,1,55.9999982910157,6|2,1:2|0:0,0:0:0:0:
292,281,243435,5,8,0:0:0:0:
290,334,243554,5,8,0:0:0:0:
252,368,243673,5,8,0:0:0:0:
200,371,243792,5,8,0:0:0:0:
96,302,243970,1,8,0:0:0:0:
233,212,244149,1,8,0:0:0:0:
92,87,244328,1,8,0:0:0:0:
294,1,244506,5,6,1:2:0:0:
0,197,244863,5,2,0:0:0:0:
294,1,245220,6,0,P|251:34|245:88,1,111.999996582031,2|4,0:0|0:3,0:0:0:0:
343,159,245697,5,4,0:3:0:0:
368,145,245816,5,4,0:3:0:0:
369,122,245935,5,6,1:2:0:0:
102,251,246292,1,0,3:0:0:0:
183,292,246470,1,0,3:0:0:0:
369,122,246649,5,10,0:0:0:0:
288,81,247006,1,0,3:0:0:0:
269,263,247363,5,2,1:2:0:0:
235,185,247542,1,2,0:0:0:0:
201,109,247721,1,2,1:2:0:0:
303,339,248078,1,8,0:0:0:0:
167,33,248435,1,2,0:0:0:0:
1,292,248792,5,10,0:0:0:0:
236,179,249149,1,0,3:0:0:0:
158,133,249328,1,0,1:0:0:0:
1,292,249506,5,10,0:0:0:0:
79,338,249863,1,0,3:0:0:0:
157,294,250042,1,0,3:0:0:0:
80,159,250220,5,2,1:2:0:0:
79,248,250399,1,8,0:0:0:0:
79,248,250488,1,8,0:0:0:0:
79,248,250578,1,8,0:0:0:0:
155,383,250756,1,0,1:0:0:0:
290,307,250934,1,4,1:3:0:0:
235,250,251113,5,4,0:3:0:0:
180,193,251292,1,4,0:3:0:0:
183,184,251381,1,4,0:3:0:0:
185,174,251470,1,4,0:3:0:0:
187,164,251559,1,4,0:3:0:0:
189,154,251649,5,6,1:2:0:0:
450,36,252006,1,0,3:0:0:0:
440,126,252185,1,0,3:0:0:0:
189,154,252363,1,10,0:0:0:0:
199,64,252720,1,0,3:0:0:0:
269,7,252899,1,0,3:0:0:0:
370,183,253078,5,10,0:2:0:0:
271,125,253256,1,2,0:0:0:0:
371,68,253435,1,2,1:2:0:0:
440,126,253613,1,0,1:0:0:0:
296,211,253792,5,8,0:0:0:0:
442,294,253970,1,0,1:0:0:0:
298,379,254148,1,2,0:0:0:0:
51,71,254506,5,10,0:0:0:0:
137,34,254685,1,0,1:0:0:0:
137,34,255042,1,0,1:0:0:0:
286,189,255220,5,10,0:0:0:0:
200,152,255399,1,0,1:0:0:0:
200,152,255756,1,0,1:0:0:0:
58,319,255935,5,10,0:0:0:0:
144,282,256114,1,0,1:0:0:0:
224,373,256292,5,6,1:2:0:0:
230,245,256470,1,0,1:0:0:0:
239,240,256560,1,8,0:3:0:0:
248,235,256649,5,8,0:3:0:0:
374,250,256828,1,4,0:3:0:0:
464,186,257006,1,4,1:3:0:0:
467,95,257185,1,0,1:0:0:0:
396,50,257363,5,6,1:2:0:0:
323,92,257542,1,2,0:0:0:0:
251,135,257720,1,2,1:2:0:0:
192,320,258078,5,10,0:0:0:0:
95,273,258257,1,2,0:0:0:0:
2,226,258435,1,10,0:0:0:0:
422,147,258792,5,6,1:2:0:0:
356,247,258970,1,2,0:0:0:0:
290,348,259149,1,2,1:2:0:0:
57,32,259506,5,10,0:0:0:0:
157,140,259684,1,2,0:0:0:0:
259,250,259863,1,10,0:0:0:0:
512,0,260220,5,6,1:2:0:0:
512,112,260399,1,0,1:0:0:0:
435,55,260578,5,0,1:0:0:0:
473,212,260756,1,0,1:0:0:0:
355,112,260935,5,8,0:0:0:0:
393,305,261113,1,8,0:0:0:0:
260,152,261292,5,8,0:0:0:0:
252,349,261470,1,8,0:0:0:0:
73,306,261649,5,8,0:0:0:0:
29,272,261768,5,8,0:0:0:0:
23,217,261887,5,8,0:0:0:0:
58,176,262006,5,8,0:0:0:0:
112,170,262125,5,8,0:0:0:0:
157,139,262244,5,8,0:0:0:0:
166,95,262363,5,8,0:0:0:0:
154,53,262482,5,8,0:0:0:0:
120,30,262601,5,8,0:3:0:0:
81,36,262720,5,8,0:3:0:0:
65,58,262840,5,4,0:3:0:0:
65,80,262959,5,4,0:3:0:0:
74,89,263078,6,0,P|152:62|239:44,1,160,6|2,1:2|0:0,0:0:0:0:
480,256,264506,5,2,0:0:0:0:
480,256,264685,1,2,0:0:0:0:
480,257,264863,2,0,P|475:295|443:318,1,80,2|0,0:0|0:0,0:0:0:0:
394,164,265578,6,0,L|373:221,1,60,2|0,0:0|0:0,0:0:0:0:
380,233,265935,6,0,P|301:250|226:276,1,160,2|2,0:0|0:0,0:0:0:0:
32,64,267363,5,2,0:0:0:0:
32,64,267542,1,2,0:0:0:0:
32,64,267720,2,0,P|70:69|93:101,1,80,2|0,0:0|0:0,0:0:0:0:
