osu file format v14

[General]
AudioFilename: audio.mp3
AudioLeadIn: 0
PreviewTime: 208515
Countdown: 1
SampleSet: Soft
StackLeniency: 0.4
Mode: 0
LetterboxInBreaks: 0
WidescreenStoryboard: 1

[Editor]
Bookmarks: 29441,59618,79035,93811,123430,143291,143333,177667,229357,231892,232198,232504,244104,271170
DistanceSpacing: 0.9
BeatDivisor: 4
GridSize: 32
TimelineZoom: 2.703998

[Metadata]
Title:Niji no Kanata ni
TitleUnicode:虹の彼方に
Artist:ReoNa
ArtistUnicode:ReoNa
Creator:Gottagof4st
Version:As small flowers bloom
Source:ソードアート・オンライン アリシゼーション
Tags:cami gottagofast onlybiscuit ggf sword art online alicization season three 3 ost soundtrack japanese piano forget me not
BeatmapID:1945180
BeatmapSetID:931598

[Difficulty]
HPDrainRate:6
CircleSize:4.7
OverallDifficulty:7.2
ApproachRate:8.4
SliderMultiplier:1.7
SliderTickRate:1

[Events]
//Background and Video events
0,0,"Konachan.jpg",0,0
//Break Periods
//Storyboard Layer 0 (Background)
//Storyboard Layer 1 (Fail)
//Storyboard Layer 2 (Pass)
//Storyboard Layer 3 (Foreground)
//Storyboard Layer 4 (Overlay)
//Storyboard Sound Samples

[TimingPoints]
285,618.556701030928,4,2,1,30,1,0
285,-250,4,2,1,30,0,0
1212,-200,4,2,1,30,0,0
2449,-164.744645799012,4,2,1,30,0,0
2759,600,4,2,1,30,1,0
3659,-250,4,2,1,30,0,0
4559,-166.666666666667,4,2,1,30,0,0
5159,652.173913043478,4,2,1,30,1,0
5485,606.060606060606,4,2,1,30,1,0
6091,618.556701030928,4,2,1,30,1,0
6091,-200,4,2,1,30,0,0
6400,576.923076923077,4,2,1,30,1,0
6688,594.059405940594,4,2,1,30,1,0
6985,582.52427184466,4,2,1,30,1,0
7276,652.173913043478,4,2,1,30,1,0
7276,-200,4,2,1,30,0,0
7602,652.173913043478,4,2,1,30,1,0
7928,600,4,2,1,30,1,0
8228,625,4,2,1,30,1,0
8520,-200,4,2,1,30,0,0
9795,625,4,2,1,30,1,0
9795,-200,4,2,1,30,0,0
10708,625,4,2,1,30,1,0
11020,659.340659340659,4,2,1,30,1,0
11020,-200,4,2,1,30,0,0
11349,631.578947368421,4,2,1,30,1,0
12296,625,4,2,1,30,1,0
12296,-200,4,2,1,30,0,0
12609,625,4,2,1,30,1,0
14475,625,4,2,1,30,1,0
14475,-200,4,2,1,30,0,0
15704,625,4,2,1,30,1,0
15704,-200,4,2,1,30,0,0
17270,625,4,2,1,30,1,0
17270,-196.463654223969,4,2,1,30,0,0
17583,612.244897959184,4,2,1,30,1,0
19456,659.340659340659,4,2,1,30,1,0
19785,491.803278688525,4,2,1,30,1,0
19785,-166.666666666667,4,2,1,30,0,0
20031,638.297872340426,4,2,1,30,1,0
20690,638.297872340426,4,2,1,30,1,0
20690,-166.666666666667,4,2,1,30,0,0
21328,618.556701030928,4,2,1,30,1,0
22234,659.340659340659,4,2,1,30,1,0
22234,-166.666666666667,4,2,1,30,0,0
22563,638.297872340426,4,2,1,30,1,0
22872,638.297872340426,4,2,1,30,1,0
22872,-166.666666666667,4,2,1,30,0,0
23523,638.297872340426,4,2,1,30,1,0
24501,638.297872340426,4,2,1,30,1,0
24820,550.458715596331,4,2,1,30,1,0
24820,-166.666666666667,4,2,1,30,0,0
25095,631.578947368421,4,2,1,30,1,0
25728,-166.666666666667,4,2,1,30,0,0
26090,566.037735849057,4,2,1,30,1,0
26090,-166.112956810631,4,2,1,30,0,0
26372,631.578947368421,4,2,1,30,1,0
27003,-166.666666666667,4,2,1,30,0,0
27623,606.060606060606,4,2,1,30,1,0
27926,555.555555555556,4,2,1,30,1,0
28203,659.340659340659,4,2,1,30,1,0
28532,606.060606060606,4,2,1,30,1,0
29441,-200,4,2,1,30,0,0
30047,618.556701030928,4,2,1,40,1,0
30047,-156.25,4,2,1,40,0,0
31902,689.655172413793,4,2,1,40,1,0
32247,547.945205479452,4,2,1,40,1,0
32247,-166.666666666667,4,2,1,40,0,0
32521,714.285714285715,4,2,1,40,1,0
32878,638.297872340426,4,2,1,40,1,0
32878,-156.25,4,2,1,40,0,0
34154,560.747663551402,4,2,1,40,1,0
34435,638.297872340426,4,2,1,40,1,0
34435,-166.666666666667,4,2,1,40,0,0
35074,612.244897959184,4,2,1,40,1,0
35992,631.578947368421,4,2,1,40,1,0
35992,-156.25,4,2,1,40,0,0
36623,571.428571428571,4,2,1,40,1,0
36910,612.244897959184,4,2,1,40,1,0
37216,-181.818181818182,4,2,1,40,0,0
37522,628.272251308901,4,2,1,40,1,0
37836,-200,4,2,1,40,0,0
39406,-147.058823529412,4,2,1,40,0,0
40035,582.52427184466,4,2,1,40,1,0
40035,-166.666666666667,4,2,1,40,0,0
40617,612.244897959184,4,2,1,40,1,0
40923,-151.515151515152,4,2,1,40,0,0
41229,618.556701030928,4,2,1,40,1,0
42465,612.244897959184,4,2,1,40,1,0
42465,-142.857142857143,4,2,1,40,0,0
43383,-166.666666666667,4,2,1,40,0,0
44913,606.060606060606,4,2,1,40,1,0
44913,-166.666666666667,4,2,1,40,0,0
45834,582.52427184466,4,2,1,40,1,0
45834,-166.666666666667,4,2,1,40,0,0
46125,606.060606060606,4,2,1,40,1,0
46125,-166.666666666667,4,2,1,40,0,0
47337,612.244897959184,4,2,1,40,1,0
47337,-181.818181818182,4,2,1,40,0,0
48238,612.244897959184,4,2,1,40,1,0
48544,-166.666666666667,4,2,1,40,0,0
49785,618.556701030928,4,2,1,40,1,0
49785,-200,4,2,1,40,0,0
52259,612.244897959184,4,2,1,40,1,0
52259,-200,4,2,1,40,0,0
53203,612.244897959184,4,2,1,40,1,0
53203,-200,4,2,1,40,0,0
53509,638.297872340426,4,2,1,40,1,0
53828,585.9375,4,2,1,40,1,0
53828,-200,4,2,1,40,0,0
54707,600,4,2,1,40,1,0
55636,612.244897959184,4,2,1,40,1,0
55636,-200,4,2,1,40,0,0
56998,869.565217391304,4,2,1,40,1,0
57107,638.297872340426,4,2,1,40,1,0
58702,-200,4,2,1,40,0,0
58942,-200,4,2,1,5,0,0
59021,-111.111111111111,4,2,1,40,0,0
59261,-111.111111111111,4,2,1,5,0,0
59341,-76.9230769230769,4,2,1,40,0,0
59583,-76.9230769230769,4,2,1,5,0,0
59660,609.137055837563,4,2,1,40,1,0
59660,-76.9230769230769,4,2,1,50,0,0
59964,670.391061452513,4,2,1,50,1,0
60299,638.297872340426,4,2,1,50,1,0
60618,670.391061452513,4,2,1,50,1,0
60618,-76.9230769230769,4,2,1,50,0,0
60953,533.333333333333,4,2,1,50,1,0
61219,652.173913043478,4,2,1,50,1,0
61545,625,4,2,1,50,1,0
61857,478.08764940239,4,2,1,50,1,0
62096,655.737704918033,4,2,1,50,1,0
62096,-166.666666666667,4,2,1,50,0,0
62423,625,4,2,1,50,1,0
62735,550.45871559633,4,2,1,50,1,0
63010,609.137055837563,4,2,1,50,1,0
63010,-100,4,2,1,50,0,0
64533,618.556701030928,4,2,1,50,1,0
64533,-83.3333333333333,4,2,1,50,0,0
66079,600,4,2,1,50,1,0
66379,-83.3333333333333,4,2,1,50,0,0
66981,666.666666666667,4,2,1,50,1,0
66981,-166.666666666667,4,2,1,50,0,0
67647,535.714285714286,4,2,1,50,1,0
67890,-100,4,2,1,50,0,0
68496,594.059405940594,4,2,1,50,1,0
68793,666.666666666667,4,2,1,50,1,0
69126,558.139534883721,4,2,1,50,1,0
69405,606.060606060606,4,2,1,50,1,0
69405,-83.3333333333333,4,2,1,50,0,0
70011,674.157303370787,4,2,1,50,1,0
70348,612.244897959184,4,2,1,50,1,0
71572,512.820512820513,4,2,1,50,1,0
71572,-83.3333333333333,4,2,1,50,0,0
71829,662.983425414364,4,2,1,50,1,0
72160,558.13953488372,4,2,1,50,1,0
72439,681.818181818182,4,2,1,50,1,0
72779,-83.3333333333333,4,2,1,50,0,0
73120,545.454545454546,4,2,1,50,1,0
73392,618.556701030928,4,2,1,50,1,0
73392,-83.3333333333333,4,2,1,50,0,0
74241,603.015075376884,4,2,1,50,1,0
74241,-90.9090909090909,4,2,1,50,0,0
76351,-76.9230769230769,4,2,1,50,0,0
76653,606.060606060606,4,2,1,50,1,0
76956,-76.9230769230769,4,2,1,50,0,0
79077,600,4,2,1,50,1,0
79977,-100,4,2,1,50,0,0
81477,612.244897959184,4,2,1,50,1,0
81477,-100,4,2,1,50,0,0
83007,-76.9230769230769,4,2,1,50,0,0
83925,652.173913043478,4,2,1,50,1,0
83925,-76.9230769230769,4,2,1,50,0,0
84577,600,4,2,1,50,1,0
84877,576.923076923077,4,2,1,50,1,0
84877,-90.9090909090909,4,2,1,50,0,0
85165,600,4,2,1,50,1,0
85765,-90.9090909090909,4,2,1,50,0,0
86065,568.720379146919,4,2,1,50,1,0
86349,606.060606060606,4,2,1,50,1,0
86349,-166.666666666666,4,2,1,50,0,0
88470,625,4,2,1,50,1,0
88782,625,4,2,1,50,1,0
89094,645.161290322581,4,2,1,50,1,0
89416,625,4,2,1,50,1,0
90353,600,4,2,1,50,1,0
90653,659.340659340659,4,2,1,50,1,0
90982,618.556701030928,4,2,1,50,1,0
91291,645.161290322581,4,2,1,50,1,0
91613,-100,4,2,1,45,0,0
91936,609.137055837563,4,2,1,45,1,0
92240,634.920634920635,4,2,1,45,1,0
92240,-125,4,2,1,40,0,0
92874,-200,4,2,1,35,0,0
93509,710.059171597633,4,2,1,30,1,0
93864,606.060606060606,4,2,1,30,1,0
94762,-166.666666666667,4,2,1,30,0,0
95379,582.52427184466,4,2,1,30,1,0
95671,652.173913043478,4,2,1,30,1,0
95997,618.556701030928,4,2,1,30,1,0
95997,-166.666666666667,4,2,1,30,0,0
96306,618.556701030928,4,2,1,30,1,0
96615,631.578947368421,4,2,1,30,1,0
97246,566.037735849057,4,2,1,30,1,0
97246,-166.666666666667,4,2,1,30,0,0
97812,588.235294117647,4,2,1,30,1,0
98106,-166.666666666667,4,2,1,30,0,0
98400,631.578947368421,4,2,1,30,1,0
99347,600,4,2,1,30,1,0
99647,-166.666666666667,4,2,1,30,0,0
99947,560.747663551402,4,2,1,30,1,0
100227,588.235294117647,4,2,1,30,1,0
100815,645.161290322581,4,2,1,30,1,0
100815,-166.666666666667,4,2,1,30,0,0
101137,618.556701030928,4,2,1,30,1,0
103008,618.556701030928,4,2,1,30,1,0
103317,585.365853658537,4,2,1,30,1,0
103611,597.014925373134,4,2,1,30,1,0
103611,-166.666666666667,4,2,1,40,0,0
104506,626.959247648903,4,2,1,40,1,0
104506,-166.666666666667,4,2,1,40,0,0
105132,676.437429537768,4,2,1,40,1,0
105472,628.272251308901,4,2,1,40,1,0
105472,-166.112956810631,4,2,1,40,0,0
106098,625,4,2,1,40,1,0
106410,-166.666666666667,4,2,1,40,0,0
106723,674.157303370787,4,2,1,40,1,0
107060,659.340659340659,4,2,1,40,1,0
107719,571.428571428571,4,2,1,40,1,0
108004,618.556701030928,4,2,1,40,1,0
108313,571.428571428571,4,2,1,40,1,0
108598,620.47569803516,4,2,1,40,1,0
108598,-166.666666666667,4,2,1,40,0,0
109218,640.34151547492,4,2,1,40,1,0
109538,600,4,2,1,40,1,0
109538,-166.666666666667,4,2,1,40,0,0
109838,620.47569803516,4,2,1,40,1,0
110468,620.47569803516,4,2,1,40,1,0
110778,606.060606060606,4,2,1,40,1,0
111082,620.47569803516,4,2,1,40,1,0
112012,615.384615384615,4,2,1,40,1,0
112319,641.711229946524,4,2,1,40,1,0
112319,-166.666666666667,4,2,1,40,0,0
112639,603.015075376884,4,2,1,40,1,0
112940,634.920634920635,4,2,1,40,1,0
113257,609.137055837563,4,2,1,40,1,0
113561,625,4,2,1,40,1,0
113561,-166.666666666667,4,2,1,40,0,0
115436,681.818181818182,4,2,1,40,1,0
115776,594.059405940594,4,2,1,40,1,0
115776,-166.666666666667,4,2,1,40,0,0
116073,631.578947368421,4,2,1,40,1,0
116370,-166.666666666667,4,2,1,40,0,0
117651,571.428571428571,4,2,1,40,1,0
117936,645.161290322581,4,2,1,40,1,0
118581,606.060606060606,4,2,1,40,1,0
118581,-166.666666666667,4,2,1,40,0,0
120702,568.720379146919,4,2,1,40,1,0
120985,609.137055837563,4,2,1,40,1,0
120985,-166.666666666667,4,2,1,40,0,0
121594,591.133004926108,4,2,1,40,1,0
121594,-166.666666666667,4,2,1,40,0,0
122185,615.384615384615,4,2,1,40,1,0
123108,727.272727272726,4,2,1,40,1,0
123472,631.578947368421,4,2,1,40,1,0
123472,-153.846153846154,4,2,1,40,0,0
125998,625,4,2,1,40,1,0
128498,615.384615384615,4,2,1,40,1,0
130344,641.711229946523,4,2,1,40,1,0
130664,591.133004926108,4,2,1,40,1,0
130959,641.711229946523,4,2,1,40,1,0
131279,591.133004926108,4,2,1,40,1,0
131574,615.384615384615,4,2,1,40,1,0
131882,603.015075376884,4,2,1,40,1,0
132786,634.920634920634,4,2,1,40,1,0
133421,645.161290322581,4,2,1,40,1,0
133421,-125,4,2,1,40,0,0
134711,631.578947368421,4,2,1,40,1,0
135026,576.923076923077,4,2,1,40,1,0
135314,681.818181818182,4,2,1,40,1,0
135654,588.235294117647,4,2,1,40,1,0
135947,631.578947368421,4,2,1,40,1,0
135947,-125,4,2,1,40,0,0
138473,670.391061452513,4,2,1,40,1,0
139143,510.63829787234,4,2,1,40,1,0
139398,609.137055837563,4,2,1,40,1,0
140007,591.133004926108,4,2,1,40,1,0
140302,606.060606060606,4,2,1,40,1,0
140909,606.060606060606,4,2,1,40,1,0
142424,-200,4,2,1,40,0,0
142651,-200,4,2,1,5,0,0
142727,-111.111111111111,4,2,1,40,0,0
142954,-111.111111111111,4,2,1,5,0,0
143030,-76.9230769230769,4,2,1,40,0,0
143257,-76.9230769230769,4,2,1,5,0,0
143333,594.059405940594,4,2,1,40,1,0
143333,-76.9230769230769,4,2,1,50,0,0
144521,697.674418604651,4,2,1,50,1,0
144869,594.059405940594,4,2,1,50,1,0
145166,600,4,2,1,50,1,0
145766,626.959247648903,4,2,1,50,1,0
145766,-166.666666666667,4,2,1,50,0,0
146392,594.059405940594,4,2,1,50,1,0
146672,-100,4,2,1,50,0,0
146689,618.556701030928,4,2,1,50,1,0
147307,606.060606060606,4,2,1,50,1,0
147913,600,4,2,1,50,1,0
148212,621.761658031087,4,2,1,50,1,0
148212,-83.3333333333333,4,2,1,50,0,0
149766,591.133004926108,4,2,1,50,1,0
150061,-83.3333333333333,4,2,1,50,0,0
150504,621.761658031088,4,2,1,50,1,0
150659,631.578947368421,4,2,1,50,1,0
150659,-166.666666666667,4,2,1,50,0,0
151290,625,4,2,1,50,1,0
151603,612.244897959184,4,2,1,50,1,0
152215,600,4,2,1,50,1,0
152514,705.882352941176,4,2,1,50,1,0
152866,563.380281690141,4,2,1,50,1,0
153149,625,4,2,1,50,1,0
153774,722.891566265059,4,2,1,50,1,0
154136,612.244897959184,4,2,1,50,1,0
154442,591.133004926108,4,2,1,50,1,0
154738,600,4,2,1,50,1,0
155338,588.235294117647,4,2,1,50,1,0
155633,645.161290322581,4,2,1,50,1,0
155955,582.52427184466,4,2,1,50,1,0
156246,641.711229946524,4,2,1,50,1,0
156567,625,4,2,1,50,1,0
156567,-76.9230769230769,4,2,1,50,0,0
157192,606.060606060606,4,2,1,50,1,0
157192,-76.9230769230769,4,2,1,50,0,0
157798,566.037735849057,4,2,1,50,1,0
157798,-76.9230769230769,4,2,1,50,0,0
158081,609.137055837563,4,2,1,50,1,0
158081,-90.9090909090909,4,2,1,50,0,0
159603,641.711229946523,4,2,1,50,1,0
159603,-90.9090909090909,4,2,1,50,0,0
159923,597.014925373134,4,2,1,50,1,0
160221,620.47569803516,4,2,1,50,1,0
160221,-83.3333333333333,4,2,1,50,0,0
160842,625,4,2,1,50,1,0
160842,-83.3333333333333,4,2,1,50,0,0
161467,638.297872340426,4,2,1,50,1,0
161467,-76.9230769230769,4,2,1,50,0,0
162105,600,4,2,1,50,1,0
162405,-76.9230769230769,4,2,1,50,0,0
162705,591.133004926108,4,2,1,50,1,0
163000,606.060606060606,4,2,1,50,1,0
163000,-166.666666666667,4,2,1,50,0,0
163909,618.556701030928,4,2,1,50,1,0
163909,-100,4,2,1,50,0,0
165146,555.555555555556,4,2,1,50,1,0
165423,638.297872340426,4,2,1,50,1,0
165742,582.52427184466,4,2,1,50,1,0
166033,571.428571428571,4,2,1,50,1,0
166318,594.059405940594,4,2,1,50,1,0
166912,652.173913043478,4,2,1,50,1,0
166912,-76.9230769230769,4,2,1,50,0,0
167564,550.45871559633,4,2,1,50,1,0
167564,-76.9230769230769,4,2,1,50,0,0
167838,648.648648648648,4,2,1,50,1,0
167838,-100,4,2,1,50,0,0
168486,628.2722513089,4,2,1,50,1,0
169114,609.137055837563,4,2,1,50,1,0
169723,662.983425414364,4,2,1,50,1,0
170054,502.092050209205,4,2,1,50,1,0
170305,628.2722513089,4,2,1,50,1,0
170305,-166.666666666667,4,2,1,50,0,0
170933,615.384615384615,4,2,1,50,1,0
172163,662.983425414364,4,2,1,50,1,0
172494,597.014925373134,4,2,1,50,1,0
172794,615.384615384615,4,2,1,50,1,0
172794,-100,4,2,1,50,0,0
174024,648.648648648648,4,2,1,50,1,0
174348,563.38028169014,4,2,1,50,1,0
174629,615.384615384615,4,2,1,50,1,0
174936,574.162679425837,4,2,1,50,1,0
175222,606.060606060606,4,2,1,50,1,0
175525,-100,4,2,1,45,0,0
175828,618.556701030928,4,2,1,45,1,0
176137,-125,4,2,1,40,0,0
176446,631.578947368421,4,2,1,40,1,0
176761,-200,4,2,1,35,0,0
177709,615.384615384615,4,2,1,30,1,0
178324,689.655172413793,4,2,1,30,1,0
178668,625,4,2,1,30,1,0
178668,-166.666666666667,4,2,1,30,0,0
179293,560.747663551402,4,2,1,30,1,0
179574,625,4,2,1,30,1,0
179886,-166.666666666667,4,2,1,30,0,0
180199,674.157303370787,4,2,1,30,1,0
180536,625,4,2,1,30,1,0
181136,-166.666666666667,4,2,1,30,0,0
181473,600,4,2,1,30,1,0
181773,612.244897959184,4,2,1,30,1,0
182079,618.556701030928,4,2,1,30,1,0
182699,618.556701030928,4,2,1,40,1,0
183317,659.340659340659,4,2,1,40,1,0
183646,600,4,2,1,40,1,0
184246,618.556701030928,4,2,1,40,1,0
185173,612.244897959184,4,2,1,40,1,0
186397,-142.857142857143,4,2,1,40,0,0
187315,638.297872340426,4,2,1,40,1,0
187634,638.297872340426,4,2,1,40,1,0
187634,-125,4,2,1,40,0,0
188591,588.235294117647,4,2,1,40,1,0
188885,-125,4,2,1,40,0,0
189767,606.060606060606,4,2,1,40,1,0
190069,597.014925373134,4,2,1,40,1,0
190069,-125,4,2,1,40,0,0
191860,582.52427184466,4,2,1,40,1,0
192442,612.244897959184,4,2,1,40,1,0
192442,-125,4,2,1,40,0,0
193666,631.578947368421,4,2,1,40,1,0
193981,600,4,2,1,40,1,0
194281,645.161290322581,4,2,1,40,1,0
194603,576.923076923077,4,2,1,40,1,0
194893,609.137055837563,4,2,1,40,1,0
195197,-125,4,2,1,40,0,0
195502,591.133004926108,4,2,1,40,1,0
195797,-125,4,2,1,40,0,0
196388,615.384615384615,4,2,1,40,1,0
196695,641.711229946524,4,2,1,40,1,0
197015,628.272251308901,4,2,1,40,1,0
197329,606.060606060606,4,2,1,40,1,0
197329,-125,4,2,1,40,0,0
199450,659.340659340659,4,2,1,40,1,0
199614,560.747663551402,4,2,1,40,1,0
199614,-125,4,2,1,40,0,0
199754,603.925515853045,4,2,1,40,1,0
200660,606.060606060606,4,2,1,40,1,0
201266,645.161290322581,4,2,1,40,1,0
201588,588.235294117647,4,2,1,40,1,0
201882,566.037735849057,4,2,1,40,1,0
202166,606.060606060606,4,2,1,40,1,0
202166,-142.857142857143,4,2,1,40,0,0
203378,631.578947368421,4,2,1,40,1,0
203378,-166.666666666667,4,2,1,40,0,0
204009,618.556701030928,4,2,1,40,1,0
204628,681.818181818182,4,2,1,40,1,0
205309,606.060606060606,4,2,1,40,1,0
206218,612.244897959184,4,2,1,40,1,0
206524,606.060606060606,4,2,1,40,1,0
206827,519.480519480519,4,2,1,40,1,0
207085,625,4,2,1,40,1,0
207085,-500,4,2,1,40,0,0
207163,618.556701030928,4,2,1,40,1,0
208399,634.920634920635,4,2,1,40,1,0
208716,-166.666666666667,4,2,1,25,0,0
209668,625,4,2,1,25,1,0
209668,-500,4,2,1,25,0,0
212168,612.244897959184,4,2,1,25,1,0
212168,-500,4,2,1,25,0,0
213086,677.966101694915,4,2,1,25,1,0
213764,612.244897959184,4,2,1,25,1,0
213764,-500,4,2,1,25,0,0
214376,582.52427184466,4,2,1,25,1,0
214668,618.556701030928,4,2,1,25,1,0
215595,588.235294117647,4,2,1,25,1,0
215595,-333.333333333333,4,2,1,25,0,0
216183,625,4,2,1,25,1,0
216495,-500,4,2,1,25,0,0
216964,705.882352941176,4,2,1,25,1,0
217140,600,4,2,1,25,1,0
218040,612.244897959184,4,2,1,25,1,0
218652,659.340659340659,4,2,1,25,1,0
219311,638.297872340426,4,2,1,25,1,0
219630,609.137055837563,4,2,1,30,1,0
220543,655.737704918033,4,2,1,30,1,0
220544,-250,4,2,1,30,0,0
221198,547.945205479452,4,2,1,30,1,0
221198,-250,4,2,1,30,0,0
221471,634.920634920635,4,2,1,30,1,0
222105,612.244897959184,4,2,1,30,1,0
222105,-200,4,2,1,30,0,0
224247,582.52427184466,4,2,1,30,1,0
224539,609.137055837563,4,2,1,30,1,0
224539,-166.666666666667,4,2,1,35,0,0
225452,-142.857142857143,4,2,1,35,0,0
226061,-125,4,2,1,35,0,0
226670,-111.111111111111,4,2,1,40,0,0
226975,606.060606060606,4,2,1,40,1,0
227278,-100,4,2,1,45,0,0
227884,-100,4,2,1,50,0,0
228490,-200,4,2,1,40,0,0
228717,-200,4,2,1,5,0,0
228793,-111.111111111111,4,2,1,40,0,0
229020,-111.111111111111,4,2,1,5,0,0
229096,-76.9230769230769,4,2,1,40,0,0
229323,-76.9230769230769,4,2,1,5,0,0
229399,621.761658031088,4,2,1,40,1,0
229399,-76.9230769230769,4,2,1,50,0,0
229709,655.737704918033,4,2,1,50,1,0
230036,591.133004926108,4,2,1,50,1,0
230331,-76.9230769230769,4,2,1,50,0,0
230627,685.714285714286,4,2,1,50,1,0
230969,628.272251308901,4,2,1,50,1,0
231597,585.365853658537,4,2,1,50,1,0
231892,606.060606060606,4,2,1,50,1,0
231892,-200,4,2,1,50,0,0
232801,-100,4,2,1,50,0,0
233407,638.297872340426,4,2,1,50,1,0
233726,618.556701030928,4,2,1,50,1,0
234035,609.137055837563,4,2,1,50,1,0
234340,615.384615384615,4,2,1,50,1,0
234340,-83.3333333333333,4,2,1,50,0,0
234647,648.648648648648,4,2,1,50,1,0
234971,585.365853658536,4,2,1,50,1,0
235263,615.384615384615,4,2,1,50,1,0
236186,710.059171597633,4,2,1,50,1,0
236186,-83.3333333333333,4,2,1,50,0,0
236541,519.480519480519,4,2,1,50,1,0
236801,612.244897959184,4,2,1,50,1,0
236801,-166.666666666667,4,2,1,50,0,0
238331,600,4,2,1,50,1,0
238931,634.920634920635,4,2,1,50,1,0
239249,648.648648648648,4,2,1,50,1,0
239897,594.059405940594,4,2,1,50,1,0
240491,631.578947368421,4,2,1,50,1,0
241122,600,4,2,1,50,1,0
241422,576.923076923077,4,2,1,50,1,0
241710,609.137055837563,4,2,1,50,1,0
242014,648.648648648648,4,2,1,50,1,0
242338,603.015075376884,4,2,1,50,1,0
242639,615.384615384615,4,2,1,50,1,0
243869,555.555555555556,4,2,1,50,1,0
244146,610.997963340122,4,2,1,50,1,0
244451,636.942675159236,4,2,1,50,1,0
244769,657.894736842105,4,2,1,50,1,0
245097,566.037735849057,4,2,1,50,1,0
245380,600,4,2,1,50,1,0
245380,-83.3333333333333,4,2,1,50,0,0
245680,625,4,2,1,50,1,0
245992,-83.3333333333333,4,2,1,50,0,0
246305,582.52427184466,4,2,1,50,1,0
246595,652.173913043478,4,2,1,50,1,0
246595,-90.9090909090909,4,2,1,50,0,0
247247,566.037735849057,4,2,1,50,1,0
247530,-90.9090909090909,4,2,1,50,0,0
247813,588.235294117647,4,2,1,50,1,0
248408,638.297872340426,4,2,1,50,1,0
249046,666.666666666667,4,2,1,50,1,0
249046,-166.666666666667,4,2,1,50,0,0
249712,625.000000000001,4,2,1,50,1,0
250649,566.037735849057,4,2,1,50,1,0
250932,645.161290322581,4,2,1,50,1,0
251254,566.037735849057,4,2,1,50,1,0
251538,618.556701030928,4,2,1,50,1,0
251538,-166.666666666667,4,2,1,50,0,0
252156,582.52427184466,4,2,1,50,1,0
252447,612.244897959184,4,2,1,50,1,0
253059,600,4,2,1,50,1,0
253659,655.737704918033,4,2,1,50,1,0
253986,625,4,2,1,50,1,0
253986,-166.666666666667,4,2,1,50,0,0
254923,606.060606060606,4,2,1,50,1,0
255529,588.235294117647,4,2,1,50,1,0
255823,625,4,2,1,50,1,0
256135,631.578947368421,4,2,1,50,1,0
256766,612.244897959184,4,2,1,50,1,0
257073,550.45871559633,4,2,1,50,1,0
257350,625,4,2,1,50,1,0
257975,600,4,2,1,50,1,0
258574,618.556701030928,4,2,1,50,1,0
259192,582.52427184466,4,2,1,50,1,0
259483,606.060606060606,4,2,1,50,1,0
259786,594.059405940594,4,2,1,50,1,0
260677,618.556701030928,4,2,1,50,1,0
260986,606.060606060606,4,2,1,50,1,0
260986,-166.666666666667,4,2,1,50,0,0
262198,588.235294117647,4,2,1,50,1,0
262198,-125,4,2,1,50,0,0
262786,625,4,2,1,50,1,0
263411,566.037735849057,4,2,1,50,1,0
263694,685.714285714286,4,2,1,40,1,0
264036,588.235294117647,4,2,1,40,1,0
264624,606.060606060606,4,2,1,40,1,0
265230,582.52427184466,4,2,1,40,1,0
265521,631.578947368421,4,2,1,40,1,0
265836,631.578947368421,4,2,1,40,1,0
266151,-125,4,2,1,40,0,0
267099,722.89156626506,4,2,1,40,1,0
267460,-166.666666666667,4,2,1,35,0,0
267821,666.666666666667,4,2,1,35,1,0
268487,631.578947368421,4,2,1,30,1,0
268802,-500,4,2,1,30,0,0
271212,638.297872340426,4,2,1,30,1,0
271212,-250,4,2,1,30,0,0
271850,612.244897959184,4,2,1,30,1,0
272156,-200,4,2,1,30,0,0
272462,618.556701030928,4,2,1,30,1,0
273080,625,4,2,1,30,1,0
273392,-166.666666666667,4,2,1,30,0,0
273705,625,4,2,1,30,1,0
274642,-250,4,2,1,30,0,0
275580,670.391061452514,4,2,1,30,1,0
275580,-166.666666666667,4,2,1,30,0,0
275915,612.244897959184,4,2,1,30,1,0
276221,722.89156626506,4,2,1,30,1,0
276582,722.89156626506,4,2,1,30,1,0
276918,740.740740740741,4,2,1,30,1,0
277288,845.070422535211,4,2,1,30,1,0
277710,827.586206896552,4,2,1,30,1,0
278123,1090.90909090909,4,2,1,30,1,0
279748,582.52427184466,4,2,1,30,1,0
279893,693.64161849711,4,2,1,30,1,0
280239,689.655172413794,4,2,1,30,1,0
280583,722.89156626506,4,2,1,30,1,0
280937,916.030534351145,4,2,1,30,1,0
281395,1107.0110701107,4,2,1,30,1,0
282502,555.555555555556,4,2,1,30,1,0
282502,-200,4,2,1,30,0,0

[Colours]
Combo1 : 250,116,116
Combo2 : 239,193,143
Combo3 : 121,182,255
Combo4 : 148,148,148

[HitObjects]
81,86,285,22,0,P|108:78|156:77,1,68,2|2,0:1|0:0,0:0:0:0:
198,128,1212,2,0,P|217:132|246:132,1,42.5,2|2,0:1|0:1,0:0:0:0:
298,82,1831,1,2,0:0:0:0:
308,79,2140,1,2,0:0:0:0:
366,139,2449,6,0,P|381:187|368:239,1,101.999996887207,2|2,0:1|0:1,0:0:0:0:
274,293,3359,1,2,0:0:0:0:
309,359,3659,2,0,P|274:360|236:367,1,68,2|2,0:1|0:0,0:0:0:0:
172,270,4559,2,0,P|177:299|178:332,1,50.9999984436036,2|2,0:1|0:1,0:0:0:0:
51,369,5159,5,2,0:1:0:0:
106,222,5485,1,2,0:0:0:0:
90,250,5788,1,2,0:0:0:0:
47,176,6091,2,0,P|50:151|49:127,1,42.5,2|2,0:1|0:1,0:0:0:0:
124,199,6688,1,2,0:0:0:0:
140,227,6985,1,2,0:0:0:0:
189,107,7276,2,0,P|186:82|187:58,1,42.5,2|2,0:1|0:1,0:0:0:0:
104,4,7928,1,2,0:0:0:0:
96,31,8228,1,2,0:0:0:0:
174,44,8540,2,0,P|213:41|261:37,1,85,2|0,0:1|0:0,0:0:0:0:
398,0,9478,5,2,0:0:0:0:
412,26,9795,2,0,L|417:72,1,42.5,2|2,0:0|0:1,0:0:0:0:
445,65,10708,1,2,0:0:0:0:
431,91,11020,2,0,L|426:137,1,42.5,2|2,0:0|0:1,0:0:0:0:
413,154,11980,1,2,0:0:0:0:
473,217,12296,2,0,P|480:243|485:311,2,85,2|2|2,0:0|0:0|0:1,0:0:0:0:
341,354,14475,5,2,0:0:0:0:
316,334,14787,2,0,P|286:338|256:338,1,42.5,2|2,0:0|0:1,0:0:0:0:
274,314,15704,1,2,0:0:0:0:
249,334,16016,2,0,P|219:330|189:330,1,42.5,2|2,0:0|0:1,0:0:0:0:
190,349,16954,1,2,0:0:0:0:
94,289,17270,2,0,P|78:328|88:379,1,85.8499982970429,2|2,0:0|0:0,0:0:0:0:
9,219,18501,1,2,0:0:0:0:
9,219,19456,5,2,0:0:0:0:
30,193,19785,2,0,L|26:137,1,50.9999984436036,2|2,0:0|0:1,0:0:0:0:
50,135,20690,1,2,0:0:0:0:
29,109,21009,2,0,L|33:53,1,50.9999984436036,2|2,0:0|0:1,0:0:0:0:
18,38,21946,1,2,0:0:0:0:
111,76,22234,2,0,P|136:84|180:84,1,50.9999984436036,2|2,0:0|0:1,0:0:0:0:
259,8,22872,2,0,P|239:25|217:63,1,50.9999984436036,2|2,0:0|0:0,0:0:0:0:
226,135,23523,1,2,0:1:0:0:
226,135,24501,5,2,0:0:0:0:
244,158,24820,2,0,L|246:219,1,50.9999984436036,2|2,0:0|0:1,0:0:0:0:
270,213,25726,1,2,0:0:0:0:
252,236,26090,2,0,L|248:289,1,50.9999984436036,2|2,0:0|0:1,0:0:0:0:
226,285,27003,1,2,0:0:0:0:
244,308,27319,2,0,L|246:342,1,25.4999992218018,2|2,0:0|0:1,0:0:0:0:
297,384,27623,5,2,0:1:0:0:
383,347,27926,1,2,0:1:0:0:
270,213,28203,1,2,0:1:0:0:
349,173,28532,1,2,0:1:0:0:
326,110,28835,1,2,0:1:0:0:
333,98,29441,6,0,P|341:58|345:45,1,42.5,2|2,0:0|0:0,0:0:0:0:
256,128,30047,6,0,P|223:123|187:112,1,54.4,2|2,0:1|0:1,0:0:0:0:
127,47,30665,1,2,0:0:0:0:
71,90,30974,2,0,P|75:120|85:168,1,54.4,2|2,0:0|0:1,0:0:0:0:
163,286,31902,1,2,0:0:0:0:
188,270,32247,2,0,P|192:243|194:218,1,50.9999984436036,2|2,0:0|0:1,0:0:0:0:
257,171,32878,2,0,P|260:197|265:224,1,54.4,2|2,0:0|0:1,0:0:0:0:
323,261,33516,1,2,0:0:0:0:
333,267,34154,1,2,0:1:0:0:
392,204,34435,2,0,P|399:175|407:150,1,50.9999984436036,2|2,0:0|0:0,0:0:0:0:
496,97,35074,5,2,0:1:0:0:
500,109,35686,1,2,0:0:0:0:
469,170,35992,2,0,P|421:162|391:164,1,54.4,2|2,0:0|0:1,0:0:0:0:
245,93,36910,1,2,0:0:0:0:
220,114,37216,2,0,P|212:145|208:172,1,46.7500014266968,2|2,0:0|0:1,0:0:0:0:
187,188,37836,2,0,P|199:222|204:243,1,42.5,2|2,0:0|0:1,0:0:0:0:
257,265,38464,1,2,0:0:0:0:
211,334,38778,1,2,0:1:0:0:
47,260,39406,2,0,L|60:193,1,57.8000003527832,2|2,0:1|0:0,0:0:0:0:
90,172,39878,1,2,0:0:0:0:
101,165,40035,6,0,P|141:181|162:187,1,50.9999984436036,2|2,0:1|0:1,0:0:0:0:
225,160,40617,1,2,0:0:0:0:
244,182,40923,2,0,P|236:227|225:255,1,56.0999998287964,2|2,0:0|0:1,0:0:0:0:
238,249,41847,1,2,0:0:0:0:
302,310,42156,1,2,0:0:0:0:
305,297,42311,1,2,0:1:0:0:
308,285,42466,1,2,0:1:0:0:
372,229,42771,2,0,P|380:272|381:306,1,59.4999981842042,2|2,0:0|0:1,0:0:0:0:
402,314,43383,2,0,B|347:300|357:339|285:329,1,101.999996887207,2|0,0:0|0:0,0:0:0:0:
232,294,44301,1,2,0:1:0:0:
219,321,44607,1,2,0:0:0:0:
144,364,44913,6,0,P|137:323|131:296,1,50.9999984436036,2|2,0:1|0:1,0:0:0:0:
69,243,45519,1,2,0:0:0:0:
115,189,45834,2,0,P|139:195|158:206,1,38.2499988327027,2|0,0:0|0:1,0:0:0:0:
153,188,46125,2,0,P|160:147|166:120,1,50.9999984436036,2|0,0:1|0:0,0:0:0:0:
243,97,46731,1,2,0:0:0:0:
203,37,47034,1,2,0:0:0:0:
191,30,47185,1,2,0:1:0:0:
178,28,47337,2,0,P|167:71|164:89,2,46.7500014266968,2|2|2,0:1|0:0|0:0,0:0:0:0:
101,18,48238,1,2,0:1:0:0:
149,93,48544,2,0,P|161:158|167:218,1,101.999996887207,2|2,0:1|0:0,0:0:0:0:
153,200,49785,6,0,B|213:183|212:229|285:229,1,127.5,2|2,0:0|0:0,0:0:0:0:
334,188,51022,1,2,0:1:0:0:
338,192,51331,2,0,P|352:246|357:292,1,85,2|2,0:0|0:0,0:0:0:0:
423,339,52259,1,2,0:1:0:0:
447,323,52565,1,2,0:0:0:0:
498,207,53203,2,0,P|489:179|482:157,1,42.5,2|2,0:0|0:1,0:0:0:0:
446,91,53828,2,0,P|441:138|424:227,1,127.5,2|2,0:0|0:1,0:0:0:0:
286,91,55636,2,0,L|237:104,1,42.5,2|2,0:0|0:1,0:0:0:0:
119,64,56998,6,0,P|114:61|108:60,2,10.625,2|2|2,0:1|0:0|0:1,0:0:0:0:
25,7,58702,6,0,P|45:8|64:6,1,31.875,2|0,0:0|0:0,0:0:0:0:
86,31,59021,2,0,P|122:28|147:29,1,57.374998249054,2|0,0:0|0:0,0:0:0:0:
174,5,59341,2,0,P|219:7|271:1,1,82.8749962062838,2|0,0:0|0:0,0:0:0:0:
285,17,59660,6,0,L|279:146,1,110.499994941712,2|2,0:1|0:0,0:0:0:0:
288,143,60299,1,2,0:1:0:0:
183,192,60618,2,0,L|189:321,1,110.499994941712,2|2,0:1|0:0,0:0:0:0:
198,314,61219,1,2,0:1:0:0:
272,235,61545,1,2,0:0:0:0:
401,267,61857,1,2,0:0:0:0:
496,153,62096,6,0,L|485:87,1,50.9999984436036,2|2,0:1|0:0,0:0:0:0:
431,40,62735,1,2,0:0:0:0:
487,170,63010,1,2,0:1:0:0:
487,170,63619,1,2,0:1:0:0:
373,118,63923,1,2,0:1:0:0:
266,191,64228,2,0,P|248:201|224:209,1,42.5,2|2,0:0|0:0,0:0:0:0:
194,196,64456,1,2,0:1:0:0:
194,196,64533,6,0,L|189:312,1,101.999996887207,2|2,0:1|0:0,0:0:0:0:
202,311,65151,1,0,0:0:0:0:
74,383,65460,2,0,P|72:330|64:271,1,101.999996887207,2|0,0:1|0:0,0:0:0:0:
6,175,66079,1,2,0:0:0:0:
154,98,66304,1,2,0:0:0:0:
154,98,66379,2,0,P|154:164|73:200,1,152.999995330811,2|2,0:1|0:0,0:0:0:0:
6,175,66981,6,0,B|1:116,2,50.9999984436036,2|2|2,0:1|0:0|0:0,0:0:0:0:
15,187,67914,1,2,0:1:0:0:
15,187,68496,5,2,0:0:0:0:
113,154,68793,1,2,0:1:0:0:
229,208,69126,1,2,0:0:0:0:
368,131,69405,2,0,P|403:122|441:123,1,50.9999984436036,2|0,0:1|0:0,0:0:0:0:
361,148,69708,5,2,0:0:0:0:
274,108,70011,1,2,0:0:0:0:
153,221,70348,2,0,P|118:230|50:223,1,85,2|0,0:1|0:0,0:0:0:0:
145,236,70960,5,2,0:0:0:0:
219,272,71266,1,2,0:1:0:0:
347,219,71572,2,0,P|386:217|452:232,1,101.999996887207,2|2,0:0|0:1,0:0:0:0:
341,231,72160,5,2,0:0:0:0:
240,280,72439,1,2,0:0:0:0:
100,175,72779,2,0,P|64:159|-3:151,1,101.999996887207,2|0,0:1|0:0,0:0:0:0:
274,108,73392,2,0,P|302:81|362:50,1,101.999996887207,2|0,0:1|0:0,0:0:0:0:
112,37,74010,1,2,0:0:0:0:
222,178,74241,6,0,B|318:217|308:146|408:187,1,187.000005706787,2|2,0:1|0:0,0:0:0:0:
286,16,75145,2,0,P|272:72|277:127,1,93.5000028533936,2|0,0:1|0:0,0:0:0:0:
497,233,75748,2,0,P|491:175|467:125,1,93.5000028533936,2|0,0:1|0:0,0:0:0:0:
297,40,76351,2,0,L|420:49,1,110.499994941712,2|0,0:1|0:0,0:0:0:0:
353,253,76956,2,0,L|230:262,1,110.499994941712,2|0,0:1|0:0,0:0:0:0:
105,66,77562,6,0,B|146:112|146:112|123:288,1,220.999989883423,2|2,0:1|0:0,0:0:0:0:
132,281,78471,2,0,P|81:289|112:323,1,110.499994941712,2|2,0:0|0:0,0:0:0:0:
195,345,78925,1,2,0:0:0:0:
199,332,79001,1,2,0:0:0:0:
203,320,79077,2,0,P|213:280|204:233,2,85,2|2|2,0:1|0:0|0:0,0:0:0:0:
328,376,79977,6,0,B|444:375|444:375|408:330,1,170,2|2,0:1|0:0,0:0:0:0:
333,250,80877,2,0,P|320:207|328:164,1,85,2|2,0:0|0:0,0:0:0:0:
380,74,81327,1,2,0:0:0:0:
392,85,81402,1,2,0:0:0:0:
403,93,81477,6,0,P|429:103|487:108,1,85,2|2,0:1|0:0,0:0:0:0:
396,105,82089,1,2,0:0:0:0:
232,122,82395,1,2,0:1:0:0:
232,122,83007,2,0,P|251:145|262:179,1,55.2499974708558,2|0,0:0|0:0,0:0:0:0:
223,110,83313,2,0,P|193:114|158:107,1,55.2499974708558,2|0,0:1|0:0,0:0:0:0:
237,108,83619,2,0,P|247:80|271:53,1,55.2499974708558,2|0,0:0|0:0,0:0:0:0:
335,211,83925,6,0,B|279:178|279:178|124:204,1,220.999989883423,2|2,0:1|0:0,0:0:0:0:
117,216,84877,2,0,P|125:172|115:122,1,93.5000028533936,2|2,0:0|0:1,0:0:0:0:
46,17,85465,1,2,0:0:0:0:
129,116,85765,2,0,P|174:125|227:114,1,93.5000028533936,2|2,0:1|0:1,0:0:0:0:
364,13,86349,6,0,L|359:63,2,50.9999984436036,2|2|2,0:1|0:0|0:0,0:0:0:0:
379,5,87258,1,2,0:1:0:0:
379,5,87864,1,2,0:0:0:0:
421,86,88167,1,2,0:1:0:0:
373,200,88470,1,2,0:0:0:0:
444,365,88782,6,0,P|461:324|461:272,1,85,2|2,0:1|0:0,0:0:0:0:
432,373,89416,1,2,0:0:0:0:
279,300,89728,2,0,P|234:298|185:315,1,85,2|2,0:1|0:0,0:0:0:0:
287,311,90353,5,2,0:1:0:0:
323,225,90653,1,2,0:0:0:0:
271,126,90982,1,2,0:0:0:0:
356,6,91291,1,2,0:1:0:0:
364,13,91613,6,0,L|279:17,1,85,2|0,0:0|0:0,0:0:0:0:
219,71,92240,2,0,L|134:67,1,68,2|0,0:0|0:0,0:0:0:0:
101,16,92874,2,0,L|16:20,1,85,2|2,0:0|0:0,0:0:0:0:
5,10,93864,5,2,0:1:0:0:
5,10,94470,1,2,0:0:0:0:
47,72,94773,2,0,P|32:119|30:137,1,50.9999984436036,2|2,0:1|0:0,0:0:0:0:
10,139,95379,1,2,0:0:0:0:
53,219,95671,5,2,0:0:0:0:
112,178,95997,2,0,P|141:172|173:157,1,50.9999984436036,2|2,0:1|0:1,0:0:0:0:
182,180,96615,1,2,0:0:0:0:
262,226,96930,5,2,0:0:0:0:
318,183,97246,2,0,P|347:177|379:162,1,50.9999984436036,2|2,0:1|0:1,0:0:0:0:
307,173,97812,1,2,0:0:0:0:
246,223,98106,2,0,P|262:263|266:289,1,50.9999984436036,2|2,0:1|0:1,0:0:0:0:
326,327,98715,5,2,0:0:0:0:
358,316,99031,1,2,0:0:0:0:
408,266,99347,1,2,0:0:0:0:
374,201,99647,2,0,P|383:230|385:268,1,50.9999984436036,2|2,0:1|0:0,0:0:0:0:
408,266,100227,5,2,0:0:0:0:
436,278,100521,1,2,0:0:0:0:
488,186,100815,2,0,P|497:215|499:253,1,50.9999984436036,2|2,0:1|0:0,0:0:0:0:
503,116,101446,1,2,0:0:0:0:
503,116,103008,5,2,0:0:0:0:
437,93,103317,1,2,0:0:0:0:
426,99,103463,1,2,0:0:0:0:
416,105,103611,2,0,P|406:164|407:173,1,50.9999984436036,2|2,0:1|0:0,0:0:0:0:
341,205,104208,5,2,0:1:0:0:
313,193,104506,2,0,P|303:134|304:125,1,50.9999984436036,2|2,0:0|0:1,0:0:0:0:
219,65,105472,2,0,P|214:103|188:174,1,101.999996887207,2|2,0:0|0:1,0:0:0:0:
163,241,106410,2,0,P|218:232|236:231,1,50.9999984436036,2|2,0:0|0:1,0:0:0:0:
280,271,107060,1,2,0:0:0:0:
280,271,107719,1,2,0:0:0:0:
235,330,108004,5,2,0:1:0:0:
152,313,108313,1,2,0:0:0:0:
96,202,108598,6,0,P|73:179|50:164,1,50.9999984436036,2|2,0:1|0:0,0:0:0:0:
57,92,109218,1,0,0:1:0:0:
88,84,109538,2,0,P|117:106|142:121,1,50.9999984436036,2|2,0:0|0:1,0:0:0:0:
260,86,110468,1,2,0:0:0:0:
313,142,110778,1,2,0:0:0:0:
319,146,110929,1,2,0:0:0:0:
326,148,111082,6,0,P|360:146|421:138,2,85,2|2|2,0:1|0:0|0:0,0:0:0:0:
320,156,112012,1,2,0:0:0:0:
356,219,112320,2,0,P|353:247|347:274,1,50.9999984436036,2|2,0:1|0:1,0:0:0:0:
273,320,112940,1,2,0:0:0:0:
306,381,113257,1,2,0:0:0:0:
253,315,113561,6,0,P|253:261|265:201,1,101.999996887207,2|2,0:1|0:0,0:0:0:0:
219,153,114498,2,0,P|236:188|242:215,1,50.9999984436036,2|2,0:0|0:1,0:0:0:0:
164,310,115436,1,2,0:0:0:0:
146,293,115776,2,0,P|154:268|166:246,1,50.9999984436036,2|2,0:0|0:1,0:0:0:0:
171,171,116388,2,0,P|193:159|218:152,1,50.9999984436036,2|2,0:0|0:1,0:0:0:0:
274,102,117020,2,0,P|298:110|320:122,2,50.9999984436036,2|2|2,0:0|0:1|0:0,0:0:0:0:
215,37,117936,1,2,0:0:0:0:
215,37,118581,6,0,P|181:73|117:63,1,101.999996887207,2|2,0:1|0:0,0:0:0:0:
71,32,119490,1,2,0:0:0:0:
65,27,119641,1,2,0:0:0:0:
60,20,119793,2,0,B|43:85|73:71|52:136,1,101.999996887207,2|2,0:1|0:0,0:0:0:0:
14,176,120702,1,2,0:0:0:0:
10,182,120844,1,2,0:0:0:0:
8,189,120985,6,0,L|19:248,1,50.9999984436036,2|2,0:1|0:0,0:0:0:0:
72,286,121594,2,0,L|61:344,1,50.9999984436036,2|2,0:0|0:1,0:0:0:0:
148,249,122185,1,2,0:0:0:0:
155,221,122492,1,2,0:0:0:0:
149,196,122800,1,2,0:0:0:0:
149,196,123472,6,0,P|201:213|264:207,1,110.499994941712,2|2,0:1|0:0,0:0:0:0:
231,83,124419,2,0,L|227:143,1,55.2499974708558,2|2,0:0|0:1,0:0:0:0:
324,237,125050,2,0,L|320:177,1,55.2499974708558,2|0,0:0|0:0,0:0:0:0:
341,73,125682,1,2,0:0:0:0:
434,176,125998,6,0,P|417:116|307:103,1,170,2|0,0:1|0:0,0:0:0:0:
255,209,126935,1,2,0:0:0:0:
234,31,127248,2,0,L|238:212,1,170,2|2,0:1|0:0,0:0:0:0:
148,122,128185,1,2,0:0:0:0:
143,110,128341,1,2,0:0:0:0:
139,99,128498,6,0,P|89:91|52:93,1,85,2|0,0:1|0:0,0:0:0:0:
19,189,129113,1,2,0:0:0:0:
149,214,129421,2,0,P|193:189|228:178,1,85,2|0,0:0|0:0,0:0:0:0:
168,282,130036,2,0,P|123:257|88:246,1,85,2|0,0:0|0:0,0:0:0:0:
21,324,130664,1,2,0:0:0:0:
28,332,131279,5,2,0:0:0:0:
102,271,131574,1,2,0:0:0:0:
206,353,131882,1,2,0:1:0:0:
200,367,132485,5,2,0:1:0:0:
311,348,132786,1,2,0:0:0:0:
238,245,133103,1,2,0:0:0:0:
385,307,133421,6,0,P|391:234|408:158,1,136,2|2,0:1|0:0,0:0:0:0:
313,57,134388,2,0,P|321:94|326:124,1,68,2|0,0:1|0:0,0:0:0:0:
420,28,135026,1,2,0:0:0:0:
320,49,135314,1,2,0:1:0:0:
251,14,135654,1,2,0:0:0:0:
150,92,135947,6,0,P|82:85|14:82,1,136,2|2,0:1|0:0,0:1:0:0:
217,165,136894,1,2,0:1:0:0:
211,173,137526,1,2,0:0:0:0:
227,264,137842,1,2,0:1:0:0:
113,142,138157,1,2,0:0:0:0:
48,276,138473,6,0,P|53:302|59:370,2,85,2|2|2,0:1|0:0|0:0,0:0:0:0:
121,164,139398,1,2,0:1:0:0:
124,171,140007,1,2,0:0:0:0:
195,229,140302,1,2,0:1:0:0:
294,180,140605,1,2,0:0:0:0:
406,284,140909,6,0,P|396:233|391:195,1,85,2|0,0:1|0:0,0:0:0:0:
422,85,141515,1,2,0:1:0:0:
474,203,141818,1,2,0:0:0:0:
280,161,142121,1,2,0:1:0:0:
328,35,142424,6,0,P|331:60|331:75,1,31.875,2|0,0:0|0:0,0:0:0:0:
309,101,142727,2,0,P|305:138|304:167,1,57.374998249054,2|0,0:1|0:0,0:0:0:0:
314,184,143030,1,2,0:0:0:0:
314,184,143105,2,0,L|313:224,2,27.6249987354279,2|2|2,0:0|0:0|0:0,0:0:0:0:
288,242,143333,6,0,P|261:218|172:210,1,110.499994941712,2|2,0:1|0:0,0:0:0:0:
105,285,143927,1,2,0:1:0:0:
86,158,144224,2,0,L|92:287,1,110.499994941712,2|2,0:1|0:0,0:0:0:0:
91,277,144869,1,2,0:0:0:0:
20,212,145166,1,2,0:1:0:0:
100,129,145466,1,2,0:0:0:0:
0,50,145766,6,0,P|-3:23|3:-4,2,50.9999984436036,2|2|2,0:1|0:0|0:0,0:0:0:0:
12,60,146689,1,2,0:1:0:0:
12,60,147307,1,2,0:0:0:0:
120,11,147610,1,2,0:1:0:0:
200,96,147913,2,0,P|219:98|243:93,1,42.5,2|0,0:0|0:0,0:0:0:0:
333,0,148212,6,0,P|317:38|327:101,1,101.999996887207,2|2,0:1|0:0,0:0:0:0:
336,104,148833,1,0,0:0:0:0:
506,44,149144,2,0,L|394:54,1,101.999996887207,2|0,0:1|0:0,0:0:0:0:
329,126,149766,1,2,0:0:0:0:
455,209,150061,2,0,B|475:244|475:244|448:357,1,152.999995330811,2|2,0:1|0:0,0:0:0:0:
374,380,150659,6,0,B|315:385,2,50.9999984436036,2|2|2,0:1|0:0|0:0,0:0:0:0:
385,369,151603,1,2,0:1:0:0:
385,369,152215,5,2,0:1:0:0:
303,283,152514,1,2,0:0:0:0:
233,311,152866,1,2,0:0:0:0:
111,253,153149,2,0,P|82:248|20:253,1,85,2|2,0:1|0:0,0:0:0:0:
117,265,153774,1,2,0:0:0:0:
188,149,154136,2,0,P|177:121|142:70,1,85,2|0,0:1|0:0,0:0:0:0:
183,163,154738,5,2,0:1:0:0:
244,233,155038,1,2,0:0:0:0:
239,251,155338,1,2,0:0:0:0:
354,175,155633,2,0,P|372:152|399:96,1,85,2|2,0:1|0:0,0:0:0:0:
249,242,156246,1,2,0:0:0:0:
376,319,156567,2,0,P|412:325|490:319,1,110.499994941712,2|0,0:1|0:0,0:0:0:0:
264,246,157192,2,0,P|248:287|253:352,1,110.499994941712,2|2,0:0|0:1,0:0:0:0:
392,196,157798,2,0,L|385:130,1,55.2499974708558,2|2,0:0|0:0,0:0:0:0:
403,111,158010,1,2,0:0:0:0:
403,111,158081,6,0,B|307:72|317:143|217:102,1,187.000005706787,2|2,0:1|0:0,0:0:0:0:
72,20,158994,2,0,L|178:15,1,93.5000028533936,2|0,0:1|0:0,0:0:0:0:
95,166,159603,2,0,L|-11:161,1,93.5000028533936,2|0,0:1|0:0,0:0:0:0:
157,112,160221,2,0,P|171:162|165:215,1,101.999996887207,2|0,0:1|0:0,0:0:0:0:
23,370,160842,2,0,P|12:319|24:265,1,101.999996887207,2|0,0:1|0:0,0:0:0:0:
239,262,161467,6,0,B|193:303|193:303|17:280,1,220.999989883423,2|2,0:1|0:0,0:0:0:0:
159,130,162405,2,0,P|183:183|147:230,1,110.499994941712,2|2,0:1|0:0,0:0:0:0:
43,199,163000,2,0,B|38:173|38:173|42:147,2,50.9999984436036,2|2|2,0:1|0:0|0:0,0:0:0:0:
158,223,163909,6,0,P|181:188|125:81,1,170,2|2,0:1|0:1,0:0:0:0:
28,50,164836,2,0,P|67:67|113:62,1,85,2|2,0:0|0:1,0:0:0:0:
245,1,165423,6,0,L|234:93,1,85,2|2,0:1|0:0,0:0:0:0:
258,5,166033,1,2,0:0:0:0:
378,93,166318,1,2,0:1:0:0:
378,93,166912,2,0,P|367:120|343:147,1,55.2499974708558,2|0,0:1|0:0,0:0:0:0:
383,79,167238,2,0,P|364:55|353:21,1,55.2499974708558,2|0,0:0|0:0,0:0:0:0:
392,90,167564,2,0,P|421:84|456:91,1,55.2499974708558,2|0,0:0|0:0,0:0:0:0:
438,211,167838,6,0,L|451:311,2,85,2|2|0,0:1|0:0|0:0,0:0:0:0:
376,311,168800,2,0,P|335:302|288:300,1,85,2|0,0:1|0:0,0:0:0:0:
211,323,169418,1,2,0:0:0:0:
99,376,169723,2,0,P|111:329|111:270,1,85,2|2,0:1|0:0,0:0:0:0:
50,174,170305,6,0,L|-1:168,2,50.9999984436036,2|2|2,0:1|0:0|0:1,0:0:0:0:
58,183,171240,1,2,0:1:0:0:
58,183,171856,1,2,0:0:0:0:
131,140,172163,1,2,0:1:0:0:
225,200,172494,1,2,0:0:0:0:
355,130,172794,6,0,P|372:89|372:37,1,85,2|2,0:1|0:0,0:0:0:0:
350,141,173409,1,2,0:0:0:0:
439,223,173717,2,0,P|456:264|456:316,1,85,2|2,0:1|0:0,0:0:0:0:
365,362,174348,5,2,0:1:0:0:
300,306,174629,1,2,0:0:0:0:
208,306,174936,1,2,0:0:0:0:
102,365,175222,1,2,0:1:0:0:
106,369,175525,6,0,L|102:284,1,85,2|2,0:0|0:0,0:0:0:0:
31,248,176137,2,0,L|34:178,1,68,2|2,0:0|0:1,0:0:0:0:
104,151,176761,2,0,L|99:48,1,85,2|2,0:0|0:0,0:0:0:0:
91,50,177709,5,2,0:1:0:0:
100,66,178324,1,2,0:0:0:0:
148,151,178668,2,0,P|153:167|158:203,1,50.9999984436036,2|0,0:1|0:0,0:0:0:0:
147,222,179293,1,2,0:0:0:0:
197,279,179574,1,2,0:0:0:0:
297,233,179886,2,0,P|313:236|345:249,1,50.9999984436036,2|2,0:1|0:1,0:0:0:0:
361,266,180536,5,2,0:0:0:0:
397,187,180848,1,0,0:0:0:0:
334,83,181161,2,0,P|325:59|319:31,1,50.9999984436036,2|0,0:1|0:0,0:0:0:0:
331,19,181773,1,2,0:0:0:0:
174,82,182079,1,2,0:1:0:0:
41,301,182699,6,0,B|128:257|125:334|209:294,1,170,2|2,0:1|0:0,0:0:0:0:
177,134,183646,2,0,P|163:174|163:216,1,85,2|0,0:1|0:0,0:0:0:0:
219,303,184246,1,2,0:0:0:0:
318,318,184555,1,2,0:0:0:0:
456,340,184863,5,2,0:1:0:0:
471,353,185479,1,2,0:1:0:0:
427,238,185785,1,2,0:1:0:0:
358,383,186091,1,2,0:1:0:0:
308,210,186397,2,0,P|268:189|233:180,1,59.4999981842042,2|0,0:1|0:0,0:0:0:0:
123,312,187009,2,0,P|163:291|195:280,1,59.4999981842042,2|2,0:1|0:0,0:0:0:0:
18,166,187634,6,0,B|20:184|51:196|51:196|88:151|60:113,1,136,2|2,0:1|0:0,0:0:0:0:
0,17,188591,1,2,0:1:0:0:
80,121,188885,2,0,P|113:126|147:128,1,68,2|2,0:0|0:0,0:0:0:0:
171,123,189326,2,0,P|198:119|213:120,1,34,2|2,0:0|0:1,0:0:0:0:
299,164,189767,1,2,0:0:0:0:
387,37,190069,6,0,L|392:109,2,68,2|2|2,0:1|0:0|0:0,0:0:0:0:
394,30,191263,1,2,0:0:0:0:
317,74,191561,1,2,0:0:0:0:
462,159,191860,1,2,0:1:0:0:
385,115,192151,1,2,0:0:0:0:
424,264,192442,6,0,B|443:257|450:238|450:238|402:201|356:226,1,136,2|2,0:1|0:0,0:0:0:0:
304,303,193360,2,0,P|257:315|233:317,1,68,2|2,0:1|0:0,0:0:0:0:
167,207,193981,1,2,0:1:0:0:
249,241,194281,1,2,0:0:0:0:
120,284,194603,1,2,0:0:0:0:
7,142,194893,5,2,0:1:0:0:
21,157,195197,2,0,P|54:164|98:166,1,68,2|2,0:0|0:0,0:0:0:0:
137,89,195797,2,0,B|114:124|114:124|132:218,1,136,2|2,0:1|0:0,0:0:0:0:
242,279,196695,1,2,0:1:0:0:
280,213,197015,1,2,0:0:0:0:
439,292,197329,6,0,L|371:305,2,68,2|2|2,0:1|0:0|0:0,0:0:0:0:
383,209,198238,1,2,0:1:0:0:
481,169,198541,2,0,P|487:126|485:95,1,68,2|2,0:0|0:1,0:0:0:0:
398,20,199147,2,0,P|361:39|330:51,1,68,2|2,0:1|0:0,0:0:0:0:
271,58,199614,6,0,L|263:80,2,17,2|2|2,0:0|0:0|0:1,0:0:0:0:
159,7,200055,1,2,0:0:0:0:
185,88,200357,1,2,0:0:0:0:
192,98,200963,5,2,0:0:0:0:
116,82,201266,1,2,0:1:0:0:
64,174,201588,1,2,0:0:0:0:
140,158,201882,1,2,0:0:0:0:
225,237,202166,6,0,P|196:232|153:231,2,59.4999981842042,2|2|2,0:1|0:0|0:0,0:0:0:0:
296,307,203075,1,2,0:0:0:0:
377,253,203378,2,0,P|381:229|380:200,1,50.9999984436036,2|2,0:1|0:0,0:0:0:0:
319,112,204009,1,2,0:1:0:0:
323,116,204318,1,2,0:0:0:0:
470,138,204627,5,2,0:1:0:0:
189,204,205309,1,2,0:0:0:0:
200,209,206218,5,2,0:1:0:0:
162,145,206524,1,2,0:1:0:0:
207,91,206827,1,2,0:1:0:0:
162,33,207086,2,0,L|164:29,1,4.25,2|2,0:0|0:1,0:0:0:0:
190,46,208716,5,2,0:0:0:0:
200,32,209351,1,2,0:0:0:0:
133,91,209668,2,0,L|133:143,1,51,2|2,0:1|0:1,0:0:0:0:
133,142,211230,5,2,0:0:0:0:
144,154,211855,1,2,0:0:0:0:
52,113,212168,2,0,L|52:164,1,51,2|2,0:1|0:1,0:0:0:0:
52,164,213764,6,0,L|36:167,2,17,2|2|2,0:0|0:0|0:0,0:0:0:0:
115,203,214668,1,2,0:1:0:0:
115,203,215595,2,0,P|118:219|119:233,1,25.4999992218018,2|0,0:0|0:0,0:0:0:0:
87,291,216183,1,2,0:0:0:0:
143,332,216495,2,0,P|155:327|166:324,1,25.5,2|2,0:0|0:0,0:0:0:0:
188,323,217140,5,2,0:1:0:0:
378,64,218040,1,2,0:1:0:0:
378,64,218652,5,2,0:0:0:0:
318,26,218981,1,2,0:0:0:0:
264,75,219311,1,2,0:0:0:0:
153,16,219630,5,2,0:1:0:0:
153,16,220544,2,0,P|150:32|150:52,1,34,2|0,0:0|0:0,0:0:0:0:
93,98,221198,2,0,P|96:114|96:134,1,34,2|2,0:0|0:1,0:0:0:0:
150,181,221788,1,2,0:0:0:0:
84,220,222105,6,0,P|107:210|132:202,1,42.5,2|2,0:1|0:0,0:0:0:0:
173,257,222717,1,2,0:0:0:0:
224,314,223023,2,0,P|247:324|272:332,1,42.5,2|0,0:1|0:0,0:0:0:0:
353,263,223635,2,0,P|330:273|305:281,1,42.5,2|0,0:1|0:0,0:0:0:0:
280,211,224247,1,2,0:0:0:0:
352,121,224539,6,0,P|348:146|347:176,2,50.9999984436036,2|2|2,0:1|0:0|0:0,0:0:0:0:
310,37,225452,2,0,L|247:31,1,59.4999981842042,2|0,0:1|0:0,0:0:0:0:
172,120,226061,2,0,L|245:112,1,68,2|0,0:1|0:0,0:0:0:0:
110,22,226670,2,0,P|84:55|65:99,1,76.4999976654053,2|0,0:1|0:0,0:0:0:0:
170,204,227278,2,0,P|176:162|170:114,1,85,2|0,0:1|0:0,0:0:0:0:
77,262,227884,5,2,0:1:0:0:
77,262,228490,6,0,L|117:258,1,31.875,2|0,0:0|0:0,0:0:0:0:
138,276,228793,2,0,L|195:281,1,57.374998249054,2|0,0:0|0:0,0:0:0:0:
223,259,229096,2,0,L|310:250,1,82.8749962062838,2|0,0:0|0:0,0:0:0:0:
340,271,229399,6,0,B|329:306|329:306|349:386,1,110.499994941712,2|0,0:1|0:0,0:0:0:0:
367,384,230036,1,2,0:0:0:0:
492,294,230331,2,0,P|504:245|491:187,1,110.499994941712,2|0,0:1|0:0,0:0:0:0:
477,174,230969,1,2,0:0:0:0:
366,236,231283,1,2,0:0:0:0:
255,171,231597,1,2,0:0:0:0:
157,293,231892,6,0,L|151:240,2,42.5,2|2|2,0:1|0:0|0:0,0:0:0:0:
167,302,232801,1,2,0:1:0:0:
167,302,233407,1,2,0:0:0:0:
121,188,233726,1,2,0:0:0:0:
69,336,234035,1,2,0:0:0:0:
14,177,234340,6,0,P|3:126|1:76,1,101.999996887207,2|2,0:1|0:0,0:0:0:0:
10,65,234971,1,0,0:0:0:0:
96,29,235263,1,2,0:1:0:0:
222,91,235570,1,2,0:1:0:0:
182,18,235878,1,2,0:0:0:0:
306,42,236186,2,0,P|321:90|312:144,1,101.999996887207,2|2,0:1|0:0,0:0:0:0:
232,253,236801,6,0,B|239:195,2,50.9999984436036,2|2|2,0:1|0:0|0:0,0:0:0:0:
239,267,237719,1,2,0:1:0:0:
239,267,238331,5,2,0:0:0:0:
308,216,238631,1,2,0:1:0:0:
427,238,238931,1,2,0:0:0:0:
489,384,239249,1,2,0:1:0:0:
495,373,239573,6,0,B|464:363|464:363|411:370,1,85,2|2,0:0|0:0,0:0:0:0:
344,295,240194,2,0,B|313:305|313:305|260:298,1,85,2|0,0:1|0:0,0:0:0:0:
191,378,240806,5,2,0:0:0:0:
250,289,241122,1,2,0:1:0:0:
212,164,241422,1,2,0:0:0:0:
87,87,241710,2,0,P|42:93|1:111,1,85,2|2,0:1|0:0,0:0:0:0:
97,92,242338,1,2,0:0:0:0:
212,164,242639,2,0,B|268:131|254:77|254:77|221:67|186:87,1,170,2|2,0:1|0:0,0:0:0:0:
104,195,243562,2,0,P|100:230|99:292,1,85,2|2,0:1|0:0,0:0:0:0:
223,374,244146,6,0,L|133:381,1,85,2|2,0:1|0:0,0:0:0:0:
280,289,244769,2,0,L|370:296,1,85,2|2,0:1|0:0,0:0:0:0:
139,212,245380,2,0,L|33:220,1,101.999996887207,2|2,0:1|0:0,0:0:0:0:
353,122,245992,2,0,L|458:130,1,101.999996887207,2|2,0:1|0:0,0:0:0:0:
200,8,246596,5,2,0:1:0:0:
195,18,246921,2,0,P|189:62|211:109,1,93.5000028533936,2|2,0:0|0:0,0:0:0:0:
348,85,247530,2,0,P|312:57|261:53,1,93.5000028533936,2|2,0:1|0:0,0:0:0:0:
205,125,248107,1,2,0:0:0:0:
276,259,248408,1,2,0:1:0:0:
94,362,249046,6,0,L|42:365,2,50.9999984436036,2|2|2,0:1|0:0|0:0,0:0:0:0:
259,278,250024,1,2,0:1:0:0:
259,278,250649,1,2,0:0:0:0:
152,233,250932,1,2,0:1:0:0:
139,248,251254,1,2,0:0:0:0:
26,160,251538,6,0,L|24:99,2,50.9999984436036,2|2|2,0:1|0:0|0:0,0:0:0:0:
87,328,252447,1,2,0:1:0:0:
87,328,253059,1,2,0:0:0:0:
200,279,253359,1,2,0:1:0:0:
208,293,253659,1,2,0:0:0:0:
347,340,253986,6,0,P|376:353|401:358,2,50.9999984436036,2|2|2,0:1|0:0|0:0,0:0:0:0:
321,184,254923,1,2,0:1:0:0:
321,184,255529,1,2,0:1:0:0:
441,151,255823,1,2,0:0:0:0:
303,81,256135,2,0,P|259:75|215:78,1,85,2|2,0:1|0:0,0:0:0:0:
168,170,256766,5,2,0:1:0:0:
193,89,257073,1,2,0:0:0:0:
122,0,257350,1,2,0:1:0:0:
0,13,257662,2,0,L|9:98,1,85,2|2,0:1|0:0,0:0:0:0:
80,206,258275,1,2,0:1:0:0:
89,185,258574,1,2,0:0:0:0:
100,344,258883,6,0,P|59:354|4:356,1,85,2|2,0:1|0:0,0:0:0:0:
103,333,259483,1,2,0:0:0:0:
232,367,259786,1,2,0:1:0:0:
232,367,260380,1,2,0:0:0:0:
346,307,260677,1,2,0:1:0:0:
402,348,260986,6,0,P|431:355|452:358,2,50.9999984436036,2|2|2,0:1|0:0|0:0,0:0:0:0:
315,206,261895,1,2,0:0:0:0:
265,260,262198,2,0,P|218:279|187:278,2,68,2|2|2,0:1|0:0|0:1,0:0:0:0:
356,122,263098,1,2,0:0:0:0:
392,189,263411,1,2,0:0:0:0:
443,75,263694,5,2,0:0:0:0:
374,114,264036,1,2,0:0:0:0:
283,62,264330,1,2,0:0:0:0:
172,126,264624,1,2,0:1:0:0:
172,126,265230,5,2,0:0:0:0:
131,47,265521,1,2,0:1:0:0:
169,147,265836,1,2,0:0:0:0:
96,237,266151,2,0,L|26:244,2,68,2|2|2,0:0|0:0|0:0,0:0:0:0:
185,318,267099,1,2,0:0:0:0:
200,302,267460,2,0,P|233:295|263:295,1,50.9999984436036,2|2,0:0|0:0,0:0:0:0:
250,294,268487,1,2,0:0:0:0:
309,353,268802,6,0,L|413:350,1,102,2|0,0:0|0:0,0:0:0:0:
512,384,271212,22,0,L|503:309,1,68,2|2,0:0|0:0,0:0:0:0:
454,253,272156,2,0,L|459:205,1,42.5,2|2,0:1|0:0,0:0:0:0:
505,154,272771,1,2,0:0:0:0:
506,143,273080,1,2,0:0:0:0:
424,78,273392,2,0,P|382:69|318:69,1,101.999996887207,2|2,0:1|0:0,0:0:0:0:
268,127,274330,1,2,0:0:0:0:
189,27,274642,2,0,P|196:54|200:97,1,68,2|2,0:1|0:0,0:0:0:0:
148,158,275580,2,0,P|143:187|142:220,1,50.9999984436036,2|2,0:1|0:0,0:0:0:0:
103,269,276221,5,2,0:1:0:0:
154,208,276582,1,2,0:0:0:0:
228,224,276918,1,2,0:0:0:0:
256,296,277288,2,0,P|259:321|258:345,1,42.5,2|0,0:1|0:0,0:0:0:0:
264,288,277710,5,2,0:1:0:0:
341,280,278123,1,2,0:0:0:0:
474,268,278668,1,2,0:0:0:0:
480,277,279748,6,0,L|481:312,2,21.25,2|0|2,0:0|0:0|0:1,0:0:0:0:
435,207,280239,1,2,0:0:0:0:
481,142,280583,1,2,0:0:0:0:
401,28,280937,5,2,0:1:0:0:
393,44,281395,1,2,0:1:0:0:
388,58,282502,2,0,L|389:73,4,10.625,2|2|2|2|2,0:0|0:0|0:0|0:0|0:1,0:0:0:0:
