osu file format v14

[General]
AudioFilename: audio.mp3
AudioLeadIn: 0
PreviewTime: 51559
Countdown: 0
SampleSet: Soft
StackLeniency: 0.7
Mode: 2
LetterboxInBreaks: 0
WidescreenStoryboard: 1

[Editor]
DistanceSpacing: 1.1
BeatDivisor: 12
GridSize: 8
TimelineZoom: 1.6

[Metadata]
Title:Nai Nai (TV Size)
TitleUnicode:ないない (TV Size)
Artist:ReoNa
ArtistUnicode:ReoNa
Creator:rew0825
Version:Salad
Source:シャドーハウス
Tags:Shadows House Female Vocal Vocals Anime ED Ending JP Japanese Pop J-Pop JPop
BeatmapID:3854224
BeatmapSetID:1864138

[Difficulty]
HPDrainRate:3
CircleSize:3
OverallDifficulty:6.8
ApproachRate:6.8
SliderMultiplier:1.94
SliderTickRate:1

[Events]
//Background and Video events
Video,0,"vdo.m4v"
0,0,"bg.jpg",0,0
//Break Periods
//Storyboard Layer 0 (Background)
//Storyboard Layer 1 (Fail)
//Storyboard Layer 2 (Pass)
//Storyboard Layer 3 (Foreground)
//Storyboard Layer 4 (Overlay)
//Storyboard Sound Samples

[TimingPoints]
559,461.538461538462,4,2,25,65,1,0
22712,-100,4,2,25,70,0,0
37482,-100,4,2,26,75,0,0
51789,-100,4,2,27,75,0,0
52251,-100,4,2,27,80,0,1
78097,-100,4,2,26,75,0,0
79020,-100,4,2,27,75,0,0
79251,-100,4,2,26,75,0,0
84097,-100,4,2,25,70,0,0

[Colours]
Combo1 : 88,148,237
Combo2 : 241,78,78
Combo3 : 244,241,102

[HitObjects]
160,297,7943,6,0,P|96:266|161:200,1,194,2|8,1:2|0:2,0:0:0:0:
355,199,8866,2,0,P|419:168|354:102,1,194,2|8,1:2|0:3,0:0:0:0:
158,101,9789,6,0,L|351:101,1,194,2|8,1:2|0:2,0:0:0:0:
157,101,10712,1,2,1:2:0:0:
69,101,10943,1,2,0:0:0:0:
157,101,11174,1,2,0:0:0:0:
350,101,11635,6,0,P|417:152|349:197,1,194,2|8,1:2|0:2,0:0:0:0:
154,196,12559,2,0,P|87:247|155:292,1,194,2|8,1:2|0:3,0:0:0:0:
349,291,13482,6,0,L|151:291,1,194,2|8,1:2|0:2,0:0:0:0:
349,291,14405,1,2,1:2:0:0:
436,291,14635,1,2,0:0:0:0:
349,291,14866,1,2,0:2:0:0:
135,291,15328,6,0,P|49:270|41:177,1,194,2|8,1:2|0:2,0:0:0:0:
235,177,16251,2,0,P|321:156|329:63,1,194,2|8,1:2|0:3,0:0:0:0:
134,63,17174,6,0,L|330:64,1,194,2|8,1:2|0:2,0:0:0:0:
133,63,18097,1,2,1:2:0:0:
45,63,18328,1,2,0:0:0:0:
133,63,18559,1,2,0:0:0:0:
326,63,19020,6,0,P|392:115|325:165,1,194,2|8,1:2|0:2,0:0:0:0:
130,164,19943,2,0,L|326:165,1,194,2|8,1:2|0:3,0:0:0:0:
129,164,20866,6,0,P|63:216|130:266,1,194,2|8,1:2|0:2,0:0:0:0:
324,265,21789,1,6,1:2:0:0:
130,265,22251,1,0,0:0:0:0:
478,265,22712,6,0,L|479:72,1,194,2|0,1:2|1:2,0:0:0:0:
284,71,23635,2,0,P|204:79|185:179,1,194,2|0,1:2|1:2,0:0:0:0:
378,177,24559,6,0,P|445:223|377:277,1,194,2|0,1:2|1:2,0:0:0:0:
185,277,25482,1,2,1:2:0:0:
97,277,25712,1,2,0:0:0:0:
185,277,25943,1,2,1:2:0:0:
398,277,26405,6,0,P|465:229|397:176,1,194,2|0,1:2|1:2,0:0:0:0:
204,175,27328,2,0,L|405:175,1,194,2|0,1:2|1:2,0:0:0:0:
203,175,28251,6,0,P|137:128|204:74,1,194,2|0,1:2|1:2,0:0:0:0:
398,74,29174,1,2,1:2:0:0:
485,74,29405,1,2,0:0:0:0:
398,74,29635,1,2,1:2:0:0:
48,74,30097,6,0,P|46:150|145:182,1,194,2|0,1:2|1:2,0:0:0:0:
338,182,31020,1,2,1:2:0:0:
425,182,31251,1,2,0:0:0:0:
338,182,31482,1,2,1:2:0:0:
144,182,31943,6,0,P|78:231|145:286,1,194,2|2,1:2|1:2,0:0:0:0:
338,286,32866,2,0,P|404:237|337:182,1,194,2|2,1:2|1:2,0:0:0:0:
143,181,33789,5,2,1:2:0:0:
337,181,34251,2,0,P|341:114|238:73,1,194,2|2,1:2|1:2,0:0:0:0:
140,73,34943,1,2,0:0:0:0:
90,156,35174,1,2,1:2:0:0:
140,73,35405,1,2,0:0:0:0:
333,73,35635,6,0,P|419:178|245:267,1,388,2|8,1:2|0:0,0:0:0:0:
51,267,37020,1,2,0:0:0:0:
400,267,37482,6,0,P|467:222|399:169,1,194,6|2,1:2|0:0,0:0:0:0:
302,168,38174,1,2,1:2:0:0:
253,84,38405,1,2,3:2:0:0:
302,168,38635,1,2,0:0:0:0:
399,168,38866,1,2,0:0:0:0:
301,168,39097,1,2,0:0:0:0:
194,168,39328,6,0,L|47:168,2,145.5,0|0|0,1:2|1:2|1:2,0:0:0:0:
291,168,40251,1,0,3:2:0:0:
194,168,40482,1,0,3:2:0:0:
97,168,40712,1,2,0:0:0:0:
446,168,41174,5,2,1:2:0:0:
494,252,41405,1,2,0:0:0:0:
445,335,41635,1,2,0:0:0:0:
347,335,41866,1,2,1:2:0:0:
240,335,42097,1,2,3:2:0:0:
142,335,42328,1,2,0:0:0:0:
152,238,42559,1,2,0:0:0:0:
248,238,42789,1,2,1:2:0:0:
354,238,43020,6,0,L|500:239,2,145.5,0|0|0,1:2|1:2|1:2,0:0:0:0:
256,238,43943,1,0,3:2:0:0:
353,238,44174,1,0,3:2:0:0:
450,238,44405,1,2,1:2:0:0:
101,238,44866,6,0,L|100:41,1,194,2|0,1:2|1:2,0:0:0:0:
197,44,45559,1,2,0:0:0:0:
293,44,45789,2,0,L|93:43,1,194,2|2,1:2|1:2,0:0:0:0:
196,43,46482,1,2,0:0:0:0:
302,43,46712,5,2,1:2:0:0:
351,126,46943,1,2,0:0:0:0:
302,43,47174,1,2,1:2:0:0:
204,43,47405,1,0,0:0:0:0:
98,43,47635,1,0,3:2:0:0:
49,127,47866,1,0,0:0:0:0:
98,43,48097,1,2,0:0:0:0:
195,43,48328,1,0,1:2:0:0:
389,43,48559,6,0,P|490:123|388:189,1,291,2|2,0:0|0:0,0:0:0:0:
292,189,49482,2,0,P|227:233|295:295,1,194,2|2,0:0|0:0,0:0:0:0:
389,295,50174,1,2,0:0:0:0:
194,295,50405,6,0,P|76:287|21:239,1,194,2|2,0:0|0:0,0:0:0:0:
215,240,51328,1,2,0:0:0:0:
212,133,51559,1,2,0:0:0:0:
105,133,51789,1,10,0:0:0:0:
443,188,52251,6,0,L|446:-5,1,194,4|2,1:2|3:2,0:0:0:0:
250,187,53174,2,0,L|444:188,1,194,0|2,1:2|3:2,0:0:0:0:
346,187,53866,1,2,0:0:0:0:
151,187,54097,6,0,P|84:230|152:285,1,194,0|2,1:2|3:2,0:0:0:0:
347,285,55020,2,0,P|426:274|439:172,1,194,0|2,1:2|3:2,0:0:0:0:
343,174,55712,1,2,0:0:0:0:
148,174,55943,6,0,P|65:163|37:66,1,194,4|2,1:2|3:2,0:0:0:0:
230,67,56866,2,0,L|27:67,1,194,0|2,1:2|3:2,0:0:0:0:
133,67,57559,1,2,0:0:0:0:
326,67,57789,5,2,1:2:0:0:
423,67,58020,1,2,0:0:0:0:
326,67,58251,1,2,3:2:0:0:
132,67,58712,1,2,1:2:0:0:
74,150,58943,1,2,0:0:0:0:
132,232,59174,1,2,3:2:0:0:
229,232,59405,1,2,0:0:0:0:
422,232,59635,6,0,L|424:35,1,194,4|2,1:2|3:2,0:0:0:0:
229,38,60559,2,0,P|139:53|136:142,1,194,0|2,1:2|3:2,0:0:0:0:
232,141,61251,1,2,0:0:0:0:
426,141,61482,6,0,L|428:338,1,194,0|2,1:2|3:2,0:0:0:0:
233,334,62405,2,0,L|428:334,1,194,0|2,1:2|3:2,0:0:0:0:
330,334,63097,1,2,0:0:0:0:
136,334,63328,5,4,1:2:0:0:
38,334,63559,1,2,0:0:0:0:
136,333,63789,2,0,P|198:301|134:229,1,194,2|2,3:2|1:2,0:0:0:0:
38,227,64482,1,2,0:0:0:0:
36,324,64712,1,2,3:2:0:0:
387,326,65174,5,0,1:2:0:0:
445,248,65405,1,2,0:0:0:0:
386,170,65635,1,2,0:0:0:0:
288,170,65866,1,2,0:0:0:0:
190,170,66097,1,2,0:0:0:0:
288,170,66328,2,0,P|378:163|443:88,1,194,2|2,1:2|0:0,0:0:0:0:
248,88,67020,6,0,P|158:95|93:170,1,194,4|2,1:2|3:2,0:0:0:0:
287,169,67943,2,0,P|377:162|442:87,1,194,0|2,1:2|3:2,0:0:0:0:
344,88,68635,1,2,0:0:0:0:
149,88,68866,6,0,P|48:122|33:198,1,194,0|2,1:2|3:2,0:0:0:0:
227,198,69789,2,0,L|24:198,1,194,0|2,1:2|3:2,0:0:0:0:
131,198,70482,1,2,0:0:0:0:
324,198,70712,5,4,1:2:0:0:
422,198,70943,2,0,P|426:274|328:301,1,194,2|2,0:0|0:0,0:0:0:0:
231,300,71635,2,0,L|427:299,1,194,2|2,1:2|3:2,0:0:0:0:
327,299,72328,1,2,0:0:0:0:
133,300,72559,5,0,1:2:0:0:
45,300,72789,1,2,0:0:0:0:
133,300,73020,1,0,3:2:0:0:
327,300,73482,1,0,1:2:0:0:
423,300,73712,1,2,0:0:0:0:
480,216,73943,1,2,3:2:0:0:
421,132,74174,1,2,0:0:0:0:
226,132,74405,6,0,P|136:158|120:246,1,194,4|2,1:2|3:2,0:0:0:0:
312,242,75328,2,0,P|398:259|409:356,1,194,0|2,1:2|3:2,0:0:0:0:
314,346,76020,1,2,0:0:0:0:
118,345,76251,6,0,P|52:305|119:245,1,194,0|2,1:2|3:2,0:0:0:0:
312,243,77174,2,0,L|118:244,1,194,0|2,1:2|3:2,0:0:0:0:
215,244,77866,1,2,0:0:0:0:
409,244,78097,6,0,P|460:168|402:99,1,194,4|2,1:2|0:0,0:0:0:0:
315,50,78789,1,2,1:2:0:0:
218,49,79020,2,0,L|434:50,1,194,0|2,3:2|0:0,0:0:0:0:
315,50,79712,1,2,1:2:0:0:
208,50,79943,5,0,1:2:0:0:
110,50,80174,1,0,0:0:0:0:
52,134,80405,1,2,0:0:0:0:
109,217,80635,1,2,1:2:0:0:
215,217,80866,1,0,3:2:0:0:
117,217,81097,1,0,1:2:0:0:
59,295,81328,1,2,0:0:0:0:
117,217,81559,1,0,1:2:0:0:
310,217,81789,6,0,P|403:199|411:111,1,194,6|0,1:2|0:0,0:0:0:0:
217,113,82712,2,0,L|418:113,1,194,6|2,1:2|0:0,0:0:0:0:
313,113,83405,1,2,0:0:0:0:
121,113,83635,5,6,1:2:0:0:
296,113,84097,1,2,0:0:0:0:
393,113,84328,1,2,0:0:0:0:
296,113,84559,2,0,P|210:132|198:226,1,194,2|2,0:0|1:2,0:0:0:0:
294,225,85251,1,2,1:2:0:0:
391,225,85482,1,2,1:2:0:0:
197,225,85943,5,2,0:0:0:0:
99,225,86174,1,2,0:0:0:0:
197,225,86405,2,0,P|263:271|195:323,1,194,2|2,0:0|1:2,0:0:0:0:
97,322,87097,1,2,1:2:0:0:
195,322,87328,1,2,1:2:0:0:
388,322,87789,5,2,0:0:0:0:
38,322,88251,5,6,1:2:0:0:
