osu file format v14

[General]
AudioFilename: audio.mp3
AudioLeadIn: 0
PreviewTime: 51559
Countdown: 0
SampleSet: Soft
StackLeniency: 0.7
Mode: 2
LetterboxInBreaks: 0
WidescreenStoryboard: 1

[Editor]
DistanceSpacing: 1
BeatDivisor: 4
GridSize: 8
TimelineZoom: 1.7

[Metadata]
Title:Nai Nai (TV Size)
TitleUnicode:ないない (TV Size)
Artist:ReoNa
ArtistUnicode:ReoNa
Creator:rew0825
Version:Rain
Source:シャドーハウス
Tags:Shadows House Female Vocal Vocals Anime ED Ending JP Japanese Pop J-Pop JPop
BeatmapID:3847464
BeatmapSetID:1864138

[Difficulty]
HPDrainRate:5
CircleSize:4
OverallDifficulty:8.8
ApproachRate:8.8
SliderMultiplier:2.35
SliderTickRate:2

[Events]
//Background and Video events
Video,0,"vdo.m4v"
0,0,"bg.jpg",0,0
//Break Periods
//Storyboard Layer 0 (Background)
//Storyboard Layer 1 (Fail)
//Storyboard Layer 2 (Pass)
//Storyboard Layer 3 (Foreground)
//Storyboard Layer 4 (Overlay)
//Storyboard Sound Samples

[TimingPoints]
559,461.538461538462,4,2,25,65,1,0
22482,-100,4,2,25,5,0,0
22712,-100,4,2,25,70,0,0
37482,-100,4,2,26,75,0,0
51789,-100,4,2,27,75,0,0
52251,-100,4,2,27,80,0,1
78097,-100,4,2,26,75,0,0
79020,-100,4,2,27,75,0,0
79251,-100,4,2,26,75,0,0
84097,-100,4,2,25,70,0,0

[Colours]
Combo1 : 88,148,237
Combo2 : 241,78,78
Combo3 : 244,241,102

[HitObjects]
137,310,7943,6,0,P|57:261|139:192,1,235,2|8,1:2|0:2,0:0:0:0:
256,191,8635,1,2,1:2:0:0:
56,191,8866,2,0,P|22:80|58:-30,1,235,2|8,1:2|0:3,0:0:0:0:
176,73,9559,1,2,1:2:0:0:
375,73,9789,6,0,P|455:126|372:190,1,235,2|8,1:2|0:2,0:0:0:0:
254,189,10482,1,2,1:2:0:0:
453,189,10712,1,2,1:2:0:0:
455,71,10943,1,2,0:0:0:0:
338,71,11174,1,2,0:0:0:0:
455,71,11405,1,2,1:2:0:0:
255,71,11635,6,0,P|175:119|256:190,1,235,2|8,1:2|0:2,0:0:0:0:
374,190,12328,1,2,1:2:0:0:
174,190,12559,2,0,P|56:163|46:65,1,235,2|8,1:2|0:3,0:0:0:0:
163,64,13251,1,2,1:2:0:0:
362,71,13482,6,0,P|443:130|360:189,1,235,2|8,1:2|0:2,0:0:0:0:
242,189,14174,1,2,1:2:0:0:
42,189,14405,1,2,1:2:0:0:
159,189,14635,1,2,0:0:0:0:
42,189,14866,1,2,0:2:0:0:
40,306,15097,1,2,1:2:0:0:
345,306,15328,6,0,P|463:268|450:176,1,235,2|8,1:2|0:2,0:0:0:0:
333,177,16020,1,2,1:2:0:0:
133,177,16251,2,0,P|54:133|134:58,1,235,2|8,1:2|0:3,0:0:0:0:
251,58,16943,1,2,1:2:0:0:
450,58,17174,6,0,P|479:168|451:283,1,235,2|8,1:2|0:2,0:0:0:0:
333,283,17866,1,2,1:2:0:0:
133,283,18097,1,2,1:2:0:0:
132,166,18328,1,2,0:0:0:0:
250,166,18559,1,2,0:0:0:0:
132,166,18789,1,2,1:2:0:0:
331,166,19020,6,0,P|353:100|230:39,1,235,2|8,1:2|0:2,0:0:0:0:
111,39,19712,1,0,1:2:0:0:
310,39,19943,2,0,P|426:54|452:164,1,235,2|8,1:2|0:3,0:0:0:0:
338,143,20635,1,2,1:2:0:0:
138,143,20866,6,0,P|38:157|33:273,1,235,2|8,1:2|0:2,0:0:0:0:
373,273,21789,1,6,1:2:0:0:
137,273,22251,2,0,L|136:153,1,117.5,0|0,0:0|0:0,0:0:0:0:
441,155,22712,6,0,P|446:78|318:27,1,235,2|0,1:2|1:2,0:0:0:0:
199,27,23405,1,2,0:0:0:0:
398,27,23635,2,0,P|479:89|397:146,1,235,2|0,1:2|1:2,0:0:0:0:
278,145,24328,1,2,0:0:0:0:
78,145,24559,6,0,P|131:200|282:227,1,235,2|0,1:2|1:2,0:0:0:0:
399,226,25251,1,2,0:0:0:0:
199,226,25482,2,0,L|66:226,1,117.5,2|2,1:2|0:0,0:0:0:0:
281,226,25943,2,0,L|401:226,1,117.5,2|2,1:2|0:0,0:0:0:0:
91,226,26405,6,0,P|10:278|92:344,1,235,2|0,1:2|1:2,0:0:0:0:
209,344,27097,1,2,0:0:0:0:
408,344,27328,2,0,P|412:256|289:215,1,235,2|0,1:2|1:2,0:0:0:0:
172,214,28020,1,2,0:0:0:0:
371,214,28251,6,0,P|318:159|167:132,1,235,2|0,1:2|1:2,0:0:0:0:
284,132,28943,1,2,0:0:0:0:
483,132,29174,2,0,L|356:132,1,117.5,2|2,1:2|0:0,0:0:0:0:
165,132,29635,2,0,L|46:132,1,117.5,2|2,1:2|0:0,0:0:0:0:
354,132,30097,6,0,P|446:142|471:265,1,235,2|0,1:2|1:2,0:0:0:0:
353,265,30789,1,2,0:0:0:0:
153,265,31020,2,0,L|154:147,1,117.5,2|2,1:2|0:0,0:0:0:0:
354,147,31482,2,0,L|355:26,1,117.5,2|2,1:2|0:0,0:0:0:0:
155,29,31943,6,0,L|32:29,1,117.5,2|2,1:2|0:0,0:0:0:0:
237,29,32405,2,0,L|360:29,1,117.5,2|2,1:2|0:0,0:0:0:0:
154,29,32866,2,0,P|47:44|34:157,1,235,2|2,1:2|1:2,0:0:0:0:
150,153,33559,1,2,0:0:0:0:
454,153,33789,6,0,L|454:271,1,117.5,2|0,1:2|0:0,0:0:0:0:
253,270,34251,2,0,P|172:221|254:153,1,235,2|2,1:2|1:2,0:0:0:0:
370,152,34943,1,2,0:0:0:0:
394,121,35020,1,2,0:0:0:0:
369,93,35097,1,2,0:0:0:0:
278,93,35174,2,0,L|140:93,1,117.5,2|2,1:2|0:0,0:0:0:0:
212,93,35520,1,2,0:0:0:0:
411,93,35635,6,0,P|414:247|151:281,1,470,2|8,1:2|0:0,0:0:0:0:
386,281,37020,2,0,L|387:161,1,117.5,2|2,0:0|0:0,0:0:0:0:
68,163,37482,6,0,L|67:46,1,117.5,6|2,1:2|0:0,0:0:0:0:
266,45,37943,2,0,L|390:45,1,117.5,2|2,0:0|1:2,0:0:0:0:
324,45,38289,1,0,0:0:0:0:
205,45,38405,6,0,L|84:45,1,117.5,2|2,3:2|0:0,0:0:0:0:
146,45,38751,1,0,1:2:0:0:
263,45,38866,1,2,0:0:0:0:
380,45,39097,1,2,0:0:0:0:
399,45,39155,1,0,0:0:0:0:
380,45,39212,1,0,0:0:0:0:
179,45,39328,5,0,1:2:0:0:
120,45,39443,1,0,0:0:0:0:
179,45,39559,1,0,0:0:0:0:
244,45,39674,2,0,L|245:166,1,117.5,0|0,1:2|0:0,0:0:0:0:
126,162,40020,5,0,1:2:0:0:
110,165,40049,1,0,0:0:0:0:
102,180,40078,1,0,0:0:0:0:
111,195,40107,1,0,0:0:0:0:
128,197,40135,1,0,0:0:0:0:
246,197,40251,6,0,L|364:196,1,117.5,0|0,3:2|3:2,0:0:0:0:
163,196,40712,1,2,0:0:0:0:
98,196,40828,1,0,0:0:0:0:
97,254,40943,1,0,1:2:0:0:
414,254,41174,5,2,1:2:0:0:
460,202,41289,1,0,0:0:0:0:
414,148,41405,1,2,0:0:0:0:
341,148,41520,1,0,0:0:0:0:
223,148,41635,2,0,L|96:148,1,117.5,2|2,0:0|1:2,0:0:0:0:
165,148,41982,1,0,0:0:0:0:
283,148,42097,6,0,L|401:148,1,117.5,2|2,3:2|0:0,0:0:0:0:
341,148,42443,1,0,1:2:0:0:
223,148,42559,1,2,0:0:0:0:
105,148,42789,1,2,1:2:0:0:
88,148,42847,1,0,0:0:0:0:
105,148,42905,1,0,0:0:0:0:
304,148,43020,5,0,1:2:0:0:
362,148,43135,1,0,0:0:0:0:
304,148,43251,1,0,0:0:0:0:
239,148,43366,2,0,L|238:265,1,117.5,0|0,1:2|0:0,0:0:0:0:
356,265,43712,5,0,1:2:0:0:
372,262,43741,1,0,0:0:0:0:
380,247,43770,1,0,0:0:0:0:
371,232,43799,1,0,0:0:0:0:
354,230,43828,1,0,0:0:0:0:
235,230,43943,6,0,L|106:231,1,117.5,0|0,3:2|3:2,0:0:0:0:
318,230,44405,2,0,L|440:229,1,117.5,2|0,1:2|3:2,0:0:0:0:
129,229,44866,6,0,P|50:176|134:111,1,235,2|0,1:2|1:2,0:0:0:0:
251,110,45559,1,2,0:0:0:0:
51,110,45789,2,0,L|50:228,1,117.5,2|2,1:2|0:0,0:0:0:0:
250,227,46251,1,2,1:2:0:0:
132,227,46482,1,2,0:0:0:0:
109,198,46539,1,0,0:0:0:0:
133,170,46597,1,0,0:0:0:0:
332,170,46712,6,0,L|467:170,1,117.5,2|2,1:2|0:0,0:0:0:0:
248,170,47174,1,2,1:2:0:0:
313,170,47289,1,0,0:0:0:0:
345,220,47405,1,0,0:0:0:0:
312,270,47520,1,0,0:0:0:0:
195,270,47635,6,0,L|77:270,1,117.5,0|0,3:2|0:0,0:0:0:0:
278,270,48097,1,2,0:0:0:0:
213,270,48212,1,0,0:0:0:0:
181,218,48328,1,0,1:2:0:0:
215,168,48443,1,0,0:0:0:0:
415,168,48559,6,0,P|487:98|326:17,1,352.5,2|2,0:0|0:0,0:0:0:0:
126,17,49482,2,0,L|126:135,1,117.5,2|2,0:0|0:0,0:0:0:0:
325,134,49943,2,0,L|447:134,1,117.5,2|2,0:0|0:0,0:0:0:0:
135,134,50405,6,0,P|55:189|138:255,1,235,2|2,0:0|0:0,0:0:0:0:
223,255,51020,1,2,0:0:0:0:
309,255,51174,1,2,0:0:0:0:
160,255,51328,2,0,L|41:255,1,117.5,2|2,0:0|0:0,0:0:0:0:
348,255,51789,2,0,L|466:255,1,117.5,10|2,0:0|0:0,0:0:0:0:
146,255,52251,6,0,P|65:203|147:136,1,235,4|2,1:2|3:2,0:0:0:0:
334,135,52943,1,2,0:0:0:0:
28,135,53174,2,0,P|120:60|232:54,1,235,0|2,1:2|3:2,0:0:0:0:
44,54,53866,1,2,0:0:0:0:
349,54,54097,6,0,P|430:111|348:173,1,235,0|2,1:2|3:2,0:0:0:0:
159,172,54789,1,2,0:0:0:0:
464,172,55020,2,0,P|372:247|260:253,1,235,0|2,1:2|3:2,0:0:0:0:
448,253,55712,1,2,0:0:0:0:
130,253,55943,6,0,L|368:253,1,235,4|2,1:2|3:2,0:0:0:0:
176,253,56635,1,2,0:0:0:0:
481,253,56866,2,0,P|406:184|278:167,1,235,0|2,1:2|3:2,0:0:0:0:
466,167,57559,1,2,0:0:0:0:
161,167,57789,6,0,L|43:167,2,117.5,2|2|2,1:2|0:0|3:2,0:0:0:0:
361,167,58482,1,2,0:0:0:0:
56,167,58712,2,0,L|55:50,1,117.5,2|2,1:2|0:0,0:0:0:0:
243,49,59174,1,2,3:2:0:0:
54,49,59405,1,2,0:0:0:0:
370,49,59635,6,0,P|451:105|369:169,1,235,4|2,1:2|3:2,0:0:0:0:
180,169,60328,1,2,0:0:0:0:
485,169,60559,2,0,P|428:263|312:279,1,235,0|2,1:2|3:2,0:0:0:0:
123,278,61251,1,2,0:0:0:0:
428,278,61482,6,0,L|188:277,1,235,0|2,1:2|3:2,0:0:0:0:
381,277,62174,1,2,0:0:0:0:
75,277,62405,2,0,P|78:179|194:147,1,235,0|2,1:2|3:2,0:0:0:0:
382,147,63097,1,2,0:0:0:0:
64,147,63328,6,0,L|62:267,1,117.5,4|2,1:2|0:0,0:0:0:0:
261,264,63789,2,0,P|342:212|261:146,1,235,2|2,3:2|1:2,0:0:0:0:
71,146,64482,1,2,0:0:0:0:
375,146,64712,2,0,L|492:146,1,117.5,2|2,3:2|0:0,0:0:0:0:
185,146,65174,5,0,1:2:0:0:
302,146,65405,2,0,L|303:206,1,58.75,2|2,0:0|0:0,0:0:0:0:
185,204,65635,2,0,L|311:203,1,117.5,2|2,0:0|0:0,0:0:0:0:
491,203,66097,1,2,0:0:0:0:
185,204,66328,2,0,L|184:326,1,117.5,2|2,1:2|0:0,0:0:0:0:
372,321,66789,1,2,0:0:0:0:
54,321,67020,6,0,P|56:223|173:192,1,235,4|2,1:2|3:2,0:0:0:0:
360,191,67712,1,2,0:0:0:0:
54,191,67943,2,0,L|290:191,1,235,0|2,1:2|3:2,0:0:0:0:
100,191,68635,1,2,0:0:0:0:
405,191,68866,6,0,L|166:193,1,235,0|2,1:2|3:2,0:0:0:0:
359,192,69559,1,2,0:0:0:0:
54,192,69789,2,0,P|94:114|229:82,1,235,0|2,1:2|3:2,0:0:0:0:
40,82,70482,1,2,0:0:0:0:
356,82,70712,6,0,L|474:82,1,117.5,4|2,1:2|0:0,0:0:0:0:
272,82,71174,2,0,L|145:82,1,117.5,0|2,3:2|0:0,0:0:0:0:
460,82,71635,2,0,L|461:216,1,117.5,2|2,1:2|0:0,0:0:0:0:
271,200,72097,1,2,3:2:0:0:
459,200,72328,1,2,0:0:0:0:
153,200,72559,6,0,L|152:318,1,117.5,0|2,1:2|0:0,0:0:0:0:
211,317,72905,1,2,0:0:0:0:
328,317,73020,2,0,L|453:317,1,117.5,0|2,3:2|0:0,0:0:0:0:
150,317,73482,2,0,L|-2:317,2,117.5,0|2|2,1:2|0:0|3:2,0:0:0:0:
349,317,74174,1,2,0:0:0:0:
43,317,74405,6,0,P|94:233|221:214,1,235,4|2,1:2|3:2,0:0:0:0:
33,214,75097,1,2,0:0:0:0:
338,214,75328,2,0,P|419:165|338:96,1,235,0|2,1:2|3:2,0:0:0:0:
149,95,76020,1,2,0:0:0:0:
454,95,76251,6,0,P|403:179|276:198,1,235,0|2,1:2|3:2,0:0:0:0:
464,198,76943,1,2,0:0:0:0:
158,198,77174,2,0,P|80:245|160:322,1,235,0|2,1:2|3:2,0:0:0:0:
347,322,77866,1,2,0:0:0:0:
29,322,78097,6,0,P|52:203|149:192,1,235,4|2,1:2|0:0,0:0:0:0:
349,192,78789,2,0,L|350:133,1,58.75,2|0,1:2|0:0,0:0:0:0:
231,133,79020,6,0,L|106:133,1,117.5,0|0,3:2|0:0,0:0:0:0:
172,133,79366,1,0,0:0:0:0:
290,133,79482,2,0,L|291:199,1,58.75,2|0,0:0|0:0,0:0:0:0:
173,191,79712,1,2,1:2:0:0:
149,214,79770,1,0,0:0:0:0:
173,236,79828,1,0,0:0:0:0:
372,236,79943,6,0,L|509:236,1,117.5,0|0,1:2|0:0,0:0:0:0:
430,236,80289,1,0,0:0:0:0:
311,236,80405,2,0,L|192:236,1,117.5,2|2,0:0|1:2,0:0:0:0:
252,236,80751,1,0,0:0:0:0:
369,236,80866,6,0,L|370:177,1,58.75,0|0,3:2|0:0,0:0:0:0:
251,177,81097,2,0,L|250:110,1,58.75,0|0,1:2|0:0,0:0:0:0:
368,118,81328,1,2,0:0:0:0:
426,118,81443,1,0,0:0:0:0:
456,67,81559,1,0,1:2:0:0:
426,118,81674,1,0,0:0:0:0:
203,118,81789,6,0,P|122:173|204:236,1,235,6|0,1:2|0:0,0:0:0:0:
393,235,82482,1,2,0:0:0:0:
88,235,82712,2,0,L|325:236,1,235,6|2,1:2|0:0,0:0:0:0:
133,236,83405,1,2,0:0:0:0:
450,236,83635,5,6,1:2:0:0:
120,236,84097,2,0,L|119:114,1,117.5,2|2,0:0|0:0,0:0:0:0:
319,118,84559,2,0,L|439:118,1,117.5,2|2,0:0|0:0,0:0:0:0:
397,118,84866,1,2,0:0:0:0:
353,118,84943,1,2,0:0:0:0:
188,117,85020,2,0,L|308:116,1,117.5,2|2,1:2|1:2,0:0:0:0:
104,116,85482,1,2,1:2:0:0:
432,116,85943,6,0,L|433:233,1,117.5,2|2,0:0|0:0,0:0:0:0:
232,233,86405,2,0,L|114:232,1,117.5,2|2,0:0|0:0,0:0:0:0:
154,232,86712,1,2,0:0:0:0:
197,232,86789,1,2,0:0:0:0:
362,232,86866,2,0,L|200:231,1,117.5,2|2,1:2|1:2,0:0:0:0:
445,231,87328,1,2,1:2:0:0:
104,231,87789,5,2,0:0:0:0:
444,231,88251,5,6,1:2:0:0:
