osu file format v14

[General]
AudioFilename: audio.mp3
AudioLeadIn: 0
PreviewTime: 51559
Countdown: 0
SampleSet: Soft
StackLeniency: 0.7
Mode: 2
LetterboxInBreaks: 0
WidescreenStoryboard: 1

[Editor]
DistanceSpacing: 1.8
BeatDivisor: 8
GridSize: 8
TimelineZoom: 1.6

[Metadata]
Title:Nai Nai (TV Size)
TitleUnicode:ないない (TV Size)
Artist:ReoNa
ArtistUnicode:ReoNa
Creator:rew0825
Version:Platter
Source:シャドーハウス
Tags:Shadows House Female Vocal Vocals Anime ED Ending JP Japanese Pop J-Pop JPop
BeatmapID:3851278
BeatmapSetID:1864138

[Difficulty]
HPDrainRate:4
CircleSize:3.5
OverallDifficulty:7.8
ApproachRate:7.8
SliderMultiplier:2.12
SliderTickRate:1

[Events]
//Background and Video events
Video,0,"vdo.m4v"
0,0,"bg.jpg",0,0
//Break Periods
//Storyboard Layer 0 (Background)
//Storyboard Layer 1 (Fail)
//Storyboard Layer 2 (Pass)
//Storyboard Layer 3 (Foreground)
//Storyboard Layer 4 (Overlay)
//Storyboard Sound Samples

[TimingPoints]
559,461.538461538462,4,2,25,65,1,0
22712,-100,4,2,25,70,0,0
37482,-100,4,2,26,75,0,0
51789,-100,4,2,27,75,0,0
52251,-100,4,2,27,80,0,1
78097,-100,4,2,26,75,0,0
79020,-100,4,2,27,75,0,0
79251,-100,4,2,26,75,0,0
84097,-100,4,2,25,70,0,0

[Colours]
Combo1 : 88,148,237
Combo2 : 241,78,78
Combo3 : 244,241,102

[HitObjects]
168,297,7943,6,0,P|96:257|169:191,1,212,2|8,1:2|0:2,0:0:0:0:
274,190,8635,1,2,1:2:0:0:
167,190,8866,2,0,P|66:168|58:74,1,212,2|8,1:2|0:3,0:0:0:0:
397,73,9789,6,0,P|469:134|396:185,1,212,2|8,1:2|0:2,0:0:0:0:
289,184,10482,1,2,1:2:0:0:
395,184,10712,1,2,1:2:0:0:
479,184,10943,1,2,0:0:0:0:
395,184,11174,1,2,0:0:0:0:
56,184,11635,6,0,P|71:273|176:309,1,212,2|8,1:2|0:2,0:0:0:0:
282,308,12328,1,2,1:2:0:0:
176,308,12559,2,0,P|78:282|56:184,1,212,2|8,1:2|0:3,0:0:0:0:
395,183,13482,6,0,P|469:132|395:77,1,212,2|8,1:2|0:2,0:0:0:0:
288,76,14174,1,2,1:2:0:0:
224,161,14405,1,2,1:2:0:0:
288,76,14635,1,2,0:0:0:0:
395,76,14866,1,2,0:2:0:0:
55,76,15328,6,0,L|54:290,1,212,2|8,1:2|0:2,0:0:0:0:
160,287,16020,1,2,1:2:0:0:
266,287,16251,2,0,P|151:277|91:207,1,212,2|8,1:2|0:3,0:0:0:0:
434,202,17174,6,0,P|477:134|385:79,1,212,2|8,1:2|0:2,0:0:0:0:
278,79,17866,1,2,1:2:0:0:
384,79,18097,1,2,1:2:0:0:
469,142,18328,1,2,0:0:0:0:
384,79,18559,1,2,0:0:0:0:
45,79,19020,6,0,P|33:145|148:188,1,212,2|8,1:2|0:2,0:0:0:0:
253,188,19712,1,0,1:2:0:0:
359,188,19943,2,0,L|144:189,1,212,2|8,1:2|0:3,0:0:0:0:
486,55,20866,6,0,L|488:269,1,212,2|8,1:2|0:2,0:0:0:0:
149,266,21789,1,6,1:2:0:0:
362,266,22251,1,0,0:0:0:0:
23,266,22712,6,0,L|21:54,1,212,2|0,1:2|1:2,0:0:0:0:
128,54,23405,1,2,0:0:0:0:
234,54,23635,2,0,L|21:54,1,212,2|0,1:2|1:2,0:0:0:0:
362,54,24559,6,0,P|455:74|468:177,1,212,2|0,1:2|1:2,0:0:0:0:
361,176,25251,1,2,0:0:0:0:
159,176,25482,2,0,L|26:176,2,106,2|2|2,1:2|0:0|1:2,0:0:0:0:
498,176,26405,6,0,P|443:257|336:268,1,212,2|0,1:2|1:2,0:0:0:0:
230,268,27097,1,2,0:0:0:0:
336,268,27328,2,0,P|438:259|498:176,1,212,2|0,1:2|1:2,0:0:0:0:
158,176,28251,6,0,P|86:125|160:68,1,212,2|0,1:2|1:2,0:0:0:0:
267,68,28943,1,2,0:0:0:0:
468,68,29174,2,0,L|351:68,2,106,2|2|2,1:2|0:0|1:2,0:0:0:0:
128,68,30097,6,0,P|56:119|130:177,1,212,2|0,1:2|1:2,0:0:0:0:
236,176,30789,1,2,0:0:0:0:
437,180,31020,2,0,L|438:291,1,106,2|2,1:2|0:0,0:0:0:0:
331,285,31482,1,2,1:2:0:0:
39,285,31943,6,0,L|145:285,2,106,2|2|2,1:2|0:0|1:2,0:0:0:0:
378,285,32866,2,0,P|475:266|486:167,1,212,2|2,1:2|1:2,0:0:0:0:
379,167,33559,1,2,0:0:0:0:
178,167,33789,6,0,L|178:49,1,106,2|0,1:2|0:0,0:0:0:0:
284,61,34251,2,0,P|358:110|283:167,1,212,2|2,1:2|1:2,0:0:0:0:
83,167,34943,1,2,0:0:0:0:
51,167,35020,1,2,0:0:0:0:
51,167,35097,1,2,0:0:0:0:
83,167,35174,1,2,1:2:0:0:
189,167,35405,1,2,0:0:0:0:
389,167,35635,6,0,P|409:294|174:367,1,424,2|8,1:2|0:0,0:0:0:0:
385,366,37020,2,0,L|386:246,1,106,2|2,0:0|0:0,0:0:0:0:
87,260,37482,5,6,1:2:0:0:
24,175,37712,1,2,0:0:0:0:
88,90,37943,1,2,0:0:0:0:
194,90,38174,1,2,1:2:0:0:
384,90,38405,6,0,L|385:202,1,106,2|2,3:2|0:0,0:0:0:0:
331,195,38751,1,0,1:2:0:0:
278,195,38866,2,0,L|389:195,1,106,2|2,0:0|0:0,0:0:0:0:
331,195,39212,1,0,0:0:0:0:
208,195,39328,6,0,L|207:303,1,106,0|0,1:2|0:0,0:0:0:0:
265,300,39674,2,0,L|264:179,1,106,0|0,1:2|0:0,0:0:0:0:
208,195,40020,1,0,1:2:0:0:
184,177,40078,1,0,0:0:0:0:
210,160,40135,1,0,0:0:0:0:
332,160,40251,5,0,3:2:0:0:
438,160,40482,1,0,3:2:0:0:
491,251,40712,1,2,0:0:0:0:
438,160,40943,1,0,1:2:0:0:
236,160,41174,5,2,1:2:0:0:
204,160,41289,1,0,0:0:0:0:
236,160,41405,1,2,0:0:0:0:
341,160,41635,2,0,L|233:160,1,106,2|2,0:0|1:2,0:0:0:0:
288,160,41982,1,0,0:0:0:0:
409,160,42097,6,0,L|410:267,1,106,2|2,3:2|0:0,0:0:0:0:
356,265,42443,1,0,1:2:0:0:
303,265,42559,2,0,L|413:265,1,106,2|2,0:0|1:2,0:0:0:0:
355,265,42905,1,0,0:0:0:0:
233,265,43020,6,0,L|118:265,1,106,0|0,1:2|0:0,0:0:0:0:
185,265,43366,2,0,L|186:156,1,106,0|0,1:2|0:0,0:0:0:0:
127,159,43712,1,0,1:2:0:0:
100,159,43770,1,0,0:0:0:0:
127,159,43828,1,0,0:0:0:0:
249,159,43943,6,0,L|378:160,1,106,0|0,3:2|3:2,0:0:0:0:
248,159,44405,2,0,L|126:158,1,106,2|0,1:2|3:2,0:0:0:0:
446,158,44866,6,0,P|495:255|445:336,1,212,2|0,1:2|1:2,0:0:0:0:
339,335,45559,1,2,0:0:0:0:
138,335,45789,6,0,L|136:225,1,106,2|2,1:2|0:0,0:0:0:0:
242,229,46251,2,0,L|132:229,1,106,2|2,1:2|0:0,0:0:0:0:
189,229,46597,1,0,0:0:0:0:
311,229,46712,6,0,L|446:229,1,106,2|2,1:2|0:0,0:0:0:0:
310,229,47174,1,2,1:2:0:0:
362,229,47289,1,0,0:0:0:0:
417,229,47405,1,0,0:0:0:0:
216,229,47635,6,0,L|81:229,1,106,0|0,3:2|0:0,0:0:0:0:
217,229,48097,1,2,0:0:0:0:
165,229,48212,1,0,0:0:0:0:
110,229,48328,1,0,1:2:0:0:
311,229,48559,6,0,P|420:162|306:78,1,318,2|2,0:0|0:0,0:0:0:0:
104,77,49482,2,0,L|103:185,1,106,2|2,0:0|0:0,0:0:0:0:
209,182,49943,1,2,0:0:0:0:
102,182,50174,1,2,0:0:0:0:
303,182,50405,6,0,P|370:243|294:303,1,212,2|2,0:0|0:0,0:0:0:0:
231,303,51020,1,2,0:0:0:0:
295,303,51174,1,2,0:0:0:0:
365,303,51328,2,0,L|366:197,1,106,2|2,0:0|0:0,0:0:0:0:
164,197,51789,2,0,L|48:197,1,106,10|2,0:0|0:0,0:0:0:0:
356,197,52251,6,0,P|456:181|470:85,1,212,4|2,1:2|3:2,0:0:0:0:
363,85,52943,1,2,0:0:0:0:
161,85,53174,2,0,P|202:157|321:180,1,212,0|2,1:2|3:2,0:0:0:0:
427,179,53866,1,2,0:0:0:0:
129,179,54097,6,0,P|57:224|130:287,1,212,0|2,1:2|3:2,0:0:0:0:
236,286,54789,1,2,0:0:0:0:
437,286,55020,2,0,L|216:287,1,212,0|2,1:2|3:2,0:0:0:0:
331,286,55712,1,2,0:0:0:0:
33,286,55943,6,0,L|30:68,1,212,4|2,1:2|3:2,0:0:0:0:
136,74,56635,1,2,0:0:0:0:
337,74,56866,2,0,P|338:153|227:189,1,212,0|2,1:2|3:2,0:0:0:0:
119,188,57559,1,2,0:0:0:0:
414,188,57789,5,2,1:2:0:0:
467,96,58020,1,2,0:0:0:0:
414,188,58251,1,2,3:2:0:0:
307,188,58482,1,2,0:0:0:0:
116,188,58712,2,0,L|117:293,1,106,2|2,1:2|0:0,0:0:0:0:
309,293,59174,2,0,L|414:293,1,106,2|2,3:2|0:0,0:0:0:0:
117,293,59635,6,0,P|45:241|119:184,1,212,4|2,1:2|3:2,0:0:0:0:
226,184,60328,1,2,0:0:0:0:
427,184,60559,2,0,P|500:130|426:77,1,212,0|2,1:2|3:2,0:0:0:0:
319,77,61251,1,2,0:0:0:0:
21,77,61482,6,0,L|248:78,1,212,0|2,1:2|3:2,0:0:0:0:
227,183,62174,1,2,0:0:0:0:
25,183,62405,2,0,L|252:184,1,212,0|2,1:2|3:2,0:0:0:0:
130,183,63097,1,2,0:0:0:0:
427,183,63328,6,0,L|428:295,1,106,4|2,1:2|0:0,0:0:0:0:
321,288,63789,2,0,P|219:262|214:169,1,212,2|2,3:2|1:2,0:0:0:0:
320,169,64482,1,2,0:0:0:0:
119,169,64712,2,0,L|118:277,1,106,2|2,3:2|0:0,0:0:0:0:
416,274,65174,5,0,1:2:0:0:
309,274,65405,1,2,0:0:0:0:
282,228,65520,1,2,0:0:0:0:
311,184,65635,1,2,0:0:0:0:
417,184,65866,1,2,0:0:0:0:
311,184,66097,1,2,0:0:0:0:
109,184,66328,2,0,P|36:133|110:75,1,212,2|2,1:2|0:0,0:0:0:0:
406,74,67020,6,0,P|405:154|293:191,1,212,4|2,1:2|3:2,0:0:0:0:
187,191,67712,1,2,0:0:0:0:
388,191,67943,2,0,P|464:198|493:314,1,212,0|2,1:2|3:2,0:0:0:0:
386,314,68635,1,2,0:0:0:0:
88,314,68866,6,0,P|15:268|89:208,1,212,0|2,1:2|3:2,0:0:0:0:
195,207,69559,1,2,0:0:0:0:
395,207,69789,2,0,P|407:155|283:99,1,212,0|2,1:2|3:2,0:0:0:0:
394,95,70482,1,2,0:0:0:0:
98,95,70712,5,4,1:2:0:0:
204,95,70943,2,0,P|194:193|97:211,1,212,2|2,0:0|0:0,0:0:0:0:
297,210,71635,1,2,1:2:0:0:
403,210,71866,1,2,0:0:0:0:
456,118,72097,1,2,3:2:0:0:
403,210,72328,1,2,0:0:0:0:
105,210,72559,6,0,L|104:326,1,106,0|2,1:2|0:0,0:0:0:0:
210,315,73020,2,0,L|320:315,1,106,0|2,3:2|0:0,0:0:0:0:
113,315,73482,2,0,L|112:209,1,106,0|2,1:2|0:0,0:0:0:0:
218,209,73943,1,2,3:2:0:0:
111,209,74174,1,2,0:0:0:0:
408,209,74405,6,0,P|480:149|406:98,1,212,4|2,1:2|3:2,0:0:0:0:
300,97,75097,1,2,0:0:0:0:
98,97,75328,2,0,P|24:148|100:204,1,212,0|2,1:2|3:2,0:0:0:0:
202,204,76020,1,2,0:0:0:0:
499,204,76251,6,0,P|455:129|338:107,1,212,0|2,1:2|3:2,0:0:0:0:
444,106,76943,1,2,0:0:0:0:
242,106,77174,2,0,L|460:106,1,212,0|2,1:2|3:2,0:0:0:0:
348,106,77866,1,2,0:0:0:0:
50,106,78097,6,0,L|47:322,1,212,4|2,1:2|0:0,0:0:0:0:
153,317,78789,1,2,1:2:0:0:
354,317,79020,2,0,L|355:207,1,106,0|0,3:2|0:0,0:0:0:0:
248,211,79482,2,0,L|133:211,1,106,2|2,0:0|1:2,0:0:0:0:
195,211,79828,1,0,0:0:0:0:
316,211,79943,6,0,L|422:212,1,106,0|0,1:2|0:0,0:0:0:0:
449,166,80289,1,0,0:0:0:0:
421,120,80405,2,0,L|314:119,1,106,2|2,0:0|1:2,0:0:0:0:
113,119,80866,2,0,L|236:119,1,106,0|0,3:2|1:2,0:0:0:0:
218,172,81212,1,0,0:0:0:0:
95,172,81328,1,2,0:0:0:0:
42,172,81443,1,0,0:0:0:0:
95,172,81559,1,0,1:2:0:0:
390,172,81789,6,0,P|463:224|389:281,1,212,6|0,1:2|0:0,0:0:0:0:
282,281,82482,1,2,0:0:0:0:
81,281,82712,2,0,P|71:193|172:158,1,212,6|2,1:2|0:0,0:0:0:0:
65,158,83405,1,2,0:0:0:0:
360,158,83635,5,6,1:2:0:0:
147,158,84097,2,0,L|146:49,1,106,2|2,0:0|0:0,0:0:0:0:
252,52,84559,2,0,L|358:52,1,106,2|2,0:0|0:0,0:0:0:0:
304,52,84905,1,2,0:0:0:0:
182,52,85020,2,0,L|62:51,1,106,2|2,1:2|1:2,0:0:0:0:
267,52,85482,1,2,1:2:0:0:
478,52,85943,6,0,L|479:163,1,106,2|2,0:0|0:0,0:0:0:0:
372,157,86405,2,0,L|254:156,1,106,2|2,0:0|0:0,0:0:0:0:
319,156,86751,1,2,0:0:0:0:
440,156,86866,2,0,L|441:263,1,106,2|2,1:2|1:2,0:0:0:0:
249,261,87328,1,2,1:2:0:0:
440,261,87789,5,2,0:0:0:0:
101,261,88251,5,6,1:2:0:0:
