osu file format v14

[General]
AudioFilename: audio.mp3
AudioLeadIn: 0
PreviewTime: 51559
Countdown: 0
SampleSet: Soft
StackLeniency: 0.7
Mode: 2
LetterboxInBreaks: 0
WidescreenStoryboard: 0

[Editor]
DistanceSpacing: 1
BeatDivisor: 4
GridSize: 8
TimelineZoom: 1.6

[Metadata]
Title:Nai Nai (TV Size)
TitleUnicode:ないない (TV Size)
Artist:ReoNa
ArtistUnicode:ReoNa
Creator:rew0825
Version:Overdose
Source:シャドーハウス
Tags:Shadows House Female Vocal Vocals Anime ED Ending JP Japanese Pop J-Pop JPop
BeatmapID:3833616
BeatmapSetID:1864138

[Difficulty]
HPDrainRate:6
CircleSize:4.5
OverallDifficulty:9
ApproachRate:9
SliderMultiplier:2.65
SliderTickRate:2

[Events]
//Background and Video events
Video,0,"vdo.m4v"
0,0,"bg.jpg",0,0
//Break Periods
//Storyboard Layer 0 (Background)
//Storyboard Layer 1 (Fail)
//Storyboard Layer 2 (Pass)
//Storyboard Layer 3 (Foreground)
//Storyboard Layer 4 (Overlay)
//Storyboard Sound Samples

[TimingPoints]
559,461.538461538462,4,2,25,65,1,0
22597,-100,4,2,25,5,0,0
22712,-100,4,2,25,70,0,0
37482,-100,4,2,26,75,0,0
51789,-100,4,2,27,75,0,0
52251,-71.4285714285714,4,2,27,80,0,1
52712,-100,4,2,27,80,0,1
53174,-71.4285714285714,4,2,27,80,0,1
53635,-100,4,2,27,80,0,1
54097,-71.4285714285714,4,2,27,80,0,1
54558,-100,4,2,27,80,0,1
55020,-71.4285714285714,4,2,27,80,0,1
55481,-100,4,2,27,80,0,1
55943,-71.4285714285714,4,2,27,80,0,1
56404,-100,4,2,27,80,0,1
56866,-71.4285714285714,4,2,27,80,0,1
57327,-100,4,2,27,80,0,1
57789,-66.6666666666667,4,2,27,80,0,1
58482,-100,4,2,27,80,0,1
58712,-66.6666666666667,4,2,27,80,0,1
59405,-100,4,2,27,80,0,1
59635,-71.4285714285714,4,2,27,80,0,1
60328,-100,4,2,27,80,0,1
60559,-71.4285714285714,4,2,27,80,0,1
61251,-100,4,2,27,80,0,1
61482,-71.4285714285714,4,2,27,80,0,1
62174,-100,4,2,27,80,0,1
62405,-71.4285714285714,4,2,27,80,0,1
63097,-100,4,2,27,80,0,1
63789,-71.4285714285714,4,2,27,80,0,1
64481,-100,4,2,27,80,0,1
67020,-71.4285714285714,4,2,27,80,0,1
67712,-100,4,2,27,80,0,1
67943,-71.4285714285714,4,2,27,80,0,1
68635,-100,4,2,27,80,0,1
68866,-71.4285714285714,4,2,27,80,0,1
69558,-100,4,2,27,80,0,1
69789,-71.4285714285714,4,2,27,80,0,1
70481,-100,4,2,27,80,0,1
73482,-66.6666666666667,4,2,27,80,0,1
73943,-100,4,2,27,80,0,1
74405,-71.4285714285714,4,2,27,80,0,1
75097,-100,4,2,27,80,0,1
75328,-71.4285714285714,4,2,27,80,0,1
76020,-100,4,2,27,80,0,1
76251,-71.4285714285714,4,2,27,80,0,1
76943,-100,4,2,27,80,0,1
77174,-71.4285714285714,4,2,27,80,0,1
77866,-100,4,2,27,80,0,1
78097,-100,4,2,26,75,0,0
79020,-100,4,2,27,75,0,0
79251,-100,4,2,26,75,0,0
81789,-71.4285714285714,4,2,26,75,0,0
82251,-100,4,2,26,75,0,0
82712,-71.4285714285714,4,2,26,75,0,0
83174,-100,4,2,26,75,0,0
84097,-100,4,2,25,70,0,0
85019,-71.4285714285714,4,2,25,70,0,0
85482,-100,4,2,25,70,0,0
86866,-71.4285714285714,4,2,25,70,0,0
87329,-100,4,2,25,70,0,0

[Colours]
Combo1 : 88,148,237
Combo2 : 241,78,78
Combo3 : 244,241,102

[HitObjects]
179,299,7943,6,0,P|88:242|181:167,1,265,2|8,1:2|0:2,0:0:0:0:
379,166,8635,1,2,1:2:0:0:
180,166,8866,2,0,L|448:167,1,265,2|8,1:2|0:3,0:0:0:0:
245,166,9559,1,2,1:2:0:0:
444,166,9789,6,0,P|413:288|290:320,1,265,2|8,1:2|0:2,0:0:0:0:
91,320,10482,1,2,1:2:0:0:
289,320,10712,2,0,L|429:320,1,132.5,2|2,1:2|0:0,0:0:0:0:
208,320,11174,2,0,L|75:320,1,132.5,2|2,0:0|1:2,0:0:0:0:
380,320,11635,6,0,P|468:274|379:186,1,265,2|8,1:2|0:2,0:0:0:0:
178,186,12328,1,2,1:2:0:0:
376,186,12559,2,0,L|98:186,1,265,2|8,1:2|0:3,0:0:0:0:
309,186,13251,1,2,1:2:0:0:
110,186,13482,6,0,L|379:186,1,265,2|8,1:2|0:2,0:0:0:0:
176,186,14174,1,2,1:2:0:0:
374,186,14405,2,0,L|240:186,1,132.5,2|2,1:2|0:0,0:0:0:0:
29,186,14866,2,0,L|164:186,1,132.5,2|2,0:2|1:2,0:0:0:0:
468,186,15328,6,0,P|397:293|270:318,1,265,2|8,1:2|0:2,0:0:0:0:
70,317,16020,1,2,1:2:0:0:
269,317,16251,2,0,P|396:293|468:186,1,265,2|8,1:2|0:3,0:0:0:0:
266,182,16943,1,2,1:2:0:0:
464,182,17174,6,0,P|373:90|244:91,1,265,2|8,1:2|0:2,0:0:0:0:
45,91,17866,1,2,1:2:0:0:
244,91,18097,2,0,L|380:90,1,132.5,2|2,1:2|0:0,0:0:0:0:
163,90,18559,2,0,L|22:91,1,132.5,2|2,0:0|1:2,0:0:0:0:
335,90,19020,6,0,P|425:142|334:223,1,265,2|8,1:2|0:2,0:0:0:0:
134,222,19712,1,0,1:2:0:0:
332,222,19943,2,0,L|51:224,1,265,2|8,1:2|0:3,0:0:0:0:
265,223,20635,1,2,1:2:0:0:
66,223,20866,6,0,L|61:-43,1,265,2|8,1:2|0:2,0:0:0:0:
433,97,21789,1,6,1:2:0:0:
64,92,22251,2,0,P|63:161|171:203,1,198.75,0|0,0:0|0:0,0:0:0:0:
388,203,22712,6,0,P|479:266|387:338,1,265,2|0,1:2|1:2,0:0:0:0:
186,337,23405,1,2,0:0:0:0:
384,337,23635,2,0,P|386:269|226:214,1,265,2|0,1:2|1:2,0:0:0:0:
426,213,24328,1,2,0:0:0:0:
120,213,24559,6,0,L|390:213,1,265,2|0,1:2|1:2,0:0:0:0:
186,213,25251,1,2,0:0:0:0:
384,213,25482,2,0,L|387:79,1,132.5,2|2,1:2|0:0,0:0:0:0:
188,80,25943,1,2,1:2:0:0:
386,80,26174,1,2,0:0:0:0:
67,80,26405,6,0,P|26:130|154:202,1,265,2|0,1:2|1:2,0:0:0:0:
352,202,27097,1,2,0:0:0:0:
153,202,27328,2,0,P|220:202|332:56,1,265,2|0,1:2|1:2,0:0:0:0:
133,57,28020,1,2,0:0:0:0:
438,57,28251,6,0,L|154:59,1,265,2|0,1:2|1:2,0:0:0:0:
371,58,28943,1,2,0:0:0:0:
173,58,29174,2,0,L|37:58,1,132.5,2|2,1:2|0:0,0:0:0:0:
240,58,29635,1,2,1:2:0:0:
42,58,29866,1,2,0:0:0:0:
360,58,30097,6,0,P|451:132|359:192,1,265,2|0,1:2|1:2,0:0:0:0:
159,191,30789,1,2,0:0:0:0:
357,191,31020,2,0,L|358:326,1,132.5,2|2,1:2|0:0,0:0:0:0:
158,323,31482,1,2,1:2:0:0:
356,323,31712,1,2,0:0:0:0:
50,323,31943,6,0,L|48:188,1,132.5,2|2,1:2|0:0,0:0:0:0:
247,190,32405,1,2,1:2:0:0:
48,190,32635,1,2,0:0:0:0:
247,190,32866,2,0,P|339:136|247:58,1,265,2|2,1:2|1:2,0:0:0:0:
48,57,33559,1,2,0:0:0:0:
364,57,33789,6,0,L|366:194,1,132.5,2|0,1:2|0:0,0:0:0:0:
152,189,34251,2,0,L|18:189,1,132.5,2|0,1:2|0:0,0:0:0:0:
324,189,34712,2,0,L|458:190,1,132.5,2|2,1:2|0:0,0:0:0:0:
407,189,35020,1,2,0:0:0:0:
354,189,35097,1,2,0:0:0:0:
194,189,35174,2,0,L|56:189,1,132.5,2|2,1:2|0:0,0:0:0:0:
128,189,35520,1,2,0:0:0:0:
345,189,35635,6,0,P|396:322|119:343,1,530,2|8,1:2|0:0,0:0:0:0:
490,344,37020,2,0,L|356:344,1,132.5,2|2,0:0|0:0,0:0:0:0:
24,344,37482,6,0,L|158:344,1,132.5,6|2,1:2|0:0,0:0:0:0:
357,344,37943,2,0,L|356:275,1,66.25,2|0,0:0|0:0,0:0:0:0:
237,277,38174,2,0,L|154:276,1,66.25,2|0,1:2|0:0,0:0:0:0:
370,276,38405,6,0,L|504:275,1,132.5,2|2,3:2|0:0,0:0:0:0:
436,275,38751,1,0,1:2:0:0:
318,275,38866,1,2,0:0:0:0:
133,275,39097,1,2,0:0:0:0:
93,274,39155,1,0,0:0:0:0:
103,238,39212,1,0,0:0:0:0:
143,238,39270,1,0,0:0:0:0:
317,238,39328,5,0,1:2:0:0:
383,238,39443,1,0,0:0:0:0:
317,238,39559,1,0,0:0:0:0:
198,238,39674,1,0,1:2:0:0:
132,238,39789,1,0,0:0:0:0:
198,238,39905,1,0,0:0:0:0:
317,238,40020,5,0,1:2:0:0:
337,235,40049,1,0,0:0:0:0:
354,223,40078,1,0,0:0:0:0:
363,205,40107,1,0,0:0:0:0:
362,185,40135,1,0,0:0:0:0:
352,167,40164,1,0,0:0:0:0:
334,157,40193,1,0,0:0:0:0:
314,155,40222,1,0,0:0:0:0:
198,155,40251,6,0,L|53:154,1,132.5,0|0,3:2|3:2,0:0:0:0:
264,154,40712,2,0,L|193:155,1,66.25,2|0,0:0|0:0,0:0:0:0:
84,154,40943,1,0,1:2:0:0:
402,154,41174,5,2,1:2:0:0:
448,102,41289,1,0,0:0:0:0:
405,50,41405,1,2,0:0:0:0:
329,48,41520,1,0,0:0:0:0:
210,48,41635,2,0,L|209:117,1,66.25,2|0,0:0|0:0,0:0:0:0:
328,114,41866,2,0,L|397:114,1,66.25,2|0,1:2|0:0,0:0:0:0:
194,114,42097,6,0,L|50:114,1,132.5,2|2,3:2|0:0,0:0:0:0:
128,114,42443,1,0,1:2:0:0:
247,114,42559,1,2,0:0:0:0:
431,114,42789,1,2,1:2:0:0:
471,115,42847,1,0,0:0:0:0:
461,151,42905,1,0,0:0:0:0:
421,151,42962,1,0,0:0:0:0:
247,151,43020,5,0,1:2:0:0:
174,151,43135,1,0,0:0:0:0:
181,223,43251,1,0,0:0:0:0:
299,223,43366,1,0,1:2:0:0:
372,223,43482,1,0,0:0:0:0:
299,223,43597,1,0,0:0:0:0:
180,223,43712,5,0,1:2:0:0:
160,220,43741,1,0,0:0:0:0:
143,208,43770,1,0,0:0:0:0:
134,190,43799,1,0,0:0:0:0:
135,170,43828,1,0,0:0:0:0:
145,152,43857,1,0,0:0:0:0:
163,142,43885,1,0,0:0:0:0:
183,140,43914,1,0,0:0:0:0:
300,140,43943,6,0,L|445:139,1,132.5,0|0,3:2|3:2,0:0:0:0:
246,139,44405,1,2,1:2:0:0:
444,139,44635,1,0,3:2:0:0:
125,139,44866,6,0,P|52:196|160:267,1,265,2|0,1:2|1:2,0:0:0:0:
359,267,45559,1,2,0:0:0:0:
55,267,45789,2,0,L|55:117,1,132.5,2|2,1:2|0:0,0:0:0:0:
241,134,46251,1,2,1:2:0:0:
55,134,46482,1,2,0:0:0:0:
32,105,46539,1,0,0:0:0:0:
56,77,46597,1,0,0:0:0:0:
95,77,46655,1,0,0:0:0:0:
265,77,46712,6,0,L|400:77,1,132.5,2|2,1:2|0:0,0:0:0:0:
330,77,47059,1,0,0:0:0:0:
211,77,47174,1,2,1:2:0:0:
172,124,47289,1,0,0:0:0:0:
212,171,47405,1,0,0:0:0:0:
284,171,47520,1,0,0:0:0:0:
85,171,47635,6,0,L|84:304,1,132.5,0|0,3:2|0:0,0:0:0:0:
151,303,47982,1,0,1:2:0:0:
269,303,48097,1,2,0:0:0:0:
309,256,48212,1,0,0:0:0:0:
269,208,48328,1,0,1:2:0:0:
196,208,48443,1,0,0:0:0:0:
415,208,48559,6,0,P|481:122|287:56,1,397.5,2|2,0:0|0:0,0:0:0:0:
88,55,49482,2,0,L|86:190,1,132.5,2|2,0:0|0:0,0:0:0:0:
271,187,49943,1,2,0:0:0:0:
85,187,50174,1,2,0:0:0:0:
390,187,50405,6,0,P|481:129|389:53,1,265,2|2,0:0|0:0,0:0:0:0:
283,52,51020,1,2,0:0:0:0:
389,52,51174,1,2,0:0:0:0:
159,52,51328,1,2,0:0:0:0:
344,52,51559,1,2,0:0:0:0:
27,52,51789,2,0,L|26:187,1,132.5,10|2,0:0|0:0,0:0:0:0:
360,184,52251,6,0,P|365:285|149:309,1,370.999988677979,4|2,1:2|3:2,0:0:0:0:
453,308,52943,1,2,0:0:0:0:
134,308,53174,2,0,P|124:215|344:166,1,370.999988677979,0|2,1:2|3:2,0:0:0:0:
38,165,53866,1,2,0:0:0:0:
369,165,54097,6,0,P|228:167|127:354,1,370.999988677979,0|2,1:2|3:2,0:0:0:0:
431,351,54789,1,2,0:0:0:0:
112,351,55020,2,0,P|253:349|354:162,1,370.999988677979,0|2,1:2|3:2,0:0:0:0:
50,165,55712,1,2,0:0:0:0:
380,165,55943,6,0,P|498:258|355:336,1,370.999988677979,4|2,1:2|3:2,0:0:0:0:
49,336,56635,1,2,0:0:0:0:
364,336,56866,2,0,P|177:321|107:171,1,370.999988677979,0|2,1:2|3:2,0:0:0:0:
413,170,57559,1,2,0:0:0:0:
60,170,57789,6,0,L|264:169,1,198.750007581711,2|2,1:2|0:0,0:0:0:0:
256,171,58251,2,0,L|52:170,1,198.750007581711,2|2,3:2|0:0,0:0:0:0:
375,170,58712,2,0,L|172:171,2,198.750007581711,2|2|2,1:2|0:0|3:2,0:0:0:0:
68,170,59405,1,2,0:0:0:0:
398,170,59635,6,0,P|259:171|140:355,1,370.999988677979,4|2,1:2|3:2,0:0:0:0:
446,350,60328,1,2,0:0:0:0:
126,350,60559,2,0,P|207:191|384:169,1,370.999988677979,0|2,1:2|3:2,0:0:0:0:
79,169,61251,1,2,0:0:0:0:
410,169,61482,6,0,P|384:60|158:27,1,370.999988677979,0|2,1:2|3:2,0:0:0:0:
463,27,62174,1,2,0:0:0:0:
144,27,62405,2,0,P|318:12|396:168,1,370.999988677979,0|2,1:2|3:2,0:0:0:0:
90,168,63097,1,2,0:0:0:0:
421,168,63328,6,0,L|423:320,1,132.5,4|2,1:2|0:0,0:0:0:0:
119,300,63789,2,0,P|262:299|365:101,1,370.999988677979,2|2,3:2|1:2,0:0:0:0:
180,117,64482,1,2,0:0:0:0:
483,117,64712,2,0,L|336:119,1,132.5,2|2,3:2|0:0,0:0:0:0:
30,118,65174,5,0,1:2:0:0:
215,118,65405,1,2,0:0:0:0:
122,118,65520,1,2,0:0:0:0:
215,118,65635,1,2,0:0:0:0:
400,118,65866,1,2,0:0:0:0:
94,118,66097,1,2,0:0:0:0:
425,118,66328,2,0,L|426:253,1,132.5,2|2,1:2|0:0,0:0:0:0:
120,250,66789,1,2,0:0:0:0:
451,250,67020,6,0,P|422:157|181:106,1,370.999988677979,4|2,1:2|3:2,0:0:0:0:
486,105,67712,1,2,0:0:0:0:
170,105,67943,2,0,P|43:198|172:298,1,370.999988677979,0|2,1:2|3:2,0:0:0:0:
474,291,68635,1,2,0:0:0:0:
144,291,68866,6,0,P|130:212|351:125,1,370.999988677979,0|2,1:2|3:2,0:0:0:0:
44,124,69559,1,2,0:0:0:0:
362,124,69789,2,0,P|491:223|361:310,1,370.999988677979,0|2,1:2|3:2,0:0:0:0:
56,310,70482,1,2,0:0:0:0:
386,310,70712,5,4,1:2:0:0:
187,310,70943,2,0,L|254:310,1,66.25,2|0,0:0|0:0,0:0:0:0:
473,310,71174,2,0,L|340:310,1,132.5,0|2,3:2|0:0,0:0:0:0:
35,310,71635,2,0,L|34:176,1,132.5,2|2,1:2|0:0,0:0:0:0:
340,177,72097,1,2,3:2:0:0:
34,177,72328,1,2,0:0:0:0:
365,177,72559,5,0,1:2:0:0:
166,177,72789,1,2,0:0:0:0:
132,177,72847,1,0,0:0:0:0:
166,177,72905,1,2,0:0:0:0:
364,177,73020,2,0,L|366:37,1,132.5,0|2,3:2|0:0,0:0:0:0:
299,44,73366,1,0,0:0:0:0:
79,44,73482,2,0,L|287:44,2,198.750007581711,0|2|2,1:2|0:0|3:2,0:0:0:0:
384,44,74174,1,2,0:0:0:0:
52,44,74405,6,0,P|90:140|335:179,1,370.999988677979,4|2,1:2|3:2,0:0:0:0:
24,182,75097,1,2,0:0:0:0:
344,182,75328,2,0,P|373:268|166:317,1,370.999988677979,0|2,1:2|3:2,0:0:0:0:
472,318,76020,1,2,0:0:0:0:
149,318,76251,6,0,P|23:234|156:132,1,370.999988677979,0|2,1:2|3:2,0:0:0:0:
458,131,76943,1,2,0:0:0:0:
142,131,77174,2,0,P|278:130|407:310,1,370.999988677979,0|2,1:2|3:2,0:0:0:0:
101,306,77866,1,2,0:0:0:0:
432,306,78097,6,0,P|435:222|286:176,1,265,4|2,1:2|0:0,0:0:0:0:
352,176,78674,1,0,0:0:0:0:
470,176,78789,2,0,L|398:176,1,66.25,2|0,1:2|0:0,0:0:0:0:
203,176,79020,6,0,L|66:177,1,132.5,0|0,3:2|0:0,0:0:0:0:
137,176,79366,1,0,0:0:0:0:
256,176,79482,2,0,L|257:242,1,66.25,2|0,0:0|0:0,0:0:0:0:
58,242,79712,1,2,1:2:0:0:
34,265,79770,1,0,0:0:0:0:
58,287,79828,1,0,0:0:0:0:
94,287,79885,1,0,0:0:0:0:
267,287,79943,6,0,L|404:287,1,132.5,0|0,1:2|0:0,0:0:0:0:
332,287,80289,1,0,0:0:0:0:
212,287,80405,1,2,0:0:0:0:
410,287,80635,1,2,1:2:0:0:
343,287,80751,1,0,0:0:0:0:
144,287,80866,5,0,3:2:0:0:
110,287,80924,1,0,0:0:0:0:
144,287,80982,1,0,0:0:0:0:
343,287,81097,2,0,L|344:220,1,66.25,0|0,1:2|0:0,0:0:0:0:
224,220,81328,2,0,L|226:147,1,66.25,2|0,0:0|0:0,0:0:0:0:
345,151,81559,2,0,L|419:150,1,66.25,0|0,1:2|0:0,0:0:0:0:
166,150,81789,6,0,P|35:100|170:21,1,370.999988677979,6|0,1:2|0:0,0:0:0:0:
475,20,82482,1,2,0:0:0:0:
158,20,82712,2,0,P|181:99|432:146,1,370.999988677979,6|2,1:2|0:0,0:0:0:0:
116,21,83405,1,2,0:0:0:0:
432,21,83635,5,6,1:2:0:0:
86,21,84097,1,2,0:0:0:0:
271,21,84328,1,2,0:0:0:0:
86,21,84559,2,0,L|222:21,1,132.5,2|2,0:0|0:0,0:0:0:0:
263,21,84866,1,2,0:0:0:0:
218,21,84943,1,2,0:0:0:0:
32,21,85020,2,0,L|220:21,2,185.499994338989,2|2|2,1:2|1:2|1:2,0:0:0:0:
403,21,85943,5,2,0:0:0:0:
217,21,86174,1,2,0:0:0:0:
403,21,86405,2,0,L|270:21,1,132.5,2|2,0:0|0:0,0:0:0:0:
224,21,86712,1,2,0:0:0:0:
269,21,86789,1,2,0:0:0:0:
455,21,86866,2,0,L|262:21,2,185.499994338989,2|2|2,1:2|1:2|1:2,0:0:0:0:
83,21,87789,5,2,0:0:0:0:
455,21,88251,5,6,1:2:0:0:
