osu file format v14

[General]
AudioFilename: audio.mp3
AudioLeadIn: 0
PreviewTime: 51559
Countdown: 0
SampleSet: Soft
StackLeniency: 0.7
Mode: 2
LetterboxInBreaks: 0
WidescreenStoryboard: 1

[Editor]
DistanceSpacing: 1
BeatDivisor: 4
GridSize: 8
TimelineZoom: 1.6

[Metadata]
Title:Nai Nai (TV Size)
TitleUnicode:ないない (TV Size)
Artist:ReoNa
ArtistUnicode:ReoNa
Creator:rew0825
Version:Cup
Source:シャドーハウス
Tags:Shadows House Female Vocal Vocals Anime ED Ending JP Japanese Pop J-Pop JPop
BeatmapID:3854252
BeatmapSetID:1864138

[Difficulty]
HPDrainRate:2
CircleSize:2.5
OverallDifficulty:5.8
ApproachRate:5.8
SliderMultiplier:1.78
SliderTickRate:1

[Events]
//Background and Video events
Video,0,"vdo.m4v"
0,0,"bg.jpg",0,0
//Break Periods
//Storyboard Layer 0 (Background)
//Storyboard Layer 1 (Fail)
//Storyboard Layer 2 (Pass)
//Storyboard Layer 3 (Foreground)
//Storyboard Layer 4 (Overlay)
//Storyboard Sound Samples

[TimingPoints]
559,461.538461538462,4,2,25,65,1,0
22712,-100,4,2,25,70,0,0
37482,-100,4,2,26,75,0,0
51789,-100,4,2,27,75,0,0
52251,-100,4,2,27,80,0,1
78097,-100,4,2,26,75,0,0
79020,-100,4,2,27,75,0,0
79251,-100,4,2,26,75,0,0
84097,-100,4,2,25,70,0,0

[Colours]
Combo1 : 88,148,237
Combo2 : 241,78,78
Combo3 : 244,241,102

[HitObjects]
169,322,7943,6,0,P|48:257|172:150,1,356,2|2,1:2|1:2,0:0:0:0:
349,149,9328,1,8,0:3:0:0:
171,149,9789,6,0,L|168:331,1,178,2|8,1:2|0:2,0:0:0:0:
346,326,10712,1,2,1:2:0:0:
167,326,11174,1,2,0:0:0:0:
346,326,11635,6,0,P|467:248|344:141,1,356,2|2,1:2|1:2,0:0:0:0:
166,140,13020,1,8,0:3:0:0:
344,140,13482,6,0,L|346:322,1,178,2|8,1:2|0:2,0:0:0:0:
167,317,14405,1,2,1:2:0:0:
345,317,14866,1,2,0:2:0:0:
167,317,15328,6,0,P|162:180|346:119,1,356,2|2,1:2|1:2,0:0:0:0:
166,118,16712,1,8,0:3:0:0:
344,118,17174,6,0,L|346:306,1,178,2|8,1:2|0:2,0:0:0:0:
167,295,18097,2,0,L|166:114,1,178,2|2,1:2|0:0,0:0:0:0:
344,117,19020,6,0,P|349:254|165:315,1,356,2|2,1:2|1:2,0:0:0:0:
345,316,20405,1,8,0:3:0:0:
166,316,20866,6,0,L|169:136,1,178,2|8,1:2|0:2,0:0:0:0:
347,138,21789,1,6,1:2:0:0:
62,138,22712,6,0,P|215:171|231:350,1,356,2|2,1:2|1:2,0:0:0:0:
55,346,24097,1,0,1:2:0:0:
233,346,24559,6,0,P|326:331|348:258,1,178,2|0,1:2|1:2,0:0:0:0:
170,259,25482,2,0,P|77:244|55:171,1,178,2|2,1:2|1:2,0:0:0:0:
232,170,26405,6,0,P|379:181|432:363,1,356,2|2,1:2|1:2,0:0:0:0:
255,359,27789,1,0,1:2:0:0:
433,359,28251,6,0,L|436:177,1,178,2|0,1:2|1:2,0:0:0:0:
257,181,29174,1,2,1:2:0:0:
435,181,29635,1,2,1:2:0:0:
257,181,30097,6,0,P|170:181|119:109,1,178,2|0,1:2|1:2,0:0:0:0:
297,112,31020,2,0,P|384:112|435:40,1,178,2|2,1:2|1:2,0:0:0:0:
256,43,31943,6,0,P|136:117|258:237,1,356,2|2,1:2|1:2,0:0:0:0:
430,238,33328,1,2,1:2:0:0:
252,238,33789,5,2,1:2:0:0:
73,238,34251,2,0,P|51:150|76:63,1,178,2|2,1:2|1:2,0:0:0:0:
251,67,35174,1,2,1:2:0:0:
428,67,35635,6,0,P|430:209|251:272,1,356,2|8,1:2|0:0,0:0:0:0:
72,272,37020,1,2,0:0:0:0:
250,272,37482,6,0,P|340:261|356:187,1,178,6|2,1:2|0:0,0:0:0:0:
266,186,38174,1,2,1:2:0:0:
176,186,38405,2,0,P|105:184|58:99,1,178,2|2,3:2|0:0,0:0:0:0:
236,99,39328,6,0,L|370:100,2,133.5,0|0|0,1:2|1:2|1:2,0:0:0:0:
147,99,40251,2,0,P|101:152|152:237,1,178,0|2,3:2|0:0,0:0:0:0:
326,235,41174,6,0,P|374:164|320:103,1,178,2|2,1:2|0:0,0:0:0:0:
233,103,41866,1,2,1:2:0:0:
144,103,42097,2,0,P|95:174|147:237,1,178,2|2,3:2|0:0,0:0:0:0:
323,236,43020,6,0,L|456:236,2,133.5,0|0|0,1:2|1:2|1:2,0:0:0:0:
233,236,43943,2,0,P|165:234|100:149,1,178,0|2,3:2|1:2,0:0:0:0:
278,152,44866,6,0,P|346:153|404:248,1,178,2|0,1:2|1:2,0:0:0:0:
227,270,45789,2,0,L|225:89,1,178,2|2,1:2|1:2,0:0:0:0:
403,92,46712,5,2,1:2:0:0:
483,92,46943,1,2,0:0:0:0:
403,92,47174,1,2,1:2:0:0:
221,88,47635,1,0,3:2:0:0:
167,160,47866,1,0,0:0:0:0:
224,229,48097,1,2,0:0:0:0:
313,229,48328,1,0,1:2:0:0:
224,229,48559,6,0,P|72:218|38:39,1,356,2|2,0:0|0:0,0:0:0:0:
213,43,49943,1,2,0:0:0:0:
391,43,50405,6,0,P|438:108|391:181,1,178,2|2,0:0|0:0,0:0:0:0:
212,181,51328,1,2,0:0:0:0:
390,181,51789,1,10,0:0:0:0:
211,181,52251,6,0,L|210:359,1,178,4|2,1:2|3:2,0:0:0:0:
388,358,53174,2,0,P|468:345|481:258,1,178,0|2,1:2|3:2,0:0:0:0:
304,260,54097,6,0,P|256:198|307:124,1,178,0|2,1:2|3:2,0:0:0:0:
483,124,55020,2,0,P|481:67|380:35,1,178,0|2,1:2|3:2,0:0:0:0:
201,35,55943,6,0,P|281:76|374:75,1,178,4|2,1:2|3:2,0:0:0:0:
189,76,56866,2,0,P|142:129|190:212,1,178,0|2,1:2|3:2,0:0:0:0:
367,242,57789,5,2,1:2:0:0:
447,242,58020,1,2,0:0:0:0:
367,242,58251,1,2,3:2:0:0:
189,242,58712,1,2,1:2:0:0:
108,242,58943,1,2,0:0:0:0:
189,242,59174,1,2,3:2:0:0:
366,242,59635,6,0,P|419:194|362:125,1,178,4|2,1:2|3:2,0:0:0:0:
184,125,60559,2,0,P|229:69|329:49,1,178,0|2,1:2|3:2,0:0:0:0:
149,54,61482,6,0,P|100:103|159:172,1,178,0|2,1:2|3:2,0:0:0:0:
338,172,62405,2,0,P|415:173|482:247,1,178,0|2,1:2|3:2,0:0:0:0:
303,242,63328,5,4,1:2:0:0:
125,242,63789,2,0,P|87:176|131:92,1,178,2|2,3:2|1:2,0:0:0:0:
219,92,64482,1,2,0:0:0:0:
307,92,64712,1,2,3:2:0:0:
130,92,65174,5,0,1:2:0:0:
307,92,65635,1,2,0:0:0:0:
387,92,65866,1,2,0:0:0:0:
307,92,66097,1,2,0:0:0:0:
217,92,66328,2,0,P|168:155|220:229,1,178,2|2,1:2|0:0,0:0:0:0:
304,227,67020,6,0,P|375:231|418:324,1,178,4|2,1:2|3:2,0:0:0:0:
240,318,67943,2,0,P|167:313|122:224,1,178,0|2,1:2|3:2,0:0:0:0:
299,227,68866,6,0,P|352:172|296:108,1,178,0|2,1:2|3:2,0:0:0:0:
117,104,69789,2,0,P|66:159|122:226,1,178,0|2,1:2|3:2,0:0:0:0:
300,226,70712,5,4,1:2:0:0:
389,226,70943,2,0,P|441:176|383:110,1,178,2|2,0:0|0:0,0:0:0:0:
293,109,71635,2,0,P|215:110|156:31,1,178,2|2,1:2|3:2,0:0:0:0:
335,36,72559,5,0,1:2:0:0:
414,36,72789,1,2,0:0:0:0:
335,36,73020,1,0,3:2:0:0:
156,36,73482,1,0,1:2:0:0:
77,36,73712,1,2,0:0:0:0:
156,36,73943,1,2,3:2:0:0:
334,36,74405,6,0,P|386:89|333:162,1,178,4|2,1:2|3:2,0:0:0:0:
156,161,75328,2,0,P|181:209|312:225,1,178,0|2,1:2|3:2,0:0:0:0:
115,234,76251,6,0,P|76:171|125:90,1,178,0|2,1:2|3:2,0:0:0:0:
303,89,77174,2,0,P|379:93|437:171,1,178,0|2,1:2|3:2,0:0:0:0:
258,169,78097,6,0,P|182:173|124:251,1,178,4|2,1:2|0:0,0:0:0:0:
302,249,79020,2,0,P|347:196|302:110,1,178,0|2,3:2|0:0,0:0:0:0:
212,109,79712,1,2,1:2:0:0:
122,109,79943,6,0,P|77:162|122:248,1,178,0|2,1:2|0:0,0:0:0:0:
300,248,80866,2,0,P|364:246|427:152,1,178,0|2,3:2|0:0,0:0:0:0:
337,159,81559,1,0,1:2:0:0:
248,159,81789,6,0,P|175:155|130:67,1,178,6|0,1:2|0:0,0:0:0:0:
307,69,82712,2,0,P|387:71|434:157,1,178,6|2,1:2|0:0,0:0:0:0:
256,148,83635,5,6,1:2:0:0:
77,148,84097,1,2,0:0:0:0:
256,148,84559,2,0,P|302:215|255:287,1,178,2|2,0:0|1:2,0:0:0:0:
165,287,85251,1,2,1:2:0:0:
254,287,85482,1,2,1:2:0:0:
431,287,85943,5,2,0:0:0:0:
254,287,86405,2,0,P|195:239|256:189,1,178,2|2,0:0|1:2,0:0:0:0:
346,189,87097,1,2,1:2:0:0:
256,189,87328,1,2,1:2:0:0:
78,189,87789,5,2,0:0:0:0:
256,189,88251,5,6,1:2:0:0:
