osu file format v14

[General]
AudioFilename: audio.mp3
AudioLeadIn: 0
PreviewTime: 51536
Countdown: 0
SampleSet: Soft
StackLeniency: 0.7
Mode: 0
LetterboxInBreaks: 0
WidescreenStoryboard: 1

[Editor]
DistanceSpacing: 2.1
BeatDivisor: 4
GridSize: 4
TimelineZoom: 2.4

[Metadata]
Title:Nai Nai (TV Size)
TitleUnicode:ないない (TV Size)
Artist:ReoNa
ArtistUnicode:ReoNa
Creator:kusano
Version:Morph
Source:シャドーハウス
Tags:shadows house ending ed sacra music japanese anime pop jpop j-pop LIVE LAB.
BeatmapID:2946768
BeatmapSetID:1430043

[Difficulty]
HPDrainRate:7
CircleSize:4
OverallDifficulty:8
ApproachRate:9.2
SliderMultiplier:2.2
SliderTickRate:1

[Events]
//Background and Video events
0,0,"1.jpg",0,0
Video,0,"s.mp4"
//Break Periods
//Storyboard Layer 0 (Background)
//Storyboard Layer 1 (Fail)
//Storyboard Layer 2 (Pass)
//Storyboard Layer 3 (Foreground)
//Storyboard Layer 4 (Overlay)
//Storyboard Sound Samples

[TimingPoints]
652,461.538461538462,4,2,1,70,1,0
652,-200,4,2,1,70,0,0
22805,-133.333333333333,4,2,1,70,0,0
37575,-133.333333333333,4,2,1,78,0,0
48652,-200,4,2,1,70,0,0
51421,-100,4,2,1,80,0,0
52344,-66.6666666666667,4,2,1,90,0,1
65267,-66.6666666666667,4,2,1,90,0,0
67113,-66.6666666666667,4,2,1,90,0,1
78190,-100,4,2,1,80,0,0

[Colours]
Combo1 : 137,31,224
Combo2 : 119,71,62
Combo3 : 147,151,164
Combo4 : 239,243,243
Combo5 : 222,20,81
Combo6 : 241,230,84
Combo7 : 11,199,238
Combo8 : 16,237,171

[HitObjects]
100,76,652,5,0,0:0:0:0:
256,252,1113,1,0,0:0:0:0:
412,76,1575,1,2,0:0:0:0:
256,252,2036,1,0,0:0:0:0:
412,76,2498,5,0,0:0:0:0:
100,76,2959,1,2,0:0:0:0:
256,252,3421,1,2,0:0:0:0:
412,76,3882,1,2,0:0:0:0:
80,320,4344,5,2,0:0:0:0:
384,368,4805,1,2,0:0:0:0:
432,64,5267,1,2,0:0:0:0:
128,16,5728,1,2,0:0:0:0:
256,192,6190,1,2,0:0:0:0:
300,48,8036,85,8,0:0:0:0:
212,340,8498,1,2,0:0:0:0:
128,304,8728,1,8,0:0:0:0:
200,248,8959,1,8,0:0:0:0:
40,332,9190,2,0,P|20:312|12:280,1,55,0|0,0:0|3:0,0:0:0:0:
284,280,9652,1,8,0:0:0:0:
200,248,9882,6,0,P|200:219|216:191,1,55,8|0,0:0|0:0,0:0:0:0:
276,136,10344,1,2,0:0:0:0:
364,204,10575,1,8,0:0:0:0:
284,280,10805,1,4,0:3:0:0:
360,120,11036,1,0,0:0:0:0:
212,196,11267,1,0,0:0:0:0:
372,288,11498,1,4,0:3:0:0:
512,168,11728,5,8,0:0:0:0:
212,40,12190,1,2,0:0:0:0:
168,120,12421,1,8,0:0:0:0:
100,60,12652,1,8,0:0:0:0:
264,116,12882,2,0,P|260:148|244:176,1,55,0|0,0:0|3:0,0:0:0:0:
84,148,13344,1,8,0:0:0:0:
24,216,13575,86,0,P|28:248|44:276,1,55,4|0,0:3|0:0,0:0:0:0:
104,332,14036,1,2,0:0:0:0:
196,324,14267,1,4,0:3:0:0:
264,264,14498,1,8,0:0:0:0:
196,324,14728,1,2,0:0:0:0:
352,288,14959,1,0,3:0:0:0:
243,171,15190,1,8,0:0:0:0:
196,324,15421,5,8,0:0:0:0:
492,228,15882,1,2,0:0:0:0:
428,160,16113,1,8,0:0:0:0:
400,248,16344,1,4,0:3:0:0:
512,148,16575,2,0,P|504:120|484:96,1,55,0|0,0:0|3:0,0:0:0:0:
316,208,17036,1,0,0:0:0:0:
264,132,17267,6,0,P|272:104|292:80,1,55,8|0,0:0|0:0,0:0:0:0:
324,296,17728,1,2,0:0:0:0:
244,340,17959,1,8,0:0:0:0:
200,260,18190,1,4,0:3:0:0:
324,296,18421,1,0,0:0:0:0:
212,352,18652,1,2,0:0:0:0:
172,236,18882,1,8,0:0:0:0:
282,180,19113,85,8,0:0:0:0:
8,348,19575,1,2,0:0:0:0:
44,264,19805,1,8,0:0:0:0:
120,316,20036,1,4,0:3:0:0:
504,348,20498,1,4,3:0:0:0:
468,264,20728,1,8,0:0:0:0:
392,316,20959,5,4,0:3:0:0:
256,36,21421,1,2,0:0:0:0:
120,316,21882,1,8,0:0:0:0:
112,124,22805,6,0,P|104:160|100:212,1,82.5000031471254,8|0,0:0|0:0,0:0:0:0:
136,284,23267,1,8,0:0:0:0:
220,272,23498,1,0,0:0:0:0:
248,192,23728,2,0,P|221:160|198:125,1,82.5000031471254,8|0,0:0|0:0,0:0:0:0:
0,204,24190,2,0,P|26:235|49:270,1,82.5000031471254,8|0,0:0|0:0,0:0:0:0:
284,340,24652,86,0,P|308:264|260:192,1,165.000006294251,8|8,0:0|0:0,0:0:0:0:
192,156,25344,1,0,0:0:0:0:
348,164,25575,1,4,0:3:0:0:
224,272,25805,1,0,0:0:0:0:
148,232,26036,1,8,0:0:0:0:
396,236,26267,1,8,0:0:0:0:
292,96,26498,6,0,P|248:88|180:60,1,82.5000031471254,8|0,0:0|0:0,0:0:0:0:
48,64,26959,2,0,P|92:72|160:100,1,82.5000031471254,8|0,0:0|0:0,0:0:0:0:
180,156,27421,1,8,0:0:0:0:
392,80,27652,1,0,0:0:0:0:
356,156,27882,1,8,0:0:0:0:
304,88,28113,1,0,0:0:0:0:
444,152,28344,5,8,0:0:0:0:
268,168,28575,1,0,0:0:0:0:
216,236,28805,1,8,0:0:0:0:
180,156,29036,1,0,0:0:0:0:
304,252,29267,1,8,0:0:0:0:
232,84,29498,1,2,0:0:0:0:
128,232,29728,1,8,0:0:0:0:
352,184,29959,1,8,0:0:0:0:
96,152,30190,85,8,0:0:0:0:
328,88,30421,1,0,0:0:0:0:
208,184,30652,2,0,P|212:224|220:280,1,82.5000031471254,8|0,0:0|0:0,0:0:0:0:
444,216,31113,2,0,P|440:176|432:120,1,82.5000031471254,8|0,0:0|0:0,0:0:0:0:
408,52,31575,1,8,0:0:0:0:
316,188,31805,1,8,0:0:0:0:
436,300,32036,5,8,0:0:0:0:
328,96,32267,1,0,0:0:0:0:
164,128,32498,1,8,0:0:0:0:
176,276,32728,1,0,0:0:0:0:
344,280,32959,1,4,0:3:0:0:
260,196,33190,1,0,0:0:0:0:
416,180,33421,1,8,0:0:0:0:
260,196,33652,1,0,0:0:0:0:
328,96,33882,6,0,P|368:88|420:72,1,82.5000031471254,8|0,0:0|0:0,0:0:0:0:
344,280,34344,2,0,P|304:288|252:304,1,82.5000031471254,8|0,0:0|0:0,0:0:0:0:
184,96,34805,1,10,0:0:0:0:
344,280,35036,1,0,0:0:0:0:
328,96,35267,1,10,0:0:0:0:
168,280,35498,1,0,0:0:0:0:
256,40,35728,85,10,0:0:0:0:
256,344,36652,1,2,0:0:0:0:
256,344,37113,1,0,0:0:0:0:
320,288,37344,1,0,0:0:0:0:
192,288,37575,5,12,0:0:0:0:
380,344,37805,2,0,P|400:308|396:252,1,82.5000031471254,2|0,0:0|0:0,0:0:0:0:
376,188,38267,1,8,0:0:0:0:
252,344,38498,1,0,1:0:0:0:
148,308,38728,1,8,0:0:0:0:
148,308,38844,2,0,P|124:276|120:232,1,82.5000031471254,8|0,3:0|0:0,0:0:0:0:
124,192,39190,1,8,0:0:0:0:
256,76,39421,5,8,0:0:0:0:
376,188,39652,1,0,0:0:0:0:
376,188,39767,2,0,P|404:160|416:104,1,82.5000031471254,8|0,0:0|0:0,0:0:0:0:
416,76,40113,1,8,0:0:0:0:
512,216,40344,1,0,1:0:0:0:
368,296,40575,1,0,3:0:0:0:
267,210,40805,2,0,P|285:221|299:235,1,41.2500015735627,2|0,0:0|3:0,0:0:0:0:
368,296,41036,1,0,3:0:0:0:
300,132,41267,86,0,P|252:128|212:144,1,82.5000031471254,8|0,0:0|0:0,0:0:0:0:
152,304,41728,1,0,0:0:0:0:
236,292,41959,1,8,0:0:0:0:
184,64,42190,2,0,P|147:95|130:134,1,82.5000031471254,0|8,1:0|0:0,0:0:0:0:
124,168,42536,2,0,L|136:256,1,82.5000031471254,8|0,3:0|0:0,0:0:0:0:
141,292,42882,1,8,0:0:0:0:
384,228,43113,5,8,0:0:0:0:
228,264,43344,1,0,0:0:0:0:
228,264,43459,2,0,P|212:224|220:176,1,82.5000031471254,8|0,0:0|0:0,0:0:0:0:
232,144,43805,1,8,0:0:0:0:
144,308,44036,1,0,1:0:0:0:
384,228,44267,2,0,P|376:204|376:168,1,41.2500015735627,10|0,0:0|0:0,0:0:0:0:
236,116,44498,2,0,P|212:124|176:124,1,41.2500015735627,10|0,0:0|0:0,0:0:0:0:
134,268,44728,2,0,P|142:292|142:328,1,41.2500015735627,8|0,0:0|0:0,0:0:0:0:
428,356,44959,6,0,P|448:320|452:272,1,82.5000031471254,0|0,1:0|0:0,0:0:0:0:
448,192,45421,1,0,1:0:0:0:
220,284,45652,1,0,0:0:0:0:
134,268,45882,1,0,1:0:0:0:
191,197,46113,1,0,0:0:0:0:
392,216,46344,2,0,P|428:204|460:164,1,82.5000031471254,0|0,1:0|0:0,0:0:0:0:
268,128,46805,86,0,P|268:168|284:208,1,82.5000031471254,0|0,1:0|0:0,0:0:0:0:
312,40,47267,1,0,1:0:0:0:
200,40,47498,1,0,0:0:0:0:
352,124,47728,1,0,1:0:0:0:
160,124,47959,1,0,0:0:0:0:
256,288,48190,1,0,1:0:0:0:
256,296,48305,1,0,0:0:0:0:
256,304,48421,1,0,0:0:0:0:
256,312,48536,1,0,0:0:0:0:
256,320,48652,5,2,0:0:0:0:
316,228,49113,1,2,0:0:0:0:
196,228,49344,1,0,0:0:0:0:
256,328,49575,1,2,0:0:0:0:
400,244,49805,1,0,0:0:0:0:
256,152,50036,1,2,0:0:0:0:
112,244,50267,1,0,0:0:0:0:
256,64,50498,5,2,0:0:0:0:
172,300,50959,1,2,0:0:0:0:
219,360,51113,1,2,0:0:0:0:
293,360,51267,1,2,0:0:0:0:
340,300,51421,86,0,P|348:264|344:228,1,55,2|0,0:0|0:0,0:0:0:0:
164,246,51652,2,0,P|164:273|172:300,1,55,8|0,0:0|0:0,0:0:0:0:
412,168,51882,2,0,P|420:132|416:96,1,55,0|0,1:0|0:0,0:0:0:0:
92,114,52113,2,0,P|92:141|100:168,1,55,2|0,0:0|0:0,0:0:0:0:
364,52,52344,38,0,P|292:48|232:120,1,165.000006294251,12|0,0:0|0:0,0:0:0:0:
196,184,52690,1,0,0:0:0:0:
196,184,52805,2,0,P|169:206|119:209,1,82.5000031471254,0|0,1:0|0:0,0:0:0:0:
364,52,53036,2,0,P|384:32|440:20,1,82.5000031471254,2|0,0:0|0:0,0:0:0:0:
156,116,53267,2,0,P|72:128|16:68,1,165.000006294251,8|0,0:0|0:0,0:0:0:0:
0,0,53613,1,0,0:0:0:0:
76,0,53728,2,0,P|112:4|152:36,1,82.5000031471254,0|0,1:0|0:0,0:0:0:0:
100,216,53959,2,0,P|76:184|72:136,1,82.5000031471254,2|0,0:0|0:0,0:0:0:0:
332,120,54190,6,0,P|388:168|380:256,1,165.000006294251,8|0,0:0|0:0,0:0:0:0:
328,312,54536,1,0,0:0:0:0:
248,320,54652,2,0,P|216:308|180:276,1,82.5000031471254,0|0,1:0|0:0,0:0:0:0:
280,48,54882,2,0,P|344:32|416:96,1,165.000006294251,2|8,0:0|0:0,0:0:0:0:
436,168,55228,1,0,0:0:0:0:
436,168,55344,2,0,P|440:208|424:248,1,82.5000031471254,2|0,0:0|0:0,0:0:0:0:
184,144,55575,2,0,P|184:104|200:64,1,82.5000031471254,0|0,1:0|0:0,0:0:0:0:
356,288,55805,2,0,P|360:328|340:368,1,82.5000031471254,2|0,0:0|0:0,0:0:0:0:
264,340,56036,6,0,P|216:292|120:288,1,165.000006294251,12|2,0:0|0:0,0:0:0:0:
48,316,56382,1,0,0:0:0:0:
48,316,56498,2,0,P|24:336|4:384,1,82.5000031471254,0|0,1:0|0:0,0:0:0:0:
232,256,56728,2,0,P|256:236|276:188,1,82.5000031471254,2|0,0:0|0:0,0:0:0:0:
92,52,56959,2,0,P|32:100|32:184,1,165.000006294251,8|2,0:0|0:0,0:0:0:0:
100,224,57305,1,0,0:0:0:0:
100,224,57421,6,0,P|128:224|180:208,1,82.5000031471254,0|0,1:0|0:0,0:0:0:0:
412,224,57652,2,0,P|384:224|328:208,1,82.5000031471254,2|0,0:0|0:0,0:0:0:0:
132,96,57882,6,0,P|172:97|209:115,1,82.5000031471254,12|0,0:0|0:0,0:0:0:0:
184,296,58113,2,0,P|154:324|115:340,1,82.5000031471254,2|0,0:0|0:0,0:0:0:0:
26,170,58344,2,0,P|8:207|8:248,1,82.5000031471254,0|0,1:0|0:0,0:0:0:0:
329,273,58575,2,0,P|347:236|348:196,1,82.5000031471254,4|0,0:3|0:0,0:0:0:0:
172,76,58805,54,0,P|200:60|252:56,1,82.5000031471254,8|0,0:0|0:0,0:0:0:0:
372,108,59036,2,0,P|388:136|392:188,1,82.5000031471254,8|0,0:1|0:0,0:0:0:0:
340,308,59267,2,0,P|312:324|260:328,1,82.5000031471254,0|0,1:0|0:0,0:0:0:0:
140,276,59498,2,0,P|124:248|120:196,1,82.5000031471254,0|0,1:0|0:0,0:0:0:0:
436,52,59728,6,0,P|468:112|476:208,1,165.000006294251,4|0,0:0|0:0,0:0:0:0:
440,276,60075,1,0,0:0:0:0:
440,276,60190,2,0,P|416:296|396:344,1,82.5000031471254,0|0,1:0|0:0,0:0:0:0:
250,248,60421,2,0,P|247:288|261:327,1,82.5000031471254,2|0,0:0|0:0,0:0:0:0:
116,328,60652,6,0,P|40:304|16:224,1,165.000006294251,8|2,0:0|0:0,0:0:0:0:
36,152,60998,1,0,0:0:0:0:
80,88,61113,2,0,P|104:76|172:80,1,82.5000031471254,0|0,1:0|0:0,0:0:0:0:
328,68,61344,2,0,P|305:46|256:32,1,82.5000031471254,2|0,0:0|0:0,0:0:0:0:
104,240,61575,6,0,P|144:196|252:184,1,165.000006294251,8|2,0:0|0:0,0:0:0:0:
320,208,61921,1,0,0:0:0:0:
392,240,62036,2,0,P|420:224|448:184,1,82.5000031471254,0|0,1:0|0:0,0:0:0:0:
180,20,62267,2,0,P|120:64|116:160,1,165.000006294251,2|8,0:0|0:0,0:0:0:0:
156,216,62613,1,0,0:0:0:0:
156,216,62728,2,0,P|184:240|200:288,1,82.5000031471254,2|0,0:0|0:0,0:0:0:0:
356,176,62959,2,0,P|328:156|304:104,1,82.5000031471254,0|0,1:0|0:0,0:0:0:0:
232,356,63190,2,0,P|264:328|280:284,1,82.5000031471254,2|0,0:0|0:0,0:0:0:0:
300,36,63421,6,0,P|232:76|236:160,1,165.000006294251,12|2,0:0|0:0,0:0:0:0:
288,212,63767,1,0,0:0:0:0:
356,176,63882,1,0,1:0:0:0:
188,360,64113,1,2,0:0:0:0:
60,244,64344,2,0,P|76:272|124:288,1,82.5000031471254,8|0,0:0|0:0,0:0:0:0:
263,330,64575,2,0,P|247:301|204:280,1,82.5000031471254,2|0,0:0|0:0,0:0:0:0:
164,188,64805,1,0,1:0:0:0:
340,364,65036,2,0,P|376:364|424:332,1,82.5000031471254,2|0,0:0|0:0,0:0:0:0:
424,208,65267,5,10,0:0:0:0:
460,276,65382,1,0,0:0:0:0:
88,208,65613,1,10,0:0:0:0:
52,276,65728,1,0,0:0:0:0:
448,136,65959,5,2,0:0:0:0:
64,136,66190,1,2,0:0:0:0:
312,40,66421,2,0,P|296:76|296:120,1,82.5000031471254,4|0,1:0|0:0,0:0:0:0:
200,172,66652,2,0,P|216:208|216:256,1,82.5000031471254,2|0,0:0|0:0,0:0:0:0:
260,352,66882,1,2,0:0:0:0:
260,352,66959,1,2,0:0:0:0:
260,352,67036,1,0,0:0:0:0:
260,352,67113,22,0,P|332:372|412:324,1,165.000006294251,12|2,0:0|0:0,0:0:0:0:
440,260,67459,1,0,0:0:0:0:
444,184,67575,2,0,P|440:144|416:108,1,82.5000031471254,0|0,1:0|0:0,0:0:0:0:
152,260,67805,2,0,P|160:304|184:336,1,82.5000031471254,2|0,0:0|0:0,0:0:0:0:
360,52,68036,2,0,P|288:16|208:48,1,165.000006294251,8|2,0:0|0:0,0:0:0:0:
152,88,68382,1,0,0:0:0:0:
84,124,68498,2,0,P|48:136|4:136,1,82.5000031471254,0|0,1:0|0:0,0:0:0:0:
32,328,68728,2,0,P|64:312|112:316,1,82.5000031471254,2|0,0:0|0:0,0:0:0:0:
316,280,68959,6,0,P|276:280|236:260,1,82.5000031471254,10|0,0:0|0:0,0:0:0:0:
96,204,69190,2,0,P|127:215|160:252,1,82.5000031471254,2|0,0:0|0:0,0:0:0:0:
372,224,69421,1,0,1:0:0:0:
16,240,69652,2,0,P|-8:164|28:88,1,165.000006294251,2|8,0:0|0:0,0:0:0:0:
84,40,69998,1,0,0:0:0:0:
160,28,70113,2,0,P|192:56|204:104,1,82.5000031471254,2|0,0:0|0:0,0:0:0:0:
352,28,70344,2,0,P|320:56|308:104,1,82.5000031471254,0|0,1:0|0:0,0:0:0:0:
164,216,70575,2,0,P|141:238|124:284,1,82.5000031471254,2|0,0:0|0:0,0:0:0:0:
348,216,70805,6,0,P|371:239|388:288,1,82.5000031471254,12|0,0:0|0:0,0:0:0:0:
296,156,71036,1,2,0:0:0:0:
216,156,71152,1,0,0:0:0:0:
256,88,71267,1,0,1:0:0:0:
408,348,71498,1,2,0:0:0:0:
126,268,71728,1,8,0:0:0:0:
352,72,71959,1,2,0:0:0:0:
224,328,72190,1,0,1:0:0:0:
0,144,72421,1,2,0:0:0:0:
360,240,72652,5,12,0:0:0:0:
256,60,72882,1,2,0:0:0:0:
256,60,72959,1,0,0:0:0:0:
256,60,73036,1,0,0:0:0:0:
256,60,73113,2,0,P|216:56|176:72,1,82.5000031471254,0|0,1:0|0:0,0:0:0:0:
62,273,73344,2,0,P|104:276|144:264,1,82.5000031471254,8|0,1:0|0:0,0:0:0:0:
104,48,73575,2,0,P|75:70|60:116,1,82.5000031471254,8|0,0:3|0:0,0:0:0:0:
212,304,73805,2,0,P|241:282|256:236,1,82.5000031471254,0|0,1:0|0:0,0:0:0:0:
260,160,74036,1,8,0:3:0:0:
40,196,74267,1,10,0:0:0:0:
1,261,74382,1,0,0:0:0:0:
16,336,74498,6,0,P|80:356|156:296,1,165.000006294251,12|0,0:0|0:0,0:0:0:0:
248,260,74844,1,0,0:0:0:0:
176,228,74959,2,0,P|180:192|168:144,1,82.5000031471254,0|0,1:0|0:0,0:0:0:0:
0,112,75190,2,0,P|-4:148|8:200,1,82.5000031471254,2|0,0:0|0:0,0:0:0:0:
220,332,75421,2,4,P|292:340|360:284,1,165.000006294251,8|2,0:0|0:0,0:0:0:0:
436,272,75767,1,0,0:0:0:0:
388,212,75882,2,0,P|404:180|440:148,1,82.5000031471254,0|0,1:0|0:0,0:0:0:0:
472,24,76113,2,0,P|436:40|408:72,1,82.5000031471254,2|0,0:0|0:0,0:0:0:0:
212,232,76344,54,0,P|140:248|76:192,1,165.000006294251,12|2,0:0|0:0,0:0:0:0:
48,120,76690,1,0,0:0:0:0:
68,44,76805,2,0,P|96:28|156:28,1,82.5000031471254,0|0,1:0|0:0,0:0:0:0:
280,116,77036,2,0,P|249:136|196:136,1,82.5000031471254,2|0,0:0|0:0,0:0:0:0:
424,48,77267,2,0,P|448:88|448:144,1,82.5000031471254,8|0,0:0|0:0,0:0:0:0:
392,180,77498,1,2,0:0:0:0:
363,254,77613,1,0,0:0:0:0:
416,320,77728,1,0,1:0:0:0:
256,48,77959,1,2,0:0:0:0:
96,320,78190,69,4,0:0:0:0:
372,224,78421,1,0,0:0:0:0:
272,272,78652,1,2,0:0:0:0:
276,164,78882,1,0,1:0:0:0:
416,320,79113,5,0,1:0:0:0:
44,192,79459,1,8,0:3:0:0:
416,64,79805,1,0,1:0:0:0:
268,192,80036,5,12,0:0:0:0:
160,96,80267,1,0,0:0:0:0:
96,224,80498,1,2,0:0:0:0:
264,88,80728,1,0,1:0:0:0:
64,132,80959,1,0,1:0:0:0:
256,184,81190,1,4,0:3:0:0:
104,320,81421,1,8,0:0:0:0:
256,184,81652,1,8,0:0:0:0:
156,236,81882,86,0,P|148:156|204:84,1,165,4|0,0:0|0:0,0:0:0:0:
317,89,82344,2,0,P|363:155|356:236,1,165,2|0,0:0|0:0,0:0:0:0:
308,304,82805,1,4,0:0:0:0:
176,88,83036,1,0,0:0:0:0:
204,304,83267,1,2,0:0:0:0:
336,88,83498,1,0,0:0:0:0:
256,376,83728,5,4,0:0:0:0:
256,28,84190,1,2,0:0:0:0:
76,128,84421,1,8,0:0:0:0:
140,32,84652,1,2,0:0:0:0:
76,256,84882,1,2,0:0:0:0:
76,256,84959,1,0,0:0:0:0:
76,256,85036,1,0,0:0:0:0:
76,256,85113,2,0,P|88:288|108:312,1,55,8|0,0:0|0:0,0:0:0:0:
164,348,85344,1,8,0:0:0:0:
348,348,85575,5,2,0:0:0:0:
164,36,86036,1,2,0:0:0:0:
348,36,86267,1,8,0:0:0:0:
208,144,86498,1,2,0:0:0:0:
304,144,86728,1,2,0:0:0:0:
304,144,86805,1,0,0:0:0:0:
304,144,86882,1,0,0:0:0:0:
304,144,86959,2,0,P|320:168|324:208,1,55,8|0,0:0|0:0,0:0:0:0:
160,284,87190,2,0,P|144:306|138:333,1,55,8|0,0:0|0:0,0:0:0:0:
352,284,87421,85,2,0:0:0:0:
256,352,87882,1,2,0:0:0:0:
256,368,88344,1,8,0:0:0:0:
