osu file format v14

[General]
AudioFilename: audio.mp3
AudioLeadIn: 0
PreviewTime: 51536
Countdown: 0
SampleSet: Soft
StackLeniency: 0.7
Mode: 0
LetterboxInBreaks: 0
WidescreenStoryboard: 1

[Editor]
DistanceSpacing: 2.1
BeatDivisor: 4
GridSize: 4
TimelineZoom: 1

[Metadata]
Title:Nai Nai (TV Size)
TitleUnicode:ないない (TV Size)
Artist:ReoNa
ArtistUnicode:ReoNa
Creator:kusano
Version:Hard
Source:シャドーハウス
Tags:shadows house ending ed sacra music japanese anime pop jpop j-pop LIVE LAB.
BeatmapID:2944764
BeatmapSetID:1430043

[Difficulty]
HPDrainRate:6
CircleSize:4
OverallDifficulty:6
ApproachRate:7
SliderMultiplier:1.6
SliderTickRate:1

[Events]
//Background and Video events
0,0,"1.jpg",0,0
Video,0,"s.mp4"
//Break Periods
//Storyboard Layer 0 (Background)
//Storyboard Layer 1 (Fail)
//Storyboard Layer 2 (Pass)
//Storyboard Layer 3 (Foreground)
//Storyboard Layer 4 (Overlay)
//Storyboard Sound Samples

[TimingPoints]
652,461.538461538462,4,2,1,70,1,0
652,-200,4,2,1,70,0,0
22805,-133.333333333333,4,2,1,70,0,0
37575,-133.333333333333,4,2,1,78,0,0
51421,-100,4,2,1,70,0,0
52344,-100,4,2,1,90,0,1
65267,-100,4,2,1,90,0,0
67113,-100,4,2,1,90,0,1
78190,-100,4,2,1,80,0,0

[Colours]
Combo1 : 137,31,224
Combo2 : 119,71,62
Combo3 : 147,151,164
Combo4 : 239,243,243
Combo5 : 222,20,81
Combo6 : 241,230,84
Combo7 : 11,199,238
Combo8 : 16,237,171

[HitObjects]
72,260,652,5,0,0:0:0:0:
168,216,1113,1,0,0:0:0:0:
248,148,1575,1,2,0:0:0:0:
296,56,2036,1,0,0:0:0:0:
152,104,2498,5,0,0:0:0:0:
248,148,2959,1,2,0:0:0:0:
328,216,3421,1,2,0:0:0:0:
376,308,3882,1,2,0:0:0:0:
232,260,4344,5,2,0:0:0:0:
328,216,4805,1,2,0:0:0:0:
384,128,5267,1,2,0:0:0:0:
400,24,5728,1,2,0:0:0:0:
504,32,6190,1,2,0:0:0:0:
236,48,8036,86,0,P|248:84|256:136,1,80,8|2,0:0|0:0,0:0:0:0:
200,184,8728,1,8,0:0:0:0:
200,184,8959,2,0,P|188:220|180:272,1,80,8|0,0:0|3:0,0:0:0:0:
220,332,9652,1,8,0:0:0:0:
220,332,9882,6,0,P|256:316|304:308,1,80,8|2,0:0|0:0,0:0:0:0:
376,304,10575,1,8,0:0:0:0:
492,324,10805,1,4,0:3:0:0:
444,260,11036,1,0,0:0:0:0:
440,180,11267,2,0,P|445:153|452:140,1,40,0|8,0:0|0:0,0:0:0:0:
480,68,11728,6,0,P|444:48|400:48,1,80,8|2,0:0|0:0,0:0:0:0:
328,64,12421,1,8,0:0:0:0:
328,64,12652,2,0,P|292:84|248:84,1,80,8|0,0:0|3:0,0:0:0:0:
176,64,13344,1,8,0:0:0:0:
100,36,13575,86,0,P|60:40|24:72,1,80,4|2,0:3|0:0,0:0:0:0:
0,140,14267,1,4,0:3:0:0:
172,176,14498,2,0,P|152:156|128:144,1,40,8|0,0:0|0:0,0:0:0:0:
72,188,14959,1,0,3:0:0:0:
72,268,15190,1,4,0:3:0:0:
124,328,15421,6,0,P|160:336|212:320,1,80,8|2,0:0|0:0,0:0:0:0:
268,280,16113,1,8,0:0:0:0:
232,208,16344,2,0,P|196:200|144:216,1,80,8|2,0:0|0:0,0:0:0:0:
268,280,17036,1,8,0:0:0:0:
344,252,17267,6,0,P|352:216|336:164,1,80,8|2,0:0|0:0,0:0:0:0:
300,108,17959,1,8,0:0:0:0:
424,164,18190,1,4,0:3:0:0:
424,84,18421,1,0,0:0:0:0:
360,36,18652,2,0,P|334:28|316:24,1,40,0|8,0:0|0:0,0:0:0:0:
244,40,19113,86,0,P|216:68|208:120,1,80,8|0,0:0|0:0,0:0:0:0:
248,176,19805,1,8,0:0:0:0:
80,112,20036,2,0,P|108:140|116:192,1,80,8|2,0:0|0:0,0:0:0:0:
76,248,20728,1,8,0:0:0:0:
248,176,20959,5,4,0:3:0:0:
144,296,21421,5,2,0:0:0:0:
280,380,21882,85,8,0:0:0:0:
480,132,22805,6,0,P|472:104|444:64,1,60.0000022888184,8|0,0:0|0:0,0:0:0:0:
360,170,23267,2,0,P|375:144|384:116,1,60.0000022888184,8|0,0:0|0:0,0:0:0:0:
272,56,23728,2,0,P|286:81|294:129,1,60.0000022888184,8|0,0:0|0:0,0:0:0:0:
159,113,24190,2,0,P|188:120|214:134,1,60.0000022888184,8|0,0:0|0:0,0:0:0:0:
52,208,24652,6,0,P|44:148|72:92,1,120.000004577637,8|8,0:0|0:0,0:0:0:0:
128,40,25344,1,0,0:0:0:0:
197,77,25575,2,0,P|226:86|270:86,1,60.0000022888184,8|0,0:0|0:0,0:0:0:0:
328,120,26036,1,8,0:0:0:0:
400,88,26267,1,8,0:0:0:0:
408,8,26498,86,0,P|348:-4|292:24,1,120.000004577637,8|8,0:0|0:0,0:0:0:0:
256,88,27190,1,0,0:0:0:0:
411,199,27421,2,0,P|423:139|395:83,1,120.000004577637,8|8,0:0|0:0,0:0:0:0:
336,40,28113,1,0,0:0:0:0:
216,204,28344,6,0,P|276:216|332:188,1,120.000004577637,8|8,0:0|0:0,0:0:0:0:
372,128,29036,1,0,0:0:0:0:
312,76,29267,2,0,P|284:72|236:92,1,60.0000022888184,8|2,0:0|0:0,0:0:0:0:
124,132,29728,2,0,P|152:136|200:116,1,60.0000022888184,8|8,0:0|0:0,0:0:0:0:
184,32,30190,6,0,P|124:28|64:76,1,120.000004577637,8|8,0:0|0:0,0:0:0:0:
36,128,30882,1,0,0:0:0:0:
156,168,31113,2,0,P|156:140|148:108,1,60.0000022888184,8|0,0:0|0:0,0:0:0:0:
36,128,31575,1,8,0:0:0:0:
112,240,31805,1,8,0:0:0:0:
240,196,32036,85,8,0:0:0:0:
112,240,32267,2,0,P|112:212|120:180,1,60.0000022888184,0|8,0:0|0:0,0:0:0:0:
240,196,32728,1,0,0:0:0:0:
320,160,32959,2,0,P|327:189|327:218,1,60.0000022888184,8|0,0:0|0:0,0:0:0:0:
304,296,33421,1,8,0:0:0:0:
456,240,33652,1,0,0:0:0:0:
456,240,33882,6,0,P|449:211|449:182,1,60.0000022888184,8|0,0:0|0:0,0:0:0:0:
504,68,34344,2,0,P|511:97|511:126,1,60.0000022888184,8|0,0:0|0:0,0:0:0:0:
449,180,34805,1,10,0:0:0:0:
372,204,35036,1,0,0:0:0:0:
296,176,35267,1,10,0:0:0:0:
256,108,35498,1,0,0:0:0:0:
256,28,35728,5,8,0:0:0:0:
256,344,36652,1,0,0:0:0:0:
480,312,37113,1,0,0:0:0:0:
504,236,37344,1,0,0:0:0:0:
460,168,37575,86,0,P|428:164|384:180,1,60.0000022888184,12|0,0:0|0:0,0:0:0:0:
300,268,38036,2,0,P|332:272|376:256,1,60.0000022888184,0|8,0:0|0:0,0:0:0:0:
328,108,38498,2,0,P|304:88|268:76,1,60.0000022888184,0|8,1:0|0:0,0:0:0:0:
200,68,38959,1,8,0:0:0:0:
124,92,39190,1,0,0:0:0:0:
76,156,39421,6,0,P|72:200|88:248,2,90.0000034332277,8|8|8,0:0|0:0|0:0,0:0:0:0:
200,68,40344,2,0,P|200:96|192:144,1,60.0000022888184,2|0,1:2|3:0,0:0:0:0:
328,172,40805,2,0,P|324:156|328:124,2,30.0000011444092,8|0|8,0:0|0:0|0:0,0:0:0:0:
456,60,41267,6,0,P|464:92|460:132,1,60.0000022888184,8|0,0:0|0:0,0:0:0:0:
412,180,41728,2,0,P|404:212|408:252,1,60.0000022888184,0|8,0:0|0:0,0:0:0:0:
428,316,42190,1,0,1:0:0:0:
364,364,42421,1,0,0:0:0:0:
296,324,42652,2,0,P|264:320|232:312,1,60.0000022888184,8|8,0:3|0:0,0:0:0:0:
164,284,43113,86,0,P|128:288|68:308,2,90.0000034332277,8|8|8,0:0|0:0|0:0,0:0:0:0:
308,244,44036,1,2,1:2:0:0:
208,216,44267,1,0,3:0:0:0:
356,168,44498,1,0,3:0:0:0:
172,132,44728,1,8,0:0:0:0:
300,44,44959,6,0,P|296:80|288:120,1,60.0000022888184,4|0,0:0|0:0,0:0:0:0:
92,172,45421,2,0,P|86:142|83:112,1,60.0000022888184,0|0,1:0|0:0,0:0:0:0:
356,168,45882,2,0,P|352:204|344:244,1,60.0000022888184,0|0,1:0|0:0,0:0:0:0:
308,296,46344,1,0,1:0:0:0:
432,208,46575,1,0,0:0:0:0:
340,88,46805,1,0,1:0:0:0:
356,168,47036,1,0,0:0:0:0:
280,200,47267,6,0,P|220:204|168:168,1,120.000004577637,0|0,1:0|1:0,0:0:0:0:
136,100,47959,1,0,0:0:0:0:
176,32,48190,2,0,P|236:28|288:68,1,120.000004577637,0|2,1:0|0:0,0:0:0:0:
456,188,49113,85,2,0:0:0:0:
456,188,49344,2,0,P|424:180|392:176,1,60.0000022888184,0|2,0:0|0:0,0:0:0:0:
390,256,49805,2,0,P|361:260|332:268,1,60.0000022888184,0|2,0:0|0:0,0:0:0:0:
264,312,50267,1,0,0:0:0:0:
192,276,50498,5,2,0:0:0:0:
192,276,50959,2,0,P|184:256|176:224,2,40.000001525879,2|2|2,0:0|0:0|0:0,0:0:0:0:
276,284,51421,1,2,0:0:0:0:
200,140,51652,1,0,0:0:0:0:
112,276,51882,1,0,1:0:0:0:
256,204,52113,1,0,0:0:0:0:
80,204,52344,22,0,P|56:128|88:52,1,160,12|0,0:0|1:0,0:0:0:0:
152,12,53036,1,2,0:0:0:0:
228,44,53267,2,0,P|268:44|308:24,1,80,8|0,0:0|0:0,0:0:0:0:
448,56,53728,2,0,P|408:56|368:76,1,80,0|2,1:0|0:0,0:0:0:0:
248,156,54190,6,0,P|288:156|328:136,1,80,8|0,0:0|0:0,0:0:0:0:
468,172,54652,1,0,1:0:0:0:
388,204,54882,2,0,P|360:228|340:272,1,80,2|8,0:0|0:0,0:0:0:0:
328,348,55344,1,2,0:0:0:0:
404,320,55575,1,0,1:0:0:0:
276,216,55805,1,2,0:0:0:0:
276,216,55921,1,0,0:0:0:0:
276,216,56036,6,0,P|236:216|164:264,1,120,4|0,0:0|0:0,0:0:0:0:
148,292,56498,1,0,1:0:0:0:
76,252,56728,2,0,P|64:212|40:164,1,80,2|8,0:0|0:0,0:0:0:0:
4,108,57190,1,2,0:0:0:0:
140,188,57421,1,0,1:0:0:0:
76,252,57652,1,2,0:0:0:0:
104,108,57882,6,0,P|144:100|192:116,1,80,4|0,0:0|1:0,0:0:0:0:
284,244,58344,2,0,P|244:252|196:236,1,80,8|8,0:1|0:3,0:0:0:0:
264,112,58805,1,8,0:0:0:0:
304,44,59036,1,8,0:1:0:0:
380,20,59267,1,0,1:0:0:0:
460,32,59498,1,0,0:0:0:0:
512,92,59728,6,0,P|516:132|504:176,1,80,12|0,0:0|0:0,0:0:0:0:
464,240,60190,1,0,1:0:0:0:
320,168,60421,1,2,0:0:0:0:
276,236,60652,2,0,P|272:276|284:320,1,80,8|0,0:0|0:0,0:0:0:0:
240,164,61113,2,0,P|214:132|174:110,1,80,0|2,1:0|0:0,0:0:0:0:
52,184,61575,54,0,P|92:188|132:168,1,80,8|2,0:0|0:0,0:0:0:0:
180,112,62036,1,0,1:0:0:0:
88,20,62267,2,0,P|84:60|104:100,1,80,10|0,0:0|0:0,0:0:0:0:
180,112,62728,1,2,0:0:0:0:
246,64,62959,1,0,1:0:0:0:
324,108,63190,1,2,0:0:0:0:
324,108,63305,1,0,0:0:0:0:
324,108,63421,6,0,P|376:128|444:112,1,120,12|0,0:0|0:0,0:0:0:0:
472,92,63882,1,0,1:0:0:0:
372,220,64113,1,2,0:0:0:0:
296,188,64344,2,0,P|256:192|220:208,1,80,8|2,0:0|0:0,0:0:0:0:
160,264,64805,1,0,1:0:0:0:
88,228,65036,1,2,0:0:0:0:
116,152,65267,53,2,0:0:0:0:
124,136,65382,1,0,0:0:0:0:
256,64,65613,1,2,0:0:0:0:
248,80,65728,1,0,0:0:0:0:
120,36,65959,1,2,0:0:0:0:
200,172,66190,1,2,0:0:0:0:
332,108,66421,6,0,L|432:100,1,80,4|0,1:0|0:0,0:0:0:0:
496,96,66882,1,0,0:0:0:0:
376,216,67113,22,0,P|300:208|236:268,1,160,12|0,0:0|1:0,0:0:0:0:
212,336,67805,1,2,0:0:0:0:
132,328,68036,2,0,P|104:296|96:252,1,80,8|0,0:0|0:0,0:0:0:0:
104,124,68498,2,0,P|132:156|140:200,1,80,0|2,1:0|0:0,0:0:0:0:
16,248,68959,6,0,P|18:205|44:168,1,80,8|2,0:0|0:0,0:0:0:0:
104,124,69421,1,0,1:0:0:0:
184,124,69652,2,0,P|220:112|252:84,1,80,2|8,0:0|0:0,0:0:0:0:
280,8,70113,1,2,0:0:0:0:
332,72,70344,1,0,1:0:0:0:
196,20,70575,1,2,0:0:0:0:
196,20,70690,1,0,0:0:0:0:
196,20,70805,6,0,P|152:16|108:28,1,80,4|2,0:0|0:0,0:0:0:0:
44,60,71267,1,0,1:0:0:0:
12,136,71498,1,0,0:0:0:0:
48,208,71728,2,0,P|84:224|128:216,1,80,8|2,0:0|0:0,0:0:0:0:
244,144,72190,2,0,P|208:128|164:136,1,80,0|2,1:0|0:0,0:0:0:0:
192,284,72652,5,4,0:0:0:0:
264,248,72882,1,2,0:0:0:0:
264,248,72998,1,0,0:0:0:0:
264,248,73113,2,0,L|352:240,1,80,0|8,1:0|0:1,0:0:0:0:
428,232,73575,1,8,0:3:0:0:
380,164,73805,1,0,1:0:0:0:
312,324,74036,1,0,1:0:0:0:
244,368,74267,1,2,0:0:0:0:
244,368,74382,1,0,0:0:0:0:
244,368,74498,6,0,P|168:376|116:316,1,160,12|0,0:0|1:0,0:0:0:0:
112,236,75190,1,2,0:0:0:0:
160,168,75421,2,0,P|200:164|244:184,1,80,8|2,0:0|0:0,0:0:0:0:
312,316,75882,2,0,P|280:290|263:245,1,80,0|2,1:0|0:0,0:0:0:0:
392,104,76344,54,0,P|400:160|372:224,1,120,8|0,0:0|0:0,0:0:0:0:
348,244,76805,1,0,1:0:0:0:
484,176,77036,1,2,0:0:0:0:
392,104,77267,2,0,P|356:88|304:88,1,80,8|0,0:0|0:0,0:0:0:0:
239,116,77728,2,0,P|200:128|147:124,1,80,0|0,1:0|0:0,0:0:0:0:
87,91,78190,69,4,0:0:0:0:
172,276,78652,1,2,0:0:0:0:
252,256,78882,1,0,0:0:0:0:
192,196,79113,6,0,P|188:156|212:112,1,80,0|0,1:0|0:0,0:0:0:0:
232,88,79459,2,0,P|268:70|317:78,1,80,8|0,0:3|0:0,0:0:0:0:
348,88,79805,1,0,1:0:0:0:
448,168,80036,5,12,0:0:0:0:
292,280,80498,1,2,0:0:0:0:
232,336,80728,1,8,0:0:0:0:
156,312,80959,2,0,P|136:280|132:228,1,80,0|0,1:0|0:0,0:0:0:0:
264,120,81421,2,0,P|284:152|288:204,1,80
48,292,81882,86,0,P|40:212|96:148,1,160,4|2,0:0|0:0,0:0:0:0:
424,152,82805,2,0,P|472:214|464:292,1,160,4|2,0:0|0:0,0:0:0:0:
348,344,83498,1,0,0:0:0:0:
256,192,83728,5,4,0:0:0:0:
464,44,84190,1,2,0:0:0:0:
404,100,84421,1,8,0:0:0:0:
336,56,84652,2,0,P|293:53|256:68,1,80,2|0,0:0|0:0,0:0:0:0:
224,88,84998,1,0,0:0:0:0:
224,88,85113,1,2,0:0:0:0:
84,48,85344,1,8,0:0:0:0:
36,112,85575,1,2,0:0:0:0:
136,320,86036,5,2,0:0:0:0:
192,260,86267,1,8,0:0:0:0:
268,292,86498,2,0,P|304:308|352:300,1,80,2|0,0:0|0:0,0:0:0:0:
380,284,86844,1,0,0:0:0:0:
380,284,86959,1,2,0:0:0:0:
260,208,87190,1,8,0:0:0:0:
292,132,87421,85,2,0:0:0:0:
256,36,87882,5,2,0:0:0:0:
256,292,88344,5,2,0:0:0:0:
