osu file format v14

[General]
AudioFilename: juvenile.ogg
AudioLeadIn: 0
PreviewTime: 174670
Countdown: 0
SampleSet: Soft
StackLeniency: 0.4
Mode: 0
LetterboxInBreaks: 0
WidescreenStoryboard: 1

[Editor]
Bookmarks: 11501,22664,33827,44990,56152,61734,72897,84059,95222,106385,117548,131501,142664,153827,164990,176152,187315,198478,209641,215222,226385,237548
DistanceSpacing: 0.8
BeatDivisor: 4
GridSize: 16
TimelineZoom: 1.7

[Metadata]
Title:Juvenile
TitleUnicode:ジュブナイル
Artist:ReoNa
ArtistUnicode:ReoNa
Creator:-Eresh
Version:Rem's Insane
Source:月姫 -A piece of blue glass moon-
Tags:レオナ typemoon type-moon 月姫リメイク tsukihime remake tsukire ciel シエル theme song ost original soundtracks intro op 2 op2 opening pv full size version video games visual novel japanese pop jpop j-pop rock jrock j-rock near side Milcaf -_Rem_- FukutoTojido [Boy]DaLat Try-Z TryZ
BeatmapID:3381413
BeatmapSetID:1565832

[Difficulty]
HPDrainRate:5
CircleSize:3.8
OverallDifficulty:7.8
ApproachRate:8.8
SliderMultiplier:1.4
SliderTickRate:1

[Events]
//Background and Video events
0,0,"FAc4cL2VIAIUXQO.jpg",0,0
//Break Periods
2,22864,31454
2,131701,133663
2,134492,136279
2,137283,139070
2,164990,169942
//Storyboard Layer 0 (Background)
//Storyboard Layer 1 (Fail)
//Storyboard Layer 2 (Pass)
//Storyboard Layer 3 (Foreground)
//Storyboard Layer 4 (Overlay)
//Storyboard Sound Samples

[TimingPoints]
339,348.837209302326,4,2,1,30,1,0
2432,-125,4,2,1,30,0,0
5920,-100,4,2,1,50,0,0
11501,-100,4,2,1,70,0,0
21269,-100,4,2,2,70,0,0
22664,-100,4,2,1,70,0,0
23013,-100,4,2,2,50,0,0
32083,-100,4,2,1,60,0,0
39408,-100,4,2,1,65,0,0
44990,-111.111111111111,4,2,2,70,0,0
52664,-111.111111111111,4,2,1,70,0,0
53362,-100,4,2,1,70,0,0
56152,-200,4,2,1,65,0,0
57548,-125,4,2,1,65,0,0
58943,-200,4,2,1,60,0,0
59466,-200,4,2,2,50,0,0
61385,-200,4,2,1,50,0,0
61734,-90.9090909090909,4,2,1,85,0,0
78478,-90.9090909090909,4,2,1,80,0,0
83711,-200,4,2,1,80,0,0
84059,-100,4,2,1,70,0,0
95222,-100,4,2,1,60,0,0
100804,-100,4,2,1,65,0,0
106385,-111.111111111111,4,2,2,70,0,0
116501,-111.111111111111,4,2,1,65,0,0
117548,-100,4,2,1,70,0,0
123129,-100,4,2,1,65,0,0
125584,-125,4,2,1,65,0,0
125920,-142.857142857143,4,2,1,65,0,0
128711,-200,4,2,1,60,0,0
130804,-111.111111111111,4,2,1,60,0,0
131501,-111.111111111111,4,2,1,55,0,0
137083,-111.111111111111,4,2,1,60,0,0
139873,-111.111111111111,4,2,1,65,0,0
142664,-100,4,2,1,85,0,0
153827,-100,4,2,1,80,0,0
159408,-100,4,2,1,75,0,0
162199,-125,4,2,1,75,0,0
162897,-166.666666666667,4,2,1,75,0,0
164815,-166.666666666667,4,2,2,75,0,0
170571,-166.666666666667,4,2,1,55,0,0
170920,-166.666666666667,4,2,2,40,0,0
171792,-166.666666666667,4,2,1,55,0,0
172315,-166.666666666667,4,2,2,40,0,0
173362,-200,4,2,1,55,0,0
173711,-200,4,2,2,40,0,0
174059,-166.666666666667,4,2,2,40,0,0
174583,-166.666666666667,4,2,1,55,0,0
176152,-100,4,2,1,65,0,0
181734,-100,4,2,1,60,0,0
183129,-100,4,2,1,65,0,0
184525,-100,4,2,1,70,0,0
186966,-200,4,2,1,70,0,0
187315,-90.9090909090909,4,2,1,90,0,0
198827,-90.9090909090909,4,2,1,85,0,0
204059,-90.9090909090909,4,2,1,80,0,0
209641,-90.9090909090909,4,2,1,70,0,0
212432,-90.9090909090909,4,2,1,75,0,0
214873,-200,4,2,1,75,0,0
215222,-100,4,2,1,85,0,0
226385,-83.3333333333333,4,2,1,80,0,0
231966,-100,4,2,1,75,0,0
234408,-200,4,2,1,75,0,0
234757,-100,4,2,1,75,0,0
235804,-250,4,2,1,75,0,0
236676,-250,4,2,2,75,0,0
237548,-125,4,2,1,60,0,0
240339,-125,4,2,1,55,0,0
243129,-125,4,2,1,50,0,0
245920,-125,4,2,1,45,0,0
246792,387.096774193548,4,2,1,45,1,0
246985,368.098159509202,4,2,1,45,1,0
247354,508.474576271186,4,2,1,40,1,0
247608,451.127819548872,4,2,1,40,1,0
248059,508.474576271186,4,2,1,40,1,0
248313,631.578947368421,4,2,1,40,1,0
248628,749.999999999999,4,2,1,40,1,0
249003,967.741935483869,4,2,1,40,1,0
249486,1250,4,2,1,40,1,0
250736,1153.84615384615,4,2,1,30,1,0
251024,810.810810810811,4,2,1,30,1,0
251632,731.707317073171,4,2,1,30,1,0

[Colours]
Combo1 : 191,191,191
Combo2 : 0,102,255
Combo3 : 253,163,96
Combo4 : 11,44,174

[HitObjects]
42,89,339,5,2,0:3:0:0:
57,81,513,1,0,0:0:0:0:
74,78,687,1,0,0:0:0:0:
91,81,862,1,2,0:3:0:0:
91,81,1211,5,0,0:0:0:0:
134,168,1385,1,2,0:3:0:0:
134,168,1734,5,0,0:0:0:0:
91,255,1908,1,2,0:3:0:0:
91,255,2257,5,0,0:0:0:0:
134,342,2432,2,0,P|160:337|192:332,1,56,2|0,0:3|0:0,0:0:0:0:
259,248,2780,2,0,P|232:243|200:238,1,56,2|0,0:3|0:0,0:0:0:0:
335,312,3129,5,2,0:3:0:0:
349,302,3304,1,0,0:0:0:0:
356,286,3478,1,0,0:0:0:0:
356,268,3652,1,2,0:3:0:0:
356,268,4001,5,0,0:0:0:0:
399,182,4176,1,2,0:3:0:0:
399,182,4525,5,0,0:0:0:0:
356,96,4700,1,2,0:3:0:0:
356,96,5048,5,0,0:0:0:0:
399,10,5222,2,0,P|429:15|467:22,1,56,2|0,0:3|0:0,0:0:0:0:
341,105,5571,2,0,P|310:110|272:117,1,56,2|0,0:3|0:0,0:0:0:0:
151,26,5920,6,0,P|144:62|137:104,1,70,4|0,1:2|1:2,0:0:0:0:
47,163,6269,2,0,P|53:199|60:241,1,70,0|0,0:0|1:2,0:0:0:0:
134,334,6618,2,0,P|174:341|202:326,1,70,10|0,0:0|1:2,0:0:0:0:
286,191,6966,2,0,P|246:184|218:199,1,70,0|0,0:0|1:2,0:0:0:0:
195,233,7228,1,0,1:2:0:0:
195,233,7315,6,0,P|201:198|208:159,1,70,0|8,1:2|0:0,0:0:0:0:
276,33,7664,2,0,P|281:67|288:101,1,70,0|0,0:0|1:2,0:0:0:0:
371,213,8013,2,0,P|408:219|442:193,1,70,10|0,0:0|1:2,0:0:0:0:
512,89,8362,2,0,P|475:83|441:109,1,70,0|0,1:2|0:0,0:0:0:0:
358,235,8711,6,0,P|423:212|505:211,1,140,4|0,1:2|0:0,0:0:0:0:
371,129,9234,1,0,1:2:0:0:
371,129,9321,1,0,1:2:0:0:
371,129,9408,1,10,0:0:0:0:
492,285,9583,1,0,1:2:0:0:
338,383,9757,1,8,0:0:0:0:
314,357,9844,1,0,1:2:0:0:
309,321,9932,1,0,1:2:0:0:
324,289,10019,1,0,1:2:0:0:
355,274,10106,6,0,L|409:283,3,35,8|8|8|8,0:3|0:3|0:3|0:3,0:0:0:0:
277,208,10455,6,0,P|228:217|161:228,1,105,12|0,0:0|0:0,0:0:0:0:
135,206,10804,2,0,P|121:172|133:137,1,70
223,56,11152,2,0,P|236:87|228:120,1,70
50,281,11501,5,4,1:2:0:0:
146,222,11676,1,0,1:2:0:0:
239,274,11850,1,0,1:2:0:0:
306,161,12025,6,0,P|272:166|233:173,1,70,10|0,0:1|1:2,0:0:0:0:
167,118,12373,1,0,1:2:0:0:
320,246,12548,6,0,P|354:251|393:258,1,70,8|0,0:0|1:2,0:0:0:0:
465,219,12897,1,0,1:2:0:0:
381,88,13071,6,0,P|387:122|392:157,1,70,10|0,0:1|1:2,0:0:0:0:
341,234,13420,1,0,1:2:0:0:
475,310,13594,2,0,P|440:304|406:299,1,70,8|0,0:0|1:2,0:0:0:0:
296,384,13943,2,0,P|330:378|364:372,1,70,10|0,0:1|1:2,0:0:0:0:
92,191,14292,5,12,0:2:0:0:
48,289,14466,1,0,1:2:0:0:
101,384,14641,1,0,1:2:0:0:
199,282,14815,6,0,P|168:265|134:269,1,70,10|0,0:1|1:2,0:0:0:0:
215,368,15164,1,0,1:2:0:0:
266,226,15339,6,0,P|265:191|244:164,1,70,8|0,0:0|1:2,0:0:0:0:
199,282,15688,1,0,1:2:0:0:
348,257,15862,6,0,P|377:239|390:207,1,70,10|0,0:1|1:2,0:0:0:0:
266,226,16211,1,0,1:2:0:0:
318,356,16385,6,0,L|390:368,1,70,10|0,0:1|1:2,0:0:0:0:
512,270,16734,2,0,L|439:282,1,70,10|0,0:1|1:2,0:0:0:0:
329,170,17083,5,12,0:2:0:0:
427,110,17257,1,0,1:2:0:0:
512,183,17432,1,0,1:2:0:0:
396,261,17606,6,0,L|409:193,1,70,8|0,0:3|1:2,0:0:0:0:
447,121,17955,1,0,1:2:0:0:
329,170,18129,6,0,L|316:102,1,70,12|0,0:0|1:2,0:0:0:0:
278,30,18478,1,0,1:2:0:0:
97,132,18652,6,0,L|166:142,1,70,8|0,0:3|1:2,0:0:0:0:
234,99,19001,1,0,1:2:0:0:
305,272,19176,5,10,0:1:0:0:
141,224,19350,1,0,1:2:0:0:
141,224,19437,1,0,1:2:0:0:
141,224,19525,1,10,0:1:0:0:
234,339,19699,1,0,1:2:0:0:
318,169,19873,6,0,B|389:144|372:216|459:184,1,140,4|8,1:2|0:0,0:0:0:0:
512,48,20397,2,0,P|466:36|427:108,1,140,4|8,1:2|0:0,0:0:0:0:
512,248,20920,1,4,1:2:0:0:
256,192,21007,12,4,22664,1:2:0:0:
456,361,32083,5,8,0:0:0:0:
336,279,32257,1,0,1:2:0:0:
461,126,32606,5,0,1:2:0:0:
461,126,32693,1,0,1:2:0:0:
461,126,32780,2,0,P|475:157|461:197,1,70,8|0,0:0|1:2,0:0:0:0:
336,279,33129,1,8,0:0:0:0:
374,152,33304,1,0,1:2:0:0:
455,285,33478,1,8,0:0:0:0:
455,285,33565,1,8,0:0:0:0:
455,285,33652,1,8,3:0:0:0:
283,194,33827,6,0,P|214:181|145:169,1,140,4|8,1:2|0:0,0:0:0:0:
145,169,34525,1,0,1:2:0:0:
198,90,34699,1,0,1:2:0:0:
119,58,34873,1,0,1:2:0:0:
119,58,35048,2,0,P|86:64|48:70,1,70,8|0,0:0|0:0,0:0:0:0:
0,148,35397,5,0,1:2:0:0:
54,221,35571,2,0,P|80:246|121:246,1,70,8|0,0:0|1:2,0:0:0:0:
150,217,35833,1,0,1:2:0:0:
150,217,35920,1,0,1:2:0:0:
230,174,36094,1,0,1:2:0:0:
224,259,36269,2,0,P|217:293|213:328,1,70,8|0,0:0|1:2,0:0:0:0:
334,196,36618,6,0,P|403:206|417:270,1,140,0|8,1:2|0:0,0:0:0:0:
418,266,37315,1,0,1:2:0:0:
364,350,37490,1,0,1:2:0:0:
317,267,37664,1,0,1:2:0:0:
317,267,37839,2,0,P|324:232|331:191,1,70,8|0,0:0|0:0,0:0:0:0:
391,146,38187,5,0,1:2:0:0:
340,83,38362,2,0,P|306:75|275:91,1,70,8|0,0:0|0:0,0:0:0:0:
222,178,38711,1,0,1:2:0:0:
159,104,38885,1,0,1:2:0:0:
105,173,39059,2,0,P|98:208|91:246,1,70,8|0,0:0|0:0,0:0:0:0:
44,337,39408,6,0,B|116:314|101:379|179:350,2,140,4|10|2,1:2|0:0|1:2,0:0:0:0:
152,270,40280,1,0,1:2:0:0:
47,175,40455,2,0,P|53:209|60:252,1,70,10|0,0:0|0:0,0:0:0:0:
212,165,40804,5,2,1:2:0:0:
82,88,40978,1,0,1:2:0:0:
196,5,41152,2,0,P|189:39|182:82,1,70,10|0,0:0|0:0,0:0:0:0:
354,202,41501,5,2,1:2:0:0:
262,95,41676,1,0,1:2:0:0:
135,185,41850,2,0,P|169:179|203:172,1,70,10|0,0:0|0:0,0:0:0:0:
360,70,42199,6,0,B|380:110|380:110|349:215,1,140,4|0,1:2|0:0,0:0:0:0:
278,253,42722,1,0,1:2:0:0:
278,253,42897,2,0,P|350:250|384:310,1,140,10|0,0:0|0:0,0:0:0:0:
312,384,43420,1,8,0:0:0:0:
462,344,43594,6,0,L|474:273,1,70,2|8,1:2|0:0,0:0:0:0:
418,180,43943,2,0,L|405:111,1,70,0|0,1:2|1:2,0:0:0:0:
433,73,44205,1,0,1:2:0:0:
433,73,44292,1,10,0:0:0:0:
327,181,44466,1,8,3:0:0:0:
241,64,44641,2,0,P|191:59|158:104,1,105,0|0,3:0|0:0,0:0:0:0:
181,137,44990,6,0,B|191:192|191:192|185:213|185:213|194:266,1,125.999996154785,4|2,1:2|0:0,0:0:0:0:
281,343,45513,1,0,1:2:0:0:
281,343,45687,1,8,0:0:0:0:
281,343,46036,5,2,0:0:0:0:
386,247,46211,1,0,1:2:0:0:
496,352,46385,2,0,P|432:340|359:327,1,125.999996154785,0|0,1:2|0:0,0:0:0:0:
289,249,46908,2,0,L|277:184,1,62.9999980773926,2|8,1:2|0:0,0:0:0:0:
378,66,47257,2,0,L|367:128,1,62.9999980773926,2|0,0:0|0:0,0:0:0:0:
160,155,47606,1,0,0:0:0:0:
160,155,47780,6,0,B|130:139|130:139|222:121,1,125.999996154785,2|2,1:2|0:0,0:0:0:0:
325,156,48304,1,0,1:2:0:0:
325,156,48478,1,8,0:0:0:0:
325,156,48827,5,2,0:0:0:0:
269,40,49001,1,0,1:2:0:0:
223,210,49176,5,0,1:2:0:0:
378,56,49437,5,0,1:2:0:0:
134,9,49699,5,0,1:2:0:0:
0,253,50048,6,0,P|58:263|125:275,1,125.999996154785,2|0,0:0|0:0,0:0:0:0:
328,382,50571,6,0,B|319:334|319:334|306:316|306:316|297:261,1,125.999996154785,2|2,1:2|0:0,0:0:0:0:
348,171,51094,1,0,1:2:0:0:
348,171,51269,1,8,0:0:0:0:
348,171,51618,5,2,0:0:0:0:
437,265,51792,1,0,1:2:0:0:
512,114,51966,2,0,P|450:102|377:90,1,125.999996154785,0|0,1:2|0:0,0:0:0:0:
243,6,52490,2,0,L|255:74,1,62.9999980773926,2|8,1:2|0:0,0:0:0:0:
235,107,52751,1,8,0:0:0:0:
235,107,52839,2,0,L|194:99,1,31.4999990386963,8|0,3:0|3:0,0:0:0:0:
86,197,53013,1,8,0:0:0:0:
99,225,53100,1,8,3:0:0:0:
127,238,53187,1,0,3:0:0:0:
158,238,53275,1,0,1:0:0:0:
187,219,53362,6,0,L|268:204,1,70,12|0,0:2|0:0,0:0:0:0:
145,346,53711,2,0,L|63:331,1,70,10|0,0:0|1:2,0:0:0:0:
250,290,54059,1,10,0:0:0:0:
151,148,54234,1,0,1:2:0:0:
24,270,54408,1,10,0:0:0:0:
221,206,54583,1,0,1:2:0:0:
76,85,54757,6,0,P|69:124|62:158,1,70,10|0,0:0|0:0,0:0:0:0:
234,90,55106,2,0,P|227:55|221:21,1,70,10|8,0:0|0:0,0:0:0:0:
185,0,55368,1,8,0:0:0:0:
185,0,55455,1,10,0:0:0:0:
328,93,55629,1,8,3:0:0:0:
221,206,55804,1,0,3:0:0:0:
276,15,55978,1,0,1:0:0:0:
214,224,56152,6,0,B|350:175|308:319|462:260,1,245,4|0,1:2|0:0,0:0:0:0:
399,109,57548,6,0,B|390:88|359:80|359:80|402:127|394:206,1,168,4|0,1:2|0:0,0:0:0:0:
463,279,58245,1,8,0:0:0:0:
387,347,58420,6,0,P|337:326|348:258,1,112,8|0,3:0|1:0,0:0:0:0:
395,188,58943,6,0,B|223:140|378:56|201:0,1,280,4|0,1:2|0:0,0:0:0:0:
63,328,61385,6,0,L|128:339,1,52.5,2|0,0:3|0:0,0:0:0:0:
153,309,61734,5,4,1:2:0:0:
260,368,61908,1,0,1:2:0:0:
360,292,62083,1,0,1:2:0:0:
253,198,62257,6,0,L|239:273,1,77.0000023498536,10|0,0:1|1:2,0:0:0:0:
159,214,62606,1,0,1:2:0:0:
332,126,62780,2,0,L|345:201,1,77.0000023498536,10|0,0:1|1:2,0:0:0:0:
470,359,63129,5,10,0:1:0:0:
511,259,63304,1,0,1:2:0:0:
461,165,63478,1,0,1:2:0:0:
345,247,63652,6,0,P|331:284|345:326,1,77.0000023498536,10|0,0:1|1:2,0:0:0:0:
419,280,64001,1,0,1:2:0:0:
337,154,64176,2,0,P|297:160|268:193,1,77.0000023498536,10|0,0:1|1:2,0:0:0:0:
83,344,64525,5,12,0:2:0:0:
156,262,64699,1,0,1:2:0:0:
112,164,64873,1,0,1:2:0:0:
209,71,65048,6,0,L|284:84,1,77.0000023498536,10|0,0:1|1:2,0:0:0:0:
367,29,65397,1,0,1:2:0:0:
267,172,65571,2,0,L|342:158,1,77.0000023498536,10|0,0:1|1:2,0:0:0:0:
512,20,65920,5,10,0:1:0:0:
442,105,66094,1,0,1:2:0:0:
475,211,66269,1,0,1:2:0:0:
329,306,66443,6,0,P|314:268|333:228,1,77.0000023498536,10|0,0:1|1:2,0:0:0:0:
392,178,66792,1,0,1:2:0:0:
230,79,66966,2,0,P|215:113|226:149,1,77.0000023498536,10|8,0:1|0:2,0:0:0:0:
267,172,67228,1,8,0:2:0:0:
267,172,67315,5,12,0:2:0:0:
178,245,67490,1,0,1:2:0:0:
73,186,67664,1,0,1:2:0:0:
0,300,67839,6,0,L|79:285,1,77.0000023498536,10|0,0:1|1:2,0:0:0:0:
183,338,68187,1,0,1:2:0:0:
73,186,68362,2,0,L|152:200,1,77.0000023498536,10|0,0:1|1:2,0:0:0:0:
201,57,68711,5,10,0:1:0:0:
98,17,68885,1,0,1:2:0:0:
2,71,69059,1,0,1:2:0:0:
208,144,69234,6,0,P|247:141|275:113,1,77.0000023498536,10|0,0:1|1:2,0:0:0:0:
201,57,69583,1,0,1:2:0:0:
136,193,69757,2,0,P|158:225|196:235,1,77.0000023498536,10|0,0:1|1:2,0:0:0:0:
418,314,70106,5,12,0:2:0:0:
330,268,70280,1,0,1:2:0:0:
244,321,70455,1,0,1:2:0:0:
336,355,70629,5,10,0:1:0:0:
410,232,70804,1,0,1:2:0:0:
348,121,70978,1,0,1:2:0:0:
330,268,71152,5,10,0:1:0:0:
442,146,71327,1,0,1:2:0:0:
242,81,71501,2,0,L|255:157,1,77.0000023498536,12|0,0:2|1:2,0:0:0:0:
122,251,71850,1,0,1:2:0:0:
122,251,71937,1,0,1:0:0:0:
122,251,72025,1,0,1:2:0:0:
170,133,72199,1,8,0:0:0:0:
232,260,72373,1,0,1:2:0:0:
232,260,72461,1,0,1:2:0:0:
232,260,72548,2,0,L|224:305,3,38.5000011749268,8|8|0|0,0:0|3:0|3:0|1:2,0:0:0:0:
268,233,72897,6,0,P|322:220|366:263,1,115.50000352478,4|0,1:2|0:0,0:0:0:0:
349,298,73245,2,0,P|384:283|443:284,1,77.0000023498536,10|0,0:0|0:0,0:0:0:0:
512,181,73594,1,2,1:2:0:0:
412,107,73769,2,0,P|394:142|408:187,1,77.0000023498536,0|2,1:2|0:0,0:0:0:0:
512,5,74118,6,0,P|458:21|391:20,1,115.50000352478,8|0,0:0|0:0,0:0:0:0:
364,0,74466,1,0,1:2:0:0:
308,105,74641,2,0,P|279:125|238:122,1,77.0000023498536,10|0,0:0|0:0,0:0:0:0:
130,0,74990,1,2,1:2:0:0:
232,44,75164,1,0,1:2:0:0:
97,177,75339,2,0,L|82:97,1,77.0000023498536,10|0,0:0|0:0,0:0:0:0:
48,72,75600,1,0,1:0:0:0:
48,72,75687,6,0,L|133:87,1,77.0000023498536,4|0,1:2|0:0,0:0:0:0:
270,187,76036,2,0,P|214:183|181:236,1,115.50000352478,10|0,0:0|0:0,0:0:0:0:
201,264,76385,1,2,1:2:0:0:
121,370,76559,2,0,L|106:290,1,77.0000023498536,0|2,1:2|0:0,0:0:0:0:
0,146,76908,6,0,B|21:186|21:186|133:206,1,154.000004699707,8|0,0:0|1:2,0:0:0:0:
278,99,77432,1,10,0:0:0:0:
201,264,77606,1,0,1:2:0:0:
201,264,77693,1,8,0:0:0:0:
201,264,77780,1,10,0:0:0:0:
360,167,77955,1,8,3:0:0:0:
179,75,78129,2,0,L|192:150,1,77.0000023498536,8|0,3:0|0:0,0:0:0:0:
357,291,78478,6,0,B|456:270|389:215|490:197,1,154.000004699707,4|0,1:2|0:0,0:0:0:0:
443,86,79001,1,0,1:2:0:0:
324,57,79176,2,0,P|346:130|351:206,1,154.000004699707,10|0,0:1|0:0,0:0:0:0:
452,320,79699,1,0,0:0:0:0:
497,227,79873,5,2,1:1:0:0:
357,291,80048,2,0,P|323:283|279:284,1,77.0000023498536,8|0,0:0|0:0,0:0:0:0:
131,200,80397,1,0,1:2:0:0:
223,352,80571,1,10,0:1:0:0:
300,207,80745,1,0,1:2:0:0:
127,309,80920,2,0,L|140:384,1,77.0000023498536,8|0,3:0|0:0,0:0:0:0:
219,151,81269,5,4,1:2:0:0:
219,151,81966,6,0,L|209:207,2,51.3333348999024,8|8|8,0:0|0:0|0:0,0:0:0:0:
285,107,82315,2,0,L|293:56,2,51.3333348999024,8|8|8,3:0|3:0|3:0,0:0:0:0:
330,170,82664,5,4,1:2:0:0:
470,376,83711,6,0,L|481:313,1,52.5,8|0,0:3|0:0,0:0:0:0:
454,288,84059,5,4,1:2:0:0:
380,200,84234,1,0,1:2:0:0:
418,94,84408,1,0,1:2:0:0:
363,289,84583,6,0,L|285:275,1,70,10|0,0:1|1:2,0:0:0:0:
235,215,84932,1,0,1:2:0:0:
262,349,85106,6,0,L|184:363,1,70,10|0,0:1|1:2,0:0:0:0:
120,321,85455,1,0,1:2:0:0:
0,384,85629,6,0,L|14:306,1,70,10|0,0:1|1:2,0:0:0:0:
73,252,85978,1,0,1:2:0:0:
8,133,86152,2,0,P|-6:164|10:205,1,70,10|0,0:1|1:2,0:0:0:0:
141,206,86501,2,0,P|121:178|78:172,1,70,10|0,0:1|1:2,0:0:0:0:
198,274,86850,5,12,0:2:0:0:
262,173,87025,1,0,1:2:0:0:
196,73,87199,1,0,1:2:0:0:
286,257,87373,6,0,L|356:245,1,70,10|0,0:1|1:2,0:0:0:0:
407,182,87722,1,0,1:2:0:0:
512,80,87897,6,0,L|442:68,1,70,10|0,0:1|1:2,0:0:0:0:
391,5,88246,1,0,1:2:0:0:
292,126,88420,6,0,L|280:56,1,70,10|0,0:1|1:2,0:0:0:0:
202,0,88769,1,0,1:2:0:0:
142,107,88943,2,0,P|179:112|211:91,1,70,10|0,0:1|1:2,0:0:0:0:
356,136,89292,2,0,P|326:120|292:126,1,70,10|0,0:1|1:2,0:0:0:0:
126,236,89641,5,12,0:2:0:0:
234,285,89815,1,0,1:2:0:0:
322,208,89990,1,0,1:2:0:0:
216,137,90164,6,0,L|204:206,1,70,8|0,0:3|1:2,0:0:0:0:
234,285,90513,1,0,1:2:0:0:
110,367,90687,6,0,L|179:355,1,70,12|0,0:0|1:2,0:0:0:0:
258,384,91036,1,0,1:2:0:0:
462,301,91211,6,0,L|393:289,1,70,8|0,0:3|1:2,0:0:0:0:
314,318,91560,1,0,1:2:0:0:
434,211,91734,5,10,0:1:0:0:
295,142,91908,1,0,1:2:0:0:
295,142,91995,1,0,1:2:0:0:
295,142,92083,1,10,0:1:0:0:
393,289,92257,1,0,1:2:0:0:
510,135,92432,6,0,L|352:107,1,140,4|8,1:2|0:0,0:0:0:0:
218,18,92955,2,0,P|276:33|284:108,1,140,4|0,1:2|1:0,0:0:0:0:
157,225,93478,2,0,B|141:150|221:178|192:71,1,140,12|0,0:2|0:0,0:0:0:0:
120,0,94001,1,0,1:0:0:0:
44,87,94176,2,0,P|81:89|116:105,1,70,8|0,0:0|0:0,0:0:0:0:
247,224,94525,5,0,1:0:0:0:
95,315,94699,1,0,1:0:0:0:
95,315,94786,1,0,1:0:0:0:
95,315,94873,2,0,L|87:271,3,35,8|8|8|0,0:0|0:0|3:0|3:0,0:0:0:0:
129,347,95222,6,0,L|268:371,1,140,4|8,1:2|0:0,0:0:0:0:
266,370,95920,1,0,1:2:0:0:
345,310,96094,1,0,1:2:0:0:
286,245,96269,1,0,0:0:0:0:
286,245,96443,2,0,L|209:258,1,70,8|0,0:0|0:0,0:0:0:0:
132,204,96792,5,0,1:2:0:0:
186,127,96966,2,0,P|197:89|183:56,1,70,8|0,0:0|1:2,0:0:0:0:
151,39,97228,1,0,1:2:0:0:
151,39,97315,1,0,1:2:0:0:
242,0,97490,1,0,1:2:0:0:
328,43,97664,2,0,P|333:75|339:113,1,70,8|0,0:0|1:2,0:0:0:0:
512,175,98013,6,0,B|437:151|460:232|354:191,1,140,0|8,1:2|0:0,0:0:0:0:
380,199,98623,1,0,1:2:0:0:
380,199,98711,1,0,1:2:0:0:
304,251,98885,1,0,1:2:0:0:
373,348,99059,1,0,0:0:0:0:
373,348,99234,2,0,P|386:310|368:269,1,70,8|0,0:0|0:0,0:0:0:0:
295,168,99583,5,0,1:2:0:0:
235,263,99757,2,0,L|307:250,1,70,8|0,0:0|1:2,0:0:0:0:
380,199,100106,1,0,1:2:0:0:
455,248,100280,1,0,1:2:0:0:
512,174,100455,2,0,L|500:103,1,70,8|8,0:0|0:0,0:0:0:0:
465,77,100716,1,8,0:0:0:0:
465,77,100804,6,0,P|396:61|346:124,2,140,4|10|2,1:2|0:0|1:2,0:0:0:0:
512,174,101676,1,0,1:2:0:0:
430,242,101850,2,0,P|394:251|351:227,1,70,10|0,0:0|0:0,0:0:0:0:
258,71,102199,5,2,1:2:0:0:
404,166,102373,1,0,1:2:0:0:
269,278,102548,2,0,L|255:209,1,70,10|0,0:0|0:0,0:0:0:0:
84,111,102897,5,2,1:2:0:0:
163,233,103071,1,0,1:2:0:0:
271,115,103245,2,0,L|202:102,1,70,10|0,0:0|0:0,0:0:0:0:
1,43,103594,5,4,1:2:0:0:
151,0,103769,1,0,1:2:0:0:
176,141,103943,1,10,0:0:0:0:
15,182,104118,2,0,L|84:195,1,70,0|2,0:0|1:2,0:0:0:0:
241,289,104466,5,0,1:2:0:0:
84,355,104641,1,12,0:0:0:0:
163,229,104815,1,0,0:0:0:0:
261,376,104990,5,2,1:2:0:0:
327,248,105164,1,8,0:0:0:0:
413,362,105339,2,0,P|447:357|482:353,1,70,8|0,0:0|1:2,0:0:0:0:
512,324,105600,1,0,1:2:0:0:
512,324,105687,1,8,0:0:0:0:
453,221,105862,1,8,3:0:0:0:
503,114,106036,1,0,3:0:0:0:
503,114,106385,6,0,B|448:104|448:104|442:98|442:98|367:85,1,125.999996154785,4|2,1:2|0:0,0:0:0:0:
281,113,106908,1,0,1:2:0:0:
281,113,107083,1,8,0:0:0:0:
281,113,107432,1,2,0:0:0:0:
201,24,107606,1,0,1:2:0:0:
128,119,107780,6,0,L|154:268,1,125.999996154785,0|0,1:2|0:0,0:0:0:0:
219,324,108304,2,0,L|293:337,1,62.9999980773926,2|8,1:2|0:0,0:0:0:0:
400,226,108652,2,0,L|331:238,1,62.9999980773926,2|0,0:0|0:0,0:0:0:0:
220,122,109001,1,0,0:0:0:0:
220,122,109176,6,0,B|244:98|244:98|348:117,1,125.999996154785,2|2,1:2|0:0,0:0:0:0:
445,136,109699,1,0,1:2:0:0:
445,136,109873,1,8,0:0:0:0:
445,136,110222,5,2,0:0:0:0:
392,242,110397,1,0,1:2:0:0:
491,369,110571,5,0,1:2:0:0:
357,140,110833,5,0,1:2:0:0:
195,345,111094,5,0,1:2:0:0:
40,129,111443,6,0,L|185:104,1,125.999996154785,2|0,0:0|0:0,0:0:0:0:
345,9,111966,6,0,B|331:59|331:59|340:91|340:91|327:148,1,125.999996154785,2|2,1:2|0:0,0:0:0:0:
260,208,112490,1,0,1:2:0:0:
260,208,112664,1,8,0:0:0:0:
260,208,113013,5,2,0:0:0:0:
143,136,113187,1,0,1:2:0:0:
59,260,113362,2,0,B|121:268|121:268|122:272|122:272|195:282,1,125.999996154785,0|0,1:2|0:0,0:0:0:0:
260,208,113885,2,0,L|328:195,1,62.9999980773926,2|8,1:2|0:0,0:0:0:0:
447,150,114234,6,0,L|420:299,1,125.999996154785,2|0,0:0|0:0,0:0:0:0:
363,356,114757,6,0,B|329:339|300:354|300:354|330:339|333:292,1,125.999996154785,2|2,1:2|0:0,0:0:0:0:
234,197,115280,1,0,1:2:0:0:
129,265,115455,2,0,L|259:288,1,125.999996154785,8|2,0:0|0:0,0:0:0:0:
355,238,115978,1,0,1:2:0:0:
355,238,116152,6,0,B|377:198|377:198|352:104,1,125.999996154785,0|8,1:2|0:0,0:0:0:0:
255,24,116676,1,0,1:2:0:0:
159,131,116850,1,8,0:0:0:0:
174,144,117025,1,8,3:0:0:0:
194,147,117199,1,0,3:0:0:0:
214,142,117373,1,0,1:0:0:0:
233,138,117548,6,0,B|153:118|190:190|86:155,1,140,4|2,1:2|0:0,0:0:0:0:
11,93,118071,1,0,1:2:0:0:
41,239,118245,2,0,P|108:244|177:270,1,140,8|2,0:0|0:0,0:0:0:0:
284,342,118769,1,0,1:2:0:0:
367,270,118943,6,0,P|380:236|369:201,1,70,0|8,1:2|0:0,0:0:0:0:
233,138,119292,2,0,P|255:166|291:174,1,70,2|0,0:0|1:2,0:0:0:0:
414,87,119641,2,0,P|378:92|353:119,1,70,8|0,0:0|1:2,0:0:0:0:
468,207,119990,1,2,0:0:0:0:
468,207,120164,1,0,0:0:0:0:
367,270,120339,6,0,P|301:247|226:241,1,140,4|2,1:2|0:0,0:0:0:0:
148,159,120862,1,0,1:2:0:0:
178,49,121036,2,0,P|231:72|230:154,1,140,8|2,0:0|0:0,0:0:0:0:
144,248,121559,1,0,1:2:0:0:
30,99,121734,5,0,1:2:0:0:
105,351,121995,5,0,1:2:0:0:
255,138,122257,5,0,1:2:0:0:
399,378,122606,5,8,3:0:0:0:
399,378,122780,2,0,L|485:362,1,70,0|0,3:0|0:0,0:0:0:0:
512,192,123129,6,0,B|437:169|461:236|374:206,1,140,4|0,1:2|1:2,0:0:0:0:
255,138,123652,1,0,1:2:0:0:
402,101,123827,1,0,1:2:0:0:
349,181,124001,5,0,1:2:0:0:
233,48,124176,1,0,1:2:0:0:
168,186,124350,1,0,1:2:0:0:
319,82,124525,1,8,0:0:0:0:
144,59,124699,1,8,0:0:0:0:
309,1,124873,1,8,0:0:0:0:
255,138,125048,1,8,0:0:0:0:
129,44,125222,1,8,0:0:0:0:
94,41,125309,1,8,3:0:0:0:
63,58,125397,1,0,3:0:0:0:
49,90,125484,1,0,1:0:0:0:
57,123,125571,6,0,P|73:166|77:232,1,105,0|0,3:0|3:0,0:0:0:0:
106,260,125920,6,0,P|125:178|172:113,1,146.999995513916,4|0,1:2|1:2,0:0:0:0:
121,20,126618,2,0,P|147:34|186:29,1,48.9999985046387,10|0,0:1|1:2,0:0:0:0:
239,82,126966,2,0,P|260:71|274:51,1,48.9999985046387,0|0,1:0|1:2,0:0:0:0:
438,0,127315,5,10,0:1:0:0:
360,132,127490,1,0,1:2:0:0:
509,77,127664,5,10,0:1:0:0:
316,32,127839,1,8,0:0:0:0:
316,32,127926,1,8,0:0:0:0:
316,32,128013,1,8,0:0:0:0:
456,162,128187,1,8,3:0:0:0:
247,200,128362,1,0,3:0:0:0:
424,78,128536,1,0,1:0:0:0:
230,192,128711,6,0,B|212:173|179:170|179:170|233:149|280:176|264:242|327:255|379:233,1,280,4|4,1:2|1:2,0:0:0:0:
375,234,130804,6,0,B|319:255|260:239|282:173|234:129|168:178|168:178,1,220.499993270874,8|0,3:0|0:0,0:0:0:0:
154,207,131501,5,4,1:2:0:0:
154,207,134292,5,0,1:3:0:0:
154,207,136908,5,0,1:2:0:0:
269,138,137083,1,0,1:2:0:0:
154,207,139699,5,0,1:2:0:0:
269,138,139874,1,0,1:2:0:0:
269,138,140571,1,0,1:2:0:0:
269,138,141269,1,0,1:2:0:0:
269,138,141618,6,0,L|281:209,1,62.9999980773926,2|0,0:3|0:0,0:0:0:0:
221,266,141966,6,0,B|144:254|185:208|102:203,1,125.999996154785,2|12,0:3|0:0,0:0:0:0:
28,263,142490,5,8,0:0:0:0:
28,263,142577,1,8,0:0:0:0:
28,263,142664,2,0,P|52:287|86:287,2,70,4|0|0,1:2|1:2|1:2,0:0:0:0:
105,380,143187,2,0,P|138:371|155:341,2,70,10|0|0,0:1|1:2|1:2,0:0:0:0:
241,318,143711,1,10,0:1:0:0:
204,228,143885,1,0,1:2:0:0:
255,145,144059,1,0,1:2:0:0:
345,238,144234,6,0,L|434:250,1,70,10|0,0:1|1:2,0:0:0:0:
494,260,144583,1,0,1:2:0:0:
429,157,144757,2,0,L|519:141,1,70,10|0,0:1|1:2,0:0:0:0:
373,74,145106,2,0,L|304:62,1,70,10|0,0:1|1:2,0:0:0:0:
156,33,145455,6,0,P|143:66|156:102,2,70,12|0|0,0:2|1:2|1:2,0:0:0:0:
229,132,145978,2,0,P|242:165|229:201,2,70,10|0|0,0:1|1:2|1:2,0:0:0:0:
161,241,146501,1,10,0:1:0:0:
244,282,146676,1,0,1:2:0:0:
327,237,146850,1,0,1:2:0:0:
431,354,147025,6,0,L|443:285,1,70,10|0,0:1|1:2,0:0:0:0:
483,218,147373,1,0,1:2:0:0:
369,132,147548,2,0,L|300:144,1,70,12|0,0:0|1:2,0:0:0:0:
244,282,147897,2,0,L|312:269,1,70,10|0,0:1|1:2,0:0:0:0:
154,184,148245,6,0,L|141:252,2,70,12|0|0,0:2|1:2|1:2,0:0:0:0:
39,124,148769,2,0,L|51:192,2,70,8|0|0,0:3|1:2|1:2,0:0:0:0:
94,55,149292,1,12,0:0:0:0:
173,94,149466,1,0,1:2:0:0:
272,32,149641,6,0,L|388:10,1,105,0|0,1:2|0:0,0:0:0:0:
421,38,149990,1,0,1:2:0:0:
421,38,150164,1,0,1:2:0:0:
269,160,150339,6,0,L|385:138,1,105,10|0,0:1|0:0,0:0:0:0:
418,166,150688,1,10,0:1:0:0:
418,166,150862,1,0,1:2:0:0:
233,309,151036,6,0,L|302:296,2,70,12|0|0,0:2|1:2|1:2,0:0:0:0:
137,208,151559,2,0,L|206:221,2,70,8|0|0,0:3|1:2|1:2,0:0:0:0:
172,369,152083,2,0,P|109:372|76:302,1,140,12|0,0:0|1:2,0:0:0:0:
0,234,152606,2,0,L|137:209,1,140,8|0,0:3|1:2,0:0:0:0:
210,139,153129,2,0,L|285:152,1,70,10|0,0:1|1:2,0:0:0:0:
400,121,153478,1,8,0:0:0:0:
429,101,153565,1,8,0:0:0:0:
441,68,153652,1,0,3:0:0:0:
433,33,153740,1,0,1:2:0:0:
410,6,153827,6,0,P|348:3|314:65,2,140,4|10|2,1:2|0:0|1:2,0:0:0:0:
512,108,154699,2,0,L|429:93,1,70,0|2,1:2|0:0,0:0:0:0:
336,150,155048,2,0,L|350:232,1,70,8|2,0:0|0:0,0:0:0:0:
305,335,155397,1,0,1:2:0:0:
434,226,155571,2,0,L|419:308,1,70,10|0,0:0|0:0,0:0:0:0:
291,347,155920,2,0,P|254:346|225:316,1,70,2|0,1:2|1:2,0:0:0:0:
85,289,156269,2,0,P|122:288|151:258,1,70,10|0,0:1|0:0,0:0:0:0:
194,129,156618,6,0,B|120:104|135:174|53:139,2,140,4|10|2,1:2|0:0|1:2,0:0:0:0:
300,52,157490,2,0,L|284:139,1,70,0|2,1:2|0:0,0:0:0:0:
176,218,157839,2,0,L|244:205,1,70,8|2,0:0|0:0,0:0:0:0:
355,253,158187,1,0,1:2:0:0:
270,129,158362,2,0,L|338:141,1,70,10|0,0:0|0:0,0:0:0:0:
410,61,158711,2,0,L|401:12,2,46.6666666666667,2|0|8,1:2|1:2|0:0,0:0:0:0:
497,150,159059,2,0,L|505:104,2,46.6666666666667,8|8|8,0:0|0:0|0:0,0:0:0:0:
423,208,159408,6,0,L|447:347,1,140,4|2,1:2|0:0,0:0:0:0:
333,284,159932,1,0,1:2:0:0:
333,284,160106,2,0,B|253:259|282:330|195:306,1,140,12|2,0:0|0:0,0:0:0:0:
89,244,160629,1,8,0:0:0:0:
171,145,160804,5,0,1:2:0:0:
171,145,160978,2,0,P|229:137|261:215,1,140,8|0,0:0|1:2,0:0:0:0:
135,354,161501,5,8,0:0:0:0:
178,234,161676,1,0,1:2:0:0:
234,376,161850,5,8,0:0:0:0:
90,269,162025,1,0,1:2:0:0:
265,196,162199,6,0,L|370:214,2,74.6666666666667,12|8|0,0:0|3:0|3:0,0:0:0:0:
196,132,162897,6,0,L|127:143,2,55.9999982910157,8|0|0,3:0|3:0|1:2,0:0:0:0:
257,65,163594,5,4,1:2:0:0:
256,192,170571,5,0,1:2:0:0:
242,205,171792,5,0,1:2:0:0:
242,205,171966,1,0,1:2:0:0:
229,215,173362,6,0,L|111:194,1,105,0|0,1:2|3:0,0:0:0:0:
39,261,174059,6,0,L|163:282,1,125.999996154785,0|0,3:0|1:2,0:0:0:0:
244,209,174757,5,0,1:2:0:0:
322,277,174932,1,0,1:2:0:0:
407,195,175106,1,8,0:0:0:0:
505,260,175280,1,0,1:2:0:0:
505,260,175368,1,0,1:2:0:0:
505,260,175455,1,8,0:0:0:0:
473,134,175629,1,8,3:0:0:0:
416,287,175804,1,0,3:0:0:0:
416,287,176152,6,0,B|340:262|365:326|280:300,1,140,4|2,1:2|0:0,0:0:0:0:
206,199,176676,1,0,1:2:0:0:
287,89,176850,2,0,L|311:227,1,140,8|2,0:0|0:0,0:0:0:0:
264,318,177373,1,0,1:2:0:0:
154,289,177548,6,0,P|140:222|200:189,1,140,0|2,1:2|1:2,0:0:0:0:
301,104,178071,1,0,0:0:0:0:
301,104,178158,1,0,0:0:0:0:
301,104,178245,2,0,P|315:37|255:4,1,140,8|2,0:0|0:0,0:0:0:0:
172,73,178769,1,8,0:0:0:0:
172,73,178856,1,8,0:0:0:0:
172,73,178943,6,0,L|184:144,2,70,0|8|2,1:2|0:0|1:2,0:0:0:0:
81,148,179466,1,0,1:2:0:0:
81,148,179641,2,0,L|68:219,2,70,8|0|2,0:0|0:0|0:0,0:0:0:0:
163,247,180164,1,0,1:2:0:0:
248,192,180339,5,0,1:2:0:0:
333,261,180513,1,8,0:0:0:0:
413,192,180687,2,0,L|491:178,1,70,2|0,1:2|1:2,0:0:0:0:
510,145,180949,1,8,0:0:0:0:
510,145,181036,1,8,0:0:0:0:
363,67,181211,1,8,3:0:0:0:
453,0,181385,2,0,P|472:30|464:65,1,70,0|0,3:0|0:0,0:0:0:0:
258,176,181734,6,0,L|245:104,1,70,4|0,1:2|1:2,0:0:0:0:
160,189,182083,2,0,L|173:257,1,70,0|0,1:2|1:2,0:0:0:0:
267,346,182432,2,0,L|280:274,1,70,0|0,1:2|1:2,0:0:0:0:
379,219,182781,2,0,L|366:287,1,70,0|0,1:2|1:2,0:0:0:0:
428,384,183129,5,0,3:2:0:0:
428,384,183304,1,0,3:2:0:0:
284,262,183478,1,0,3:2:0:0:
284,262,183652,1,0,3:2:0:0:
472,202,183827,1,0,3:2:0:0:
472,202,184001,1,0,3:2:0:0:
375,87,184176,1,0,3:2:0:0:
375,87,184350,1,0,3:2:0:0:
199,228,184525,5,8,0:0:0:0:
379,181,184699,1,8,0:0:0:0:
191,113,184873,1,8,0:0:0:0:
306,248,185048,1,8,0:0:0:0:
275,65,185222,1,8,0:0:0:0:
179,230,185397,2,0,L|240:240,1,35,8|0,0:0|0:0,0:0:0:0:
360,337,185571,5,8,0:0:0:0:
393,326,185658,1,8,0:0:0:0:
411,296,185745,1,8,0:0:0:0:
407,260,185833,1,8,0:0:0:0:
407,260,186966,6,0,L|417:197,1,52.5,2|0,0:3|0:0,0:0:0:0:
392,169,187315,5,4,1:2:0:0:
297,117,187490,1,0,1:2:0:0:
211,183,187664,1,0,1:2:0:0:
96,117,187839,6,0,L|81:199,1,77.0000023498536,10|0,0:1|1:2,0:0:0:0:
135,298,188187,1,0,1:2:0:0:
0,196,188362,2,0,L|14:278,1,77.0000023498536,10|0,0:1|1:2,0:0:0:0:
183,384,188711,5,10,0:1:0:0:
250,298,188885,1,0,1:2:0:0:
212,194,189059,1,0,1:2:0:0:
361,265,189234,6,0,L|437:278,1,77.0000023498536,10|0,0:1|1:2,0:0:0:0:
324,351,189583,1,0,1:2:0:0:
436,199,189757,2,0,L|512:185,1,77.0000023498536,10|0,0:1|1:2,0:0:0:0:
363,50,190106,5,12,0:2:0:0:
256,20,190280,1,0,1:2:0:0:
168,83,190455,1,0,1:2:0:0:
275,185,190629,6,0,L|292:87,1,77.0000023498536,10|0,0:1|1:2,0:0:0:0:
351,257,190978,1,0,1:2:0:0:
176,173,191152,2,0,L|190:249,1,77.0000023498536,10|0,0:1|1:2,0:0:0:0:
74,384,191501,5,10,0:1:0:0:
19,284,191676,1,0,1:2:0:0:
53,183,191850,1,0,1:2:0:0:
175,269,192025,6,0,P|213:271|244:242,1,77.0000023498536,10|0,0:1|1:2,0:0:0:0:
289,144,192373,1,0,1:2:0:0:
400,302,192548,2,0,P|362:304|331:275,1,77.0000023498536,10|8,0:1|0:2,0:0:0:0:
333,235,192809,1,8,0:2:0:0:
333,235,192897,5,12,0:2:0:0:
418,160,193071,1,0,1:2:0:0:
400,53,193245,1,0,1:2:0:0:
249,0,193420,6,0,L|235:75,1,77.0000023498536,10|0,0:1|1:2,0:0:0:0:
139,142,193769,1,0,1:2:0:0:
319,73,193943,2,0,L|332:148,1,77.0000023498536,10|0,0:1|1:2,0:0:0:0:
213,304,194292,5,10,0:1:0:0:
117,249,194466,1,0,1:2:0:0:
16,292,194641,1,0,1:2:0:0:
202,210,194815,6,0,L|293:226,1,77.0000023498536,10|0,0:1|1:2,0:0:0:0:
385,164,195164,1,0,1:2:0:0:
301,309,195339,2,0,L|392:292,1,77.0000023498536,10|0,0:1|1:2,0:0:0:0:
507,143,195687,5,12,0:2:0:0:
421,81,195862,1,0,1:2:0:0:
315,106,196036,1,0,1:2:0:0:
464,215,196211,5,10,0:1:0:0:
421,81,196385,1,0,1:2:0:0:
297,14,196559,1,0,1:2:0:0:
385,164,196734,5,10,0:1:0:0:
508,45,196908,1,0,1:2:0:0:
297,14,197083,2,0,L|281:104,1,77.0000023498536,12|0,0:2|1:2,0:0:0:0:
183,218,197432,1,0,1:2:0:0:
183,218,197519,1,0,1:0:0:0:
183,218,197606,1,0,1:2:0:0:
302,165,197780,1,8,0:0:0:0:
253,329,197955,1,0,1:2:0:0:
253,329,198042,1,0,1:2:0:0:
253,329,198129,2,0,L|244:379,3,38.5000011749268,8|8|0|8,0:0|3:0|3:0|0:2,0:0:0:0:
275,295,198478,6,0,L|266:245,1,38.5000011749268,2|0,1:3|0:0,0:0:0:0:
240,104,198652,1,2,0:3:0:0:
275,295,198827,6,0,B|365:318|321:253|432:280,1,154.000004699707,14|2,0:2|0:0,0:0:0:0:
391,176,199350,1,0,1:2:0:0:
499,315,199525,2,0,L|512:239,1,77.0000023498536,10|0,0:0|0:0,0:0:0:0:
480,49,199873,6,0,P|418:47|395:93,1,115.50000352478,2|0,1:2|0:0,0:0:0:0:
377,100,200222,2,0,L|391:182,1,77.0000023498536,10|0,0:0|0:0,0:0:0:0:
339,277,200571,1,2,0:0:0:0:
474,172,200745,1,0,1:2:0:0:
297,127,200920,2,0,P|256:133|234:170,1,77.0000023498536,10|0,0:0|0:0,0:0:0:0:
113,327,201269,5,4,1:2:0:0:
228,250,201443,1,0,1:2:0:0:
122,90,201618,2,0,B|95:179|162:151|136:246,1,154.000004699707,10|2,0:0|0:0,0:0:0:0:
26,137,202141,1,0,1:2:0:0:
218,48,202315,2,0,L|204:123,1,77.0000023498536,10|0,0:0|0:0,0:0:0:0:
138,237,202664,6,0,L|261:215,1,115.50000352478,2|0,1:2|0:0,0:0:0:0:
296,229,203013,2,0,P|315:265|304:302,1,77.0000023498536,10|0,0:0|1:2,0:0:0:0:
270,320,203275,1,8,0:0:0:0:
270,320,203362,1,8,0:0:0:0:
388,222,203536,1,8,3:0:0:0:
459,319,203711,1,8,3:0:0:0:
296,229,203885,1,0,3:0:0:0:
458,80,204059,6,0,L|485:235,1,154.000004699707,4|0,1:2|0:0,0:0:0:0:
369,135,204583,1,0,1:2:0:0:
296,229,204757,2,0,B|208:210|242:290|140:264,1,154.000004699707,10|0,0:1|0:0,0:0:0:0:
52,136,205280,1,0,1:2:0:0:
168,178,205455,5,2,1:1:0:0:
114,23,205629,2,0,L|127:98,1,77.0000023498536,8|0,0:0|0:0,0:0:0:0:
83,223,205978,1,0,1:2:0:0:
211,98,206152,2,0,L|286:111,1,77.0000023498536,10|0,0:1|1:2,0:0:0:0:
386,11,206501,2,0,L|310:24,1,77.0000023498536,0|0,1:2|0:0,0:0:0:0:
388,185,206850,6,0,P|453:168|449:83,1,154.000004699707,4|0,1:2|0:0,0:0:0:0:
386,11,207373,1,0,1:2:0:0:
300,50,207548,2,0,P|283:85|297:126,1,77.0000023498536,10|0,0:1|0:0,0:0:0:0:
329,261,207897,2,0,P|307:228|264:220,1,77.0000023498536,0|0,0:0|1:2,0:0:0:0:
234,243,208158,1,0,1:2:0:0:
234,243,208245,5,2,1:1:0:0:
151,311,208420,2,0,L|74:297,1,77.0000023498536,8|0,0:0|0:0,0:0:0:0:
6,377,208769,1,0,1:2:0:0:
118,224,208943,1,10,0:1:0:0:
0,268,209118,1,0,1:2:0:0:
84,127,209292,2,0,L|197:147,1,115.50000352478,8|0,3:0|0:0,0:0:0:0:
227,118,209641,6,0,L|213:39,1,77.0000023498536,4|0,1:2|1:0,0:0:0:0:
321,97,209990,2,0,L|334:172,1,77.0000023498536,0|0,1:2|1:2,0:0:0:0:
181,288,210339,6,0,L|194:209,1,77.0000023498536,0|0,1:2|1:2,0:0:0:0:
277,285,210688,2,0,L|263:360,1,77.0000023498536,0|0,1:2|1:2,0:0:0:0:
375,201,211036,5,0,1:2:0:0:
375,201,211211,1,0,1:2:0:0:
221,115,211385,1,0,1:2:0:0:
221,115,211559,1,0,1:2:0:0:
88,188,211734,1,0,1:2:0:0:
88,188,211908,1,0,1:2:0:0:
54,21,212083,1,0,1:2:0:0:
54,21,212257,1,0,1:2:0:0:
197,205,212432,5,8,1:2:0:0:
8,110,212606,1,8,1:2:0:0:
219,197,212780,1,8,1:2:0:0:
26,258,212955,1,8,1:2:0:0:
166,109,213129,1,8,1:2:0:0:
293,279,213304,1,8,1:2:0:0:
88,188,213478,1,8,1:2:0:0:
335,115,213652,1,8,1:2:0:0:
335,115,214873,6,0,L|324:173,1,52.5,8|0,3:0|0:0,0:0:0:0:
293,193,215222,5,4,1:2:0:0:
187,142,215397,1,0,1:2:0:0:
77,194,215571,1,0,1:2:0:0:
199,290,215745,6,0,L|275:276,1,70,10|0,0:1|1:2,0:0:0:0:
354,261,216094,1,0,1:2:0:0:
512,159,216269,6,0,L|435:145,1,70,10|0,0:1|1:2,0:0:0:0:
357,130,216618,1,0,1:2:0:0:
188,203,216792,6,0,L|174:126,1,70,10|0,0:1|1:2,0:0:0:0:
159,48,217141,1,0,1:2:0:0:
27,160,217315,2,0,L|113:175,1,70,10|0,0:1|1:2,0:0:0:0:
238,44,217664,2,0,L|169:56,1,70,10|0,0:1|1:2,0:0:0:0:
325,223,218013,5,12,0:2:0:0:
388,126,218187,1,0,1:2:0:0:
340,25,218362,1,0,1:2:0:0:
421,222,218536,6,0,L|408:290,1,70,10|0,0:1|1:2,0:0:0:0:
348,348,218885,1,0,1:2:0:0:
223,241,219059,6,0,L|235:309,1,70,10|0,0:1|1:2,0:0:0:0:
179,384,219408,1,0,1:2:0:0:
0,338,219583,6,0,L|68:350,1,70,10|0,0:1|1:2,0:0:0:0:
142,302,219932,1,0,1:2:0:0:
40,185,220106,2,0,L|53:263,1,70,12|0,0:0|1:2,0:0:0:0:
143,161,220455,2,0,L|155:92,1,70,10|0,0:1|1:2,0:0:0:0:
302,28,220804,5,12,0:2:0:0:
411,53,220978,1,0,1:2:0:0:
448,154,221152,1,0,1:2:0:0:
338,110,221327,5,8,0:3:0:0:
506,79,221501,1,0,1:2:0:0:
506,79,221676,1,0,1:2:0:0:
372,220,221850,5,12,0:0:0:0:
228,113,222025,1,0,1:2:0:0:
228,113,222199,1,0,1:2:0:0:
117,264,222373,5,8,0:3:0:0:
272,197,222548,1,0,1:2:0:0:
272,197,222722,1,0,1:2:0:0:
92,129,222897,5,12,0:0:0:0:
219,274,223071,1,0,1:2:0:0:
7,314,223245,5,10,0:1:0:0:
177,193,223420,1,0,1:2:0:0:
315,340,223594,6,0,P|380:334|399:258,1,140,4|8,1:2|0:0,0:0:0:0:
300,123,224118,2,0,L|325:269,1,140,4|0,1:2|1:2,0:0:0:0:
382,104,224641,2,0,B|278:140|316:43|196:86,1,175,12|0,0:0|0:0,0:0:0:0:
190,111,225164,1,0,1:2:0:0:
95,0,225339,2,0,L|80:82,1,70,8|0,0:0|0:0,0:0:0:0:
0,189,225687,5,0,1:2:0:0:
127,245,225862,1,0,1:2:0:0:
127,245,225949,1,0,1:0:0:0:
127,245,226036,2,0,L|119:201,3,35,8|8|8|8,0:0|0:0|0:0|0:0,0:0:0:0:
160,272,226385,5,4,1:2:0:0:
296,341,226559,1,0,1:0:0:0:
401,224,226734,1,10,0:0:0:0:
261,158,226908,6,0,L|276:243,1,83.9999974365235,0|2,1:2|0:2,0:0:0:0:
326,69,227257,1,0,1:2:0:0:
168,169,227432,1,2,1:2:0:0:
223,0,227606,6,0,L|207:85,1,83.9999974365235,8|2,0:0|0:0,0:0:0:0:
23,115,227955,2,0,L|105:100,1,83.9999974365235,0|10,1:2|0:0,0:0:0:0:
261,158,228304,1,0,1:2:0:0:
92,216,228478,5,2,1:2:0:0:
212,82,228652,1,0,1:2:0:0:
225,278,228827,5,10,0:0:0:0:
126,111,229001,1,0,1:0:0:0:
327,249,229176,5,4,1:2:0:0:
185,199,229350,1,0,1:0:0:0:
86,309,229525,1,10,0:0:0:0:
233,376,229699,6,0,L|216:280,1,83.9999974365235,0|2,1:2|1:2,0:0:0:0:
354,337,230048,1,0,1:2:0:0:
277,169,230222,1,2,0:2:0:0:
409,262,230397,6,0,L|326:248,1,83.9999974365235,8|2,0:0|0:0,0:0:0:0:
469,187,230745,1,0,1:2:0:0:
373,111,230920,2,0,L|455:97,1,83.9999974365235,10|0,0:0|1:2,0:0:0:0:
473,83,231182,1,0,1:2:0:0:
473,83,231269,1,10,0:0:0:0:
326,248,231443,1,8,3:0:0:0:
225,141,231618,1,0,3:0:0:0:
421,259,231792,1,0,1:0:0:0:
211,153,231966,6,0,B|136:129|157:197|76:173,1,140,4|0,1:2|0:0,0:0:0:0:
1,82,232490,1,0,1:2:0:0:
183,49,232664,6,0,L|144:264,1,210,10|0,0:1|0:0,0:0:0:0:
41,336,233362,1,2,1:1:0:0:
212,384,233536,6,0,P|253:330|216:266,1,140,8|0,0:0|1:2,0:0:0:0:
65,206,234059,1,10,0:1:0:0:
248,161,234234,1,0,1:2:0:0:
47,211,234408,2,0,L|56:159,1,52.5,8|0,3:0|0:0,0:0:0:0:
30,120,234757,6,0,L|170:95,1,140,4|0,1:2|0:0,0:0:0:0:
243,204,235280,2,0,B|215:136|280:135|250:68,1,140,4|0,1:2|0:0,0:0:0:0:
162,13,235804,6,0,B|319:-11|227:109|399:77,1,252,4|0,1:2|0:0,0:0:0:0:
512,21,237548,5,2,0:3:0:0:
497,13,237722,1,0,0:0:0:0:
480,10,237896,1,0,0:0:0:0:
463,13,238071,1,2,0:3:0:0:
463,13,238420,5,0,0:0:0:0:
420,100,238594,1,2,0:3:0:0:
420,100,238943,5,0,0:0:0:0:
463,187,239117,1,2,0:3:0:0:
463,187,239466,5,0,0:0:0:0:
420,274,239641,2,0,P|394:269|362:264,1,56,2|0,0:3|0:0,0:0:0:0:
295,180,239989,2,0,P|322:175|354:170,1,56,2|0,0:3|0:0,0:0:0:0:
186,302,240338,5,2,0:3:0:0:
172,292,240513,1,0,0:0:0:0:
165,276,240687,1,0,0:0:0:0:
165,258,240861,1,2,0:3:0:0:
165,258,241210,5,0,0:0:0:0:
122,172,241385,1,2,0:3:0:0:
122,172,241734,5,0,0:0:0:0:
165,86,241909,1,2,0:3:0:0:
165,86,242257,5,0,0:0:0:0:
122,0,242431,2,0,P|92:5|54:12,1,56,2|0,0:3|0:0,0:0:0:0:
180,95,242780,2,0,P|211:100|249:107,1,56,2|0,0:3|0:0,0:0:0:0:
363,39,243129,5,2,0:3:0:0:
376,49,243304,1,0,0:0:0:0:
384,65,243478,1,0,0:0:0:0:
383,83,243652,1,2,0:3:0:0:
383,83,244001,5,0,0:0:0:0:
444,168,244176,1,2,0:3:0:0:
444,168,244525,5,0,0:0:0:0:
400,263,244700,1,2,0:3:0:0:
400,263,245048,5,0,0:0:0:0:
289,268,245222,2,0,L|278:210,1,56,2|0,0:3|0:0,0:0:0:0:
156,315,245571,2,0,L|166:259,1,56,2|0,0:3|0:0,0:0:0:0:
28,350,245920,5,2,0:3:0:0:
36,365,246094,1,0,0:0:0:0:
51,375,246268,1,0,0:0:0:0:
68,376,246443,1,2,0:3:0:0:
68,376,246792,5,0,0:0:0:0:
154,331,246985,5,2,0:3:0:0:
163,325,247354,5,0,0:0:0:0:
272,350,247608,5,2,0:3:0:0:
282,346,248059,5,0,0:0:0:0:
349,280,248313,5,2,0:3:0:0:
344,194,248628,5,0,0:0:0:0:
363,142,249003,5,2,0:3:0:0:
401,127,249486,5,2,0:3:0:0:
256,192,250736,5,2,0:3:0:0:
256,192,251024,12,0,257485,0:0:0:0:
