osu file format v14

[General]
AudioFilename: juvenile.ogg
AudioLeadIn: 0
PreviewTime: 174670
Countdown: 0
SampleSet: Soft
StackLeniency: 0.4
Mode: 0
LetterboxInBreaks: 0
WidescreenStoryboard: 0

[Editor]
Bookmarks: 52664,72199,197780
DistanceSpacing: 0.8
BeatDivisor: 4
GridSize: 32
TimelineZoom: 1.4

[Metadata]
Title:Juvenile
TitleUnicode:ジュブナイル
Artist:ReoNa
ArtistUnicode:ReoNa
Creator:-Eresh
Version:Quandary
Source:月姫 -A piece of blue glass moon-
Tags:レオナ typemoon type-moon 月姫リメイク tsukihime remake tsukire ciel シエル theme song ost original soundtracks intro op 2 op2 opening pv full size version video games visual novel japanese pop jpop j-pop rock jrock j-rock near side Milcaf -_Rem_- FukutoTojido [Boy]DaLat Try-Z TryZ
BeatmapID:3197413
BeatmapSetID:1565832

[Difficulty]
HPDrainRate:5
CircleSize:4.3
OverallDifficulty:9
ApproachRate:9.3
SliderMultiplier:1.9
SliderTickRate:1

[Events]
//Background and Video events
0,0,"FAc4cL2VIAIUXQO.jpg",0,0
//Break Periods
2,22864,31529
2,165190,170017
//Storyboard Layer 0 (Background)
//Storyboard Layer 1 (Fail)
//Storyboard Layer 2 (Pass)
//Storyboard Layer 3 (Foreground)
//Storyboard Layer 4 (Overlay)
//Storyboard Sound Samples

[TimingPoints]
339,348.837209302326,4,2,1,30,1,0
339,-250,4,2,1,30,0,0
5571,-333.333333333333,4,2,1,30,0,0
5920,-142.857142857143,4,2,1,50,0,0
8711,-125,4,2,1,50,0,0
10804,-200,4,2,1,50,0,0
11501,-100,4,2,1,70,0,0
21269,-100,4,2,2,70,0,0
22664,-142.857142857143,4,2,1,70,0,0
23013,-142.857142857143,4,2,2,50,0,0
32083,-142.857142857143,4,2,1,60,0,0
33827,-111.111111111111,4,2,1,60,0,0
39408,-111.111111111111,4,2,1,65,0,0
44641,-249.999999999999,4,2,1,65,0,0
44990,-100,4,2,2,70,0,0
45687,-66.6666666666667,4,2,2,70,0,0
46385,-99.9999999999999,4,2,2,70,0,0
46908,-111.111111111111,4,2,2,70,0,0
47780,-90.9090909090909,4,2,2,70,0,0
48477,-66.6666666666667,4,2,2,70,0,0
49175,-76.9230769230769,4,2,2,70,0,0
49437,-71.4285714285714,4,2,2,70,0,0
49699,-66.6666666666667,4,2,2,70,0,0
49873,-86.9565217391304,4,2,2,70,0,0
50048,-100,4,2,2,70,0,0
50571,-83.3333333333333,4,2,2,70,0,0
51268,-66.6666666666667,4,2,2,70,0,0
51966,-100,4,2,2,70,0,0
52664,-100,4,2,1,70,0,0
56152,-142.857142857143,4,2,1,65,0,0
58943,-142.857142857143,4,2,1,60,0,0
59466,-142.857142857143,4,2,2,50,0,0
59641,-142.857142857143,4,2,2,50,0,0
61385,-142.857142857143,4,2,1,50,0,0
61734,-76.9230769230769,4,2,1,85,0,1
78478,-90.9090909090909,4,2,1,80,0,0
81269,-111.111111111111,4,2,1,80,0,0
83711,-166.666666666666,4,2,1,80,0,0
84059,-100,4,2,1,70,0,0
95222,-125,4,2,1,60,0,0
100804,-111.111111111111,4,2,1,65,0,0
106036,-249.999999999999,4,2,1,65,0,0
106385,-100,4,2,2,70,0,0
107082,-66.6666666666667,4,2,2,70,0,0
107606,-99.9999999999999,4,2,2,70,0,0
108303,-111.111111111111,4,2,2,70,0,0
109175,-90.9090909090909,4,2,2,70,0,0
109872,-66.6666666666667,4,2,2,70,0,0
110570,-76.9230769230769,4,2,2,70,0,0
110832,-71.4285714285714,4,2,2,70,0,0
111094,-66.6666666666667,4,2,2,70,0,0
111268,-86.9565217391304,4,2,2,70,0,0
111443,-100,4,2,2,70,0,0
111966,-83.3333333333333,4,2,2,70,0,0
112663,-66.6666666666667,4,2,2,70,0,0
113361,-100,4,2,2,70,0,0
114757,-66.6666666666667,4,2,2,70,0,0
115454,-90.9090909090909,4,2,2,70,0,0
116501,-90.9090909090909,4,2,1,65,0,0
117548,-90.9090909090909,4,2,1,70,0,0
123129,-90.9090909090909,4,2,1,65,0,0
125920,-125,4,2,1,65,0,0
128711,-142.857142857143,4,2,1,60,0,0
131501,-142.857142857143,4,2,1,55,0,0
137083,-142.857142857143,4,2,1,60,0,0
139873,-125,4,2,1,65,0,0
142664,-83.3333333333333,4,2,1,85,0,1
153827,-83.3333333333333,4,2,1,80,0,1
159408,-100,4,2,1,75,0,0
164815,-100,4,2,2,75,0,0
164990,-166.666666666667,4,2,2,75,0,0
170571,-166.666666666667,4,2,1,55,0,0
170920,-166.666666666667,4,2,2,40,0,0
171792,-166.666666666667,4,2,1,55,0,0
172315,-166.666666666667,4,2,2,40,0,0
173362,-166.666666666667,4,2,1,55,0,0
173711,-166.666666666667,4,2,2,40,0,0
174583,-166.666666666667,4,2,1,55,0,0
175804,-250.000000000001,4,2,1,55,0,0
176152,-125,4,2,1,65,0,0
181385,-250,4,2,1,65,0,0
181734,-111.111111111111,4,2,1,60,0,0
183129,-111.111111111111,4,2,1,65,0,0
184525,-111.111111111111,4,2,1,70,0,0
186966,-142.857142857143,4,2,1,70,0,0
187315,-76.9230769230769,4,2,1,90,0,1
198478,-125,4,2,1,90,0,0
198827,-76.9230769230769,4,2,1,85,0,1
204059,-90.9090909090909,4,2,1,80,0,0
206850,-100,4,2,1,80,0,0
209641,-125,4,2,1,70,0,0
212432,-125,4,2,1,75,0,0
214873,-166.666666666667,4,2,1,75,0,0
215222,-100,4,2,1,85,0,1
226385,-90.9090909090909,4,2,1,80,0,1
231966,-100,4,2,1,75,0,0
234408,-200,4,2,1,75,0,0
234757,-111.111111111111,4,2,1,75,0,0
235280,-125,4,2,1,75,0,0
235804,-166.666666666667,4,2,1,75,0,0
236676,-166.666666666667,4,2,2,75,0,0
236850,-200,4,2,2,75,0,0
237548,-250,4,2,1,60,0,0
240339,-250,4,2,1,55,0,0
243129,-250,4,2,1,50,0,0
245920,-250,4,2,1,45,0,0
246792,387.096774193548,4,2,1,45,1,0
246792,-250,4,2,1,45,0,0
246985,368.098159509202,4,2,1,45,1,0
246985,-250,4,2,1,45,0,0
247354,508.474576271186,4,2,1,40,1,0
247354,-250,4,2,1,40,0,0
247608,451.127819548872,4,2,1,40,1,0
247608,-250,4,2,1,40,0,0
248059,508.474576271186,4,2,1,40,1,0
248059,-250,4,2,1,40,0,0
248313,631.578947368421,4,2,1,40,1,0
248313,-250,4,2,1,40,0,0
248628,749.999999999999,4,2,1,40,1,0
248628,-250,4,2,1,40,0,0
249003,967.741935483869,4,2,1,40,1,0
249003,-250,4,2,1,40,0,0
249486,1250,4,2,1,40,1,0
249486,-250,4,2,1,40,0,0
250736,1153.84615384615,4,2,1,30,1,0
250736,-250,4,2,1,30,0,0
251024,810.810810810811,4,2,1,30,1,0
251024,-250,4,2,1,30,0,0
251632,731.707317073171,4,2,1,30,1,0
251632,-250,4,2,1,30,0,0

[Colours]
Combo1 : 191,191,191
Combo2 : 0,102,255
Combo3 : 253,163,96
Combo4 : 11,44,174

[HitObjects]
6,378,339,5,2,0:3:0:0:
12,368,514,1,0,0:0:0:0:
22,366,688,1,0,0:0:0:0:
31,371,862,1,2,0:3:0:0:
31,371,1211,5,0,0:0:0:0:
114,352,1385,1,2,0:3:0:0:
114,352,1735,5,0,0:0:0:0:
197,371,1909,1,2,0:3:0:0:
197,371,2258,5,0,0:0:0:0:
234,304,2432,1,2,0:3:0:0:
186,233,2606,1,0,0:0:0:0:
111,271,2780,1,2,0:3:0:0:
114,352,2955,1,0,0:0:0:0:
285,233,3129,5,2,0:3:0:0:
306,254,3304,1,0,0:0:0:0:
335,259,3478,1,0,0:0:0:0:
362,247,3652,1,2,0:3:0:0:
362,247,4001,5,0,0:0:0:0:
455,265,4176,1,2,0:3:0:0:
455,265,4525,5,0,0:0:0:0:
393,335,4699,1,2,0:3:0:0:
393,335,5048,5,0,0:0:0:0:
420,181,5222,1,2,0:3:0:0:
512,216,5397,1,0,0:0:0:0:
355,247,5571,2,0,P|322:253|306:256,1,42.7499986953736,2|0,0:3|0:0,0:0:0:0:
239,280,5920,5,4,1:2:0:0:
392,334,6094,2,0,P|425:340|458:345,1,66.4999979705811,0|0,1:2|0:0,0:0:0:0:
265,202,6443,1,0,1:2:0:0:
338,173,6618,2,0,P|370:167|404:163,1,66.4999979705811,10|0,0:0|1:2,0:0:0:0:
257,73,6966,1,0,0:0:0:0:
339,95,7141,1,0,1:2:0:0:
347,62,7228,1,0,1:2:0:0:
330,34,7315,1,0,1:2:0:0:
146,153,7490,6,0,P|210:139|227:135,1,66.4999979705811,8|0,0:0|0:0,0:0:0:0:
355,247,7839,1,0,1:2:0:0:
277,284,8013,1,10,0:0:0:0:
335,99,8187,1,0,1:2:0:0:
415,165,8362,2,0,P|453:171|529:194,1,99.7499969558717,0|0,1:2|0:0,0:0:0:0:
502,150,8711,6,0,P|508:101|516:61,1,76,4|0,1:2|0:0,0:0:0:0:
423,81,9059,1,0,0:0:0:0:
499,257,9234,1,0,1:2:0:0:
486,276,9321,1,0,1:2:0:0:
491,316,9408,1,10,0:0:0:0:
354,372,9583,5,0,1:2:0:0:
333,378,9670,1,0,1:0:0:0:
295,371,9757,5,8,0:0:0:0:
277,345,9844,1,0,1:2:0:0:
220,307,9932,1,0,1:2:0:0:
158,310,10019,1,0,1:2:0:0:
112,351,10106,5,8,0:3:0:0:
96,359,10193,1,8,0:3:0:0:
80,357,10280,1,8,0:3:0:0:
71,353,10368,1,8,0:3:0:0:
24,291,10455,6,0,P|36:253|26:155,1,114,12|0,0:0|0:0,0:0:0:0:
3,113,10804,2,0,P|-2:84|1:59,1,47.5,0|0,0:0|0:0,0:0:0:0:
91,0,11152,6,0,P|78:36|75:72,1,71.25,0|0,0:0|0:0,0:0:0:0:
136,115,11501,6,0,P|190:102|247:93,1,95,4|0,1:2|1:2,0:0:0:0:
381,28,11850,1,0,1:2:0:0:
231,217,12025,2,0,P|316:236|366:251,1,95,10|0,0:1|1:2,0:0:0:0:
479,290,12373,1,0,1:2:0:0:
370,169,12548,1,8,0:0:0:0:
512,121,12722,1,0,1:2:0:0:
388,331,12897,1,0,1:2:0:0:
185,301,13071,6,0,P|111:314|4:343,1,142.5,10|0,0:1|0:0,0:0:0:0:
39,321,13420,1,0,1:2:0:0:
220,380,13594,5,8,0:0:0:0:
166,163,13769,1,0,1:2:0:0:
312,304,13943,5,10,0:1:0:0:
350,87,14118,1,0,1:2:0:0:
483,174,14292,6,0,P|419:183|379:192,1,95,12|0,0:2|1:2,0:0:0:0:
246,227,14641,1,0,1:2:0:0:
350,87,14815,2,0,P|286:78|246:69,1,95,10|0,0:1|1:2,0:0:0:0:
113,34,15164,1,0,1:2:0:0:
146,243,15339,1,8,0:0:0:0:
195,0,15513,1,0,1:2:0:0:
21,136,15687,1,0,1:2:0:0:
61,226,15862,6,0,P|76:299|84:385,1,142.5,10|0,0:1|0:0,0:0:0:0:
73,384,16211,1,0,1:2:0:0:
266,304,16385,1,10,0:1:0:0:
189,276,16559,1,0,1:2:0:0:
180,313,16647,1,0,1:0:0:0:
196,346,16734,1,10,0:1:0:0:
387,369,16908,1,0,1:2:0:0:
313,216,17083,1,12,0:2:0:0:
468,315,17257,5,0,1:2:0:0:
392,260,17432,1,0,1:2:0:0:
440,110,17606,2,0,P|456:22|461:-25,1,95,8|0,0:3|1:2,0:0:0:0:
192,164,17955,1,0,1:2:0:0:
357,128,18129,1,12,0:0:0:0:
227,43,18304,5,0,1:2:0:0:
269,114,18478,1,0,1:2:0:0:
211,252,18652,2,0,P|200:314|190:387,1,95,8|0,0:3|1:2,0:0:0:0:
258,384,19001,1,0,1:2:0:0:
116,318,19176,1,10,0:1:0:0:
305,235,19350,1,0,1:2:0:0:
328,227,19437,1,0,1:2:0:0:
371,242,19525,5,10,0:1:0:0:
398,203,19612,1,8,0:0:0:0:
446,194,19699,1,0,1:2:0:0:
492,219,19786,1,0,1:2:0:0:
512,275,19873,6,0,P|498:336|498:397,1,95,4|0,1:2|1:2,0:0:0:0:
291,331,20222,1,8,0:0:0:0:
371,242,20397,6,0,P|374:289|386:335,1,95,4|0,1:2|0:0,0:0:0:0:
160,362,20745,1,8,0:0:0:0:
208,144,20920,6,0,P|233:249|271:330,1,190,4|2,1:2|0:3,0:0:0:0:
291,331,21443,1,2,0:3:0:0:
21,197,21792,5,2,0:3:0:0:
21,197,21879,1,2,0:3:0:0:
21,197,21966,2,0,P|81:290|141:347,1,190,2|0,0:3|0:0,0:0:0:0:
160,362,22490,1,2,0:3:0:0:
291,331,22664,1,4,1:2:0:0:
291,331,32083,5,8,0:0:0:0:
160,362,32257,1,0,1:2:0:0:
160,362,32606,5,0,1:2:0:0:
149,359,32693,1,0,1:2:0:0:
136,360,32780,1,8,0:0:0:0:
42,307,32955,1,0,1:2:0:0:
65,302,33042,1,8,0:0:0:0:
89,287,33129,1,8,0:0:0:0:
132,139,33304,2,0,L|124:102,1,33.2499989852906,0|0,1:2|1:2,0:0:0:0:
61,193,33478,5,8,0:0:0:0:
101,209,33565,1,8,0:0:0:0:
152,213,33652,1,8,3:0:0:0:
203,184,33740,1,8,3:0:0:0:
238,148,33827,6,0,P|288:133|326:129,1,85.4999973907472,4|0,1:2|0:0,0:0:0:0:
355,267,34176,2,0,L|308:262,1,42.7499986953736,8|0,0:0|0:0,0:0:0:0:
417,325,34350,1,0,1:2:0:0:
435,299,34437,1,0,1:2:0:0:
442,268,34524,1,0,1:2:0:0:
436,236,34611,1,0,1:2:0:0:
418,210,34699,1,0,1:2:0:0:
400,184,34786,1,0,1:2:0:0:
394,152,34873,2,0,P|401:123|413:106,1,42.7499986953736,0|0,1:2|0:0,0:0:0:0:
459,23,35048,6,0,P|389:9|313:-4,1,128.249996086121,8|0,0:0|0:0,0:0:0:0:
255,8,35397,1,0,1:2:0:0:
395,98,35571,6,0,P|354:111|312:116,1,85.4999973907472,8|0,0:0|1:2,0:0:0:0:
151,13,35920,1,0,1:2:0:0:
151,13,36094,1,0,1:2:0:0:
209,70,36269,1,8,0:0:0:0:
126,198,36443,1,0,1:2:0:0:
201,261,36618,6,0,P|218:318|225:407,1,128.249996086121,0|0,1:2|0:0,0:0:0:0:
147,380,36966,2,0,L|84:372,1,42.7499986953736,8|0,0:0|0:0,0:0:0:0:
251,339,37141,1,0,1:2:0:0:
289,322,37228,1,8,0:0:0:0:
331,327,37315,1,0,1:2:0:0:
365,353,37402,1,0,1:2:0:0:
399,379,37490,1,0,1:2:0:0:
441,384,37577,1,0,1:2:0:0:
479,367,37664,2,0,L|489:319,1,42.7499986953736,0|0,1:2|0:0,0:0:0:0:
436,178,37839,6,0,P|435:264|406:313,1,128.249996086121,8|0,0:0|0:0,0:0:0:0:
409,299,38187,1,0,1:2:0:0:
512,139,38362,2,0,P|487:169|433:178,1,85.4999973907472,8|0,0:0|0:0,0:0:0:0:
324,228,38711,1,0,1:2:0:0:
246,180,38885,1,0,1:2:0:0:
130,225,39059,1,8,0:0:0:0:
80,133,39234,1,0,0:0:0:0:
0,296,39408,6,0,P|10:337|19:379,1,85.4999973907472,4|0,1:2|0:0,0:0:0:0:
179,125,39757,2,0,P|168:83|159:41,1,85.4999973907472,10|0,0:0|0:0,0:0:0:0:
46,220,40106,1,2,1:2:0:0:
200,272,40280,1,0,1:2:0:0:
155,372,40455,6,0,P|197:361|249:352,1,85.4999973907472,10|0,0:0|0:0,0:0:0:0:
371,343,40804,1,2,1:2:0:0:
295,258,40978,1,0,1:2:0:0:
449,215,41152,1,10,0:0:0:0:
317,264,41327,1,0,0:0:0:0:
465,304,41501,1,2,1:2:0:0:
314,149,41676,1,0,1:2:0:0:
102,188,41850,2,0,P|66:200|-3:238,1,85.4999973907472,10|0,0:0|0:0,0:0:0:0:
218,133,42199,6,0,P|132:98|29:45,1,170.999994781494,4|0,1:2|0:0,0:0:0:0:
5,7,42722,1,0,1:2:0:0:
202,50,42897,2,0,B|131:63|145:135|63:157,1,170.999994781494,10|0,0:0|0:0,0:0:0:0:
6,116,43420,1,8,0:0:0:0:
74,58,43594,5,2,1:2:0:0:
5,7,43769,1,8,0:0:0:0:
151,0,43943,1,0,1:2:0:0:
207,145,44118,1,0,1:2:0:0:
200,179,44205,1,0,1:2:0:0:
195,214,44292,1,10,0:0:0:0:
242,349,44466,1,8,3:0:0:0:
368,280,44641,6,0,P|368:253|349:222,1,57,0|0,3:0|0:0,0:0:0:0:
278,272,44990,6,0,B|367:280|379:368|443:356,1,190,4|0,1:2|0:0,0:0:0:0:
512,300,45513,2,0,P|513:273|495:246,1,47.5,0|0,1:2|0:0,0:0:0:0:
242,349,45687,6,0,P|385:326|538:221,1,285.000010871888,8|0,0:0|0:0,0:0:0:0:
437,206,46211,1,0,1:2:0:0:
447,384,46385,6,0,P|405:358|239:341,1,190,0|0,1:2|0:0,0:0:0:0:
139,293,46908,2,0,L|148:365,1,42.7499986953736,0|0,1:2|0:0,0:0:0:0:
70,350,47083,2,0,L|65:303,1,42.7499986953736,8|0,0:0|0:0,0:0:0:0:
0,236,47257,2,0,P|114:171|124:135,1,170.999994781494,0|0,0:0|0:0,0:0:0:0:
42,50,47780,6,0,B|79:15|140:55|125:59|198:127|238:87,1,209.000006378174,0|0,1:2|0:0,0:0:0:0:
235,0,48304,2,0,P|213:-5|184:15,1,52.2500015945435,0|0,1:2|0:0,0:0:0:0:
32,146,48478,6,0,P|142:97|363:55,1,285.000010871888,8|0,0:0|0:0,0:0:0:0:
384,48,49001,2,0,B|394:33|394:33|393:12|393:12|379:26|379:26|378:57,1,71.2500027179719,0|0,1:2|0:0,0:0:0:0:
354,154,49176,6,0,B|365:133|365:133|440:115|440:115|459:78,1,123.499994346619,0|0,1:2|0:0,0:0:0:0:
276,163,49437,2,0,B|374:210|374:210|379:239,1,132.999995941162,0|0,1:2|0:0,0:0:0:0:
443,294,49699,2,0,L|423:376,1,71.2500027179719,0|0,1:2|0:0,0:0:0:0:
342,366,49873,2,0,L|356:313,1,54.6250010418892,8|0,0:0|0:0,0:0:0:0:
270,326,50048,2,0,B|258:359|258:359|84:376,1,190,0|0,0:0|0:0,0:0:0:0:
60,158,50571,6,0,B|63:214|164:210|159:152|146:150|166:117|248:114|248:174,1,227.999993041992,0|0,1:2|0:0,0:0:0:0:
211,273,51094,2,0,P|202:265|205:215,1,56.9999982604981,0|0,1:2|0:0,0:0:0:0:
0,120,51269,6,0,P|94:149|301:201,1,285.000010871888,8|0,0:0|0:0,0:0:0:0:
381,333,51792,2,0,P|340:345|291:379,1,71.2500027179719,0|0,1:2|0:0,0:0:0:0:
298,359,51966,2,0,P|294:336|296:313,1,47.5,0|0,1:2|0:0,0:0:0:0:
479,343,52141,6,0,P|461:270|454:154,1,190,0|0,0:0|1:2,0:0:0:0:
444,0,52664,5,8,0:0:0:0:
466,8,52751,1,8,0:0:0:0:
488,13,52838,1,8,3:0:0:0:
512,16,52925,1,0,3:0:0:0:
466,19,53013,5,8,0:0:0:0:
421,34,53100,1,8,3:0:0:0:
383,61,53187,1,0,3:0:0:0:
354,89,53274,1,0,1:0:0:0:
299,144,53362,5,12,0:2:0:0:
326,17,53536,1,0,1:0:0:0:
437,255,53711,5,10,0:2:0:0:
427,161,53885,1,0,1:2:0:0:
285,374,54059,5,10,0:0:0:0:
378,344,54234,1,0,1:2:0:0:
226,206,54408,5,10,0:0:0:0:
313,224,54583,1,0,1:2:0:0:
96,343,54757,6,0,P|49:352|3:364,1,95,10|0,0:0|0:0,0:0:0:0:
122,240,55106,2,0,P|106:168|95:125,1,95,10|8,0:0|0:0,0:0:0:0:
152,90,55368,1,8,0:0:0:0:
186,99,55455,1,10,0:0:0:0:
342,69,55629,1,8,3:0:0:0:
256,27,55804,1,0,3:0:0:0:
361,169,55978,1,0,1:0:0:0:
510,37,56152,6,0,P|442:54|261:134,1,265.999991882324,4|2,1:2|0:2,0:0:0:0:
2,347,57548,6,0,P|70:330|251:250,1,265.999991882324,4|8,1:2|0:0,0:0:0:0:
170,208,58420,1,8,3:0:0:0:
137,288,58594,1,0,3:0:0:0:
274,358,58769,1,0,1:0:0:0:
205,123,58943,1,4,1:2:0:0:
256,192,59030,12,0,60339,0:0:0:0:
95,131,61385,6,0,P|116:68|125:19,1,99.7499969558717,2|0,0:3|0:0,0:0:0:0:
97,21,61734,5,4,1:2:0:0:
229,80,61908,1,0,1:2:0:0:
357,3,62083,1,0,1:2:0:0:
449,273,62257,5,10,0:1:0:0:
314,170,62432,1,0,1:2:0:0:
149,213,62606,1,0,1:2:0:0:
290,357,62780,5,10,0:1:0:0:
239,206,62955,1,0,1:2:0:0:
352,67,63129,2,0,B|424:72|401:118|491:118,1,123.499994346619,10|0,0:1|1:2,0:0:0:0:
190,144,63478,1,0,1:2:0:0:
312,257,63652,2,0,B|384:252|361:206|451:206,1,123.499994346619,10|0,0:1|1:2,0:0:0:0:
251,79,64001,1,0,1:2:0:0:
314,170,64176,1,10,0:1:0:0:
239,355,64350,1,0,1:2:0:0:
323,384,64525,5,12,0:2:0:0:
201,271,64699,1,0,1:2:0:0:
46,285,64873,1,0,1:2:0:0:
177,127,65048,5,10,0:1:0:0:
312,257,65222,1,0,1:2:0:0:
484,243,65396,1,0,1:2:0:0:
304,30,65571,5,10,0:1:0:0:
190,144,65745,2,0,B|118:149|141:195|51:195,1,123.499994346619,0|10,1:2|0:1,0:0:0:0:
230,334,66094,2,0,B|158:329|181:283|91:283,1,123.499994346619,0|0,1:2|1:2,0:0:0:0:
349,172,66443,1,10,0:1:0:0:
249,203,66618,1,0,1:2:0:0:
412,329,66792,1,0,1:2:0:0:
309,62,66966,1,10,0:1:0:0:
103,127,67141,1,8,0:2:0:0:
88,78,67228,1,8,0:2:0:0:
99,29,67315,5,12,0:2:0:0:
246,118,67490,1,0,1:2:0:0:
155,280,67664,1,0,1:2:0:0:
438,384,67839,5,10,0:1:0:0:
298,263,68014,1,0,1:2:0:0:
398,74,68188,1,0,1:2:0:0:
474,252,68362,5,10,0:1:0:0:
269,190,68536,1,0,1:2:0:0:
107,356,68711,2,0,P|122:293|136:205,1,123.499994346619,10|0,0:1|1:2,0:0:0:0:
260,93,69059,1,0,1:2:0:0:
391,120,69234,2,0,P|376:57|362:-31,1,123.499994346619,10|0,0:1|1:2,0:0:0:0:
156,147,69583,1,0,1:2:0:0:
331,213,69757,1,10,0:1:0:0:
244,322,69932,1,0,1:2:0:0:
470,370,70106,5,12,0:2:0:0:
395,148,70280,1,0,1:2:0:0:
175,20,70455,1,0,1:2:0:0:
401,285,70629,5,10,0:1:0:0:
291,137,70804,1,0,1:2:0:0:
129,153,70978,1,0,1:2:0:0:
302,239,71152,5,10,0:1:0:0:
199,225,71327,1,0,1:2:0:0:
144,313,71501,1,12,0:2:0:0:
243,58,71676,5,0,1:2:0:0:
243,58,71763,1,0,1:0:0:0:
243,58,71850,2,0,L|313:48,1,61.7499971733095,0|0,1:2|0:0,0:0:0:0:
380,34,72025,2,0,L|450:24,1,61.7499971733095,0|0,1:2|1:2,0:0:0:0:
403,136,72199,5,8,0:0:0:0:
414,162,72286,1,8,0:0:0:0:
423,189,72373,1,0,1:2:0:0:
432,217,72461,1,0,1:2:0:0:
423,239,72548,5,8,0:0:0:0:
350,231,72635,1,8,3:0:0:0:
277,224,72722,1,0,3:0:0:0:
204,216,72809,1,0,1:2:0:0:
131,209,72897,6,0,P|95:155|103:33,1,185.249991519928,4|0,1:2|0:0,0:0:0:0:
173,7,73245,2,0,B|203:37|203:37|163:133,1,123.499994346619,10|0,0:0|0:0,0:0:0:0:
58,241,73594,1,2,1:2:0:0:
213,187,73769,1,0,1:2:0:0:
78,324,73943,1,2,0:0:0:0:
311,383,74118,6,0,P|401:363|482:348,1,123.499994346619,8|2,0:0|0:0,0:0:0:0:
333,215,74466,1,0,1:2:0:0:
324,299,74641,1,10,0:0:0:0:
345,133,74815,2,0,L|354:63,1,61.7499971733095,0|0,0:0|0:0,0:0:0:0:
406,273,74990,1,2,1:2:0:0:
251,246,75164,1,0,1:2:0:0:
420,177,75339,1,10,0:0:0:0:
263,157,75513,1,0,0:0:0:0:
511,0,75687,6,0,P|395:35|311:12,1,185.249991519928,4|0,1:2|0:0,0:0:0:0:
323,9,76036,2,0,B|278:13|278:13|251:35|251:35|199:44,1,123.499994346619,10|0,0:0|0:0,0:0:0:0:
64,97,76385,1,2,1:2:0:0:
129,52,76559,1,0,1:2:0:0:
24,2,76734,1,2,0:0:0:0:
106,189,76908,6,0,P|121:262|143:383,1,185.249991519928,8|0,0:0|0:0,0:0:0:0:
126,383,77257,1,0,1:2:0:0:
21,279,77432,1,10,0:0:0:0:
230,308,77606,1,0,1:2:0:0:
281,303,77693,1,8,0:0:0:0:
332,298,77780,1,10,0:0:0:0:
505,358,77955,1,8,3:0:0:0:
409,197,78129,1,8,3:0:0:0:
486,224,78304,1,0,3:2:0:0:
407,0,78478,6,0,P|323:56|267:149,1,209.000006378174,4|0,1:2|0:0,0:0:0:0:
250,231,79001,1,0,1:2:0:0:
163,15,79176,2,0,P|149:133|166:257,1,209.000006378174,10|0,0:1|0:0,0:0:0:0:
186,312,79699,1,0,0:0:0:0:
87,295,79873,5,2,1:1:0:0:
242,382,80048,1,8,0:0:0:0:
341,343,80222,1,0,0:0:0:0:
446,368,80397,1,0,1:2:0:0:
361,249,80571,5,10,0:1:0:0:
410,184,80745,1,0,1:2:0:0:
363,114,80920,2,0,P|354:50|436:26,1,156.750004783631,8|0,3:0|0:0,0:0:0:0:
457,39,81269,6,0,P|390:32|178:30,1,256.499992172241,4|0,1:2|0:0,0:0:0:0:
102,73,81966,5,8,0:0:0:0:
151,147,82083,5,8,0:0:0:0:
235,107,82199,5,8,0:0:0:0:
296,179,82315,5,8,3:0:0:0:
276,262,82432,5,8,3:0:0:0:
257,345,82548,5,8,3:0:0:0:
341,323,82664,5,4,1:2:0:0:
98,307,83711,6,0,P|48:339|63:375,1,85.4999973907472,8|0,0:3|0:0,0:0:0:0:
121,381,84059,6,0,P|192:369|238:363,1,95,4|0,1:2|1:2,0:0:0:0:
387,378,84408,1,0,1:2:0:0:
203,236,84583,2,0,P|274:248|320:254,1,95,10|0,0:1|1:2,0:0:0:0:
450,223,84932,1,0,1:2:0:0:
361,150,85106,1,10,0:1:0:0:
465,312,85280,1,0,1:2:0:0:
415,92,85455,1,0,1:2:0:0:
268,158,85629,6,0,P|255:87|247:17,1,142.5,10|0,0:1|0:0,0:0:0:0:
269,3,85978,1,0,1:2:0:0:
149,187,86152,5,10,0:1:0:0:
128,53,86327,1,0,1:2:0:0:
259,279,86501,5,10,0:1:0:0:
411,239,86676,1,0,1:2:0:0:
130,351,86850,6,0,P|87:364|32:389,1,95,12|0,0:2|1:2,0:0:0:0:
238,363,87199,1,0,1:2:0:0:
81,261,87373,2,0,P|158:273|198:284,1,95,10|0,0:1|1:2,0:0:0:0:
2,184,87722,1,0,1:2:0:0:
158,59,87897,1,10,0:1:0:0:
0,0,88071,1,0,1:2:0:0:
168,155,88245,1,0,1:2:0:0:
355,116,88420,6,0,P|436:141|506:188,1,142.5,10|0,0:1|0:0,0:0:0:0:
492,163,88769,1,0,1:2:0:0:
403,29,88943,5,10,0:1:0:0:
428,252,89118,1,0,1:2:0:0:
264,142,89292,5,10,0:1:0:0:
253,384,89467,1,0,1:2:0:0:
473,323,89641,1,12,0:2:0:0:
350,291,89815,5,0,1:2:0:0:
398,181,89990,1,0,1:2:0:0:
312,43,90164,2,0,P|265:35|218:24,1,95,8|0,0:3|1:2,0:0:0:0:
146,283,90513,1,0,1:2:0:0:
321,208,90687,1,12,0:0:0:0:
170,116,90862,5,0,1:2:0:0:
226,220,91037,1,0,1:2:0:0:
154,365,91211,2,0,P|107:372|60:383,1,95,8|0,0:3|1:2,0:0:0:0:
241,382,91559,1,0,1:2:0:0:
141,195,91734,1,10,0:1:0:0:
226,220,91908,5,0,1:2:0:0:
255,214,91995,1,0,1:2:0:0:
282,231,92083,5,10,0:1:0:0:
322,197,92170,1,8,0:0:0:0:
338,146,92257,1,0,1:2:0:0:
320,97,92344,1,0,1:2:0:0:
280,63,92432,6,0,P|218:74|161:89,1,95,4|0,1:2|1:2,0:0:0:0:
64,168,92780,1,8,0:0:0:0:
121,0,92955,6,0,P|99:59|84:116,1,95,4|0,1:2|0:0,0:0:0:0:
70,253,93304,2,0,P|77:284|89:313,1,47.5,0|0,1:0|1:0,0:0:0:0:
0,219,93478,6,0,P|106:234|187:250,1,190,12|0,0:2|0:0,0:0:0:0:
300,354,94001,1,0,1:0:0:0:
126,345,94176,2,0,P|197:326|254:320,1,95,8|0,0:0|0:0,0:0:0:0:
369,308,94525,1,0,1:0:0:0:
399,332,94612,1,0,1:0:0:0:
447,316,94699,1,0,1:0:0:0:
470,277,94786,1,0,1:0:0:0:
465,221,94873,5,8,0:0:0:0:
438,186,94961,1,8,0:0:0:0:
417,123,95048,1,8,3:0:0:0:
423,55,95135,1,0,3:0:0:0:
480,14,95222,6,0,L|319:-1,1,152,4|8,1:2|0:0,0:0:0:0:
218,94,95745,1,0,1:2:0:0:
218,94,95833,1,0,1:2:0:0:
218,94,95920,1,0,1:2:0:0:
126,77,96094,2,0,P|81:82|21:93,1,76,0|0,1:2|0:0,0:0:0:0:
184,168,96443,6,0,P|190:212|207:329,1,152,8|0,0:0|1:2,0:0:0:0:
123,374,96966,1,8,0:0:0:0:
111,288,97141,1,0,1:2:0:0:
111,288,97228,1,0,1:2:0:0:
111,288,97315,1,0,1:2:0:0:
197,336,97490,1,0,1:2:0:0:
301,378,97664,1,8,0:0:0:0:
376,298,97839,1,0,1:2:0:0:
472,325,98013,6,0,P|458:278|466:197,1,114,0|0,1:2|0:0,0:0:0:0:
472,198,98362,1,8,0:0:0:0:
446,80,98536,1,0,1:2:0:0:
446,80,98623,1,0,1:2:0:0:
446,80,98711,1,0,1:2:0:0:
330,102,98885,1,0,1:2:0:0:
382,17,99059,1,0,1:0:0:0:
311,108,99234,6,0,P|268:87|160:93,1,152,8|0,0:0|1:2,0:0:0:0:
30,42,99757,1,8,0:0:0:0:
76,123,99932,1,0,1:2:0:0:
78,110,100019,1,0,1:2:0:0:
80,97,100106,1,0,1:2:0:0:
16,184,100280,1,0,1:2:0:0:
68,277,100455,2,0,P|102:283|122:291,1,38,8|0,0:0|0:0,0:0:0:0:
26,367,100629,5,8,0:0:0:0:
26,367,100716,1,8,0:0:0:0:
26,367,100804,2,0,L|73:363,1,42.7499986953736,4|0,1:2|0:0,0:0:0:0:
146,354,100978,2,0,L|193:350,1,42.7499986953736,0|0,1:2|0:0,0:0:0:0:
310,298,101152,6,0,P|325:341|405:351,1,128.249996086121,10|0,0:0|0:0,0:0:0:0:
412,371,101501,1,2,1:2:0:0:
466,276,101676,1,0,1:2:0:0:
347,181,101850,1,10,0:0:0:0:
389,269,102025,1,0,0:0:0:0:
259,206,102199,6,0,P|201:195|155:188,1,85.4999973907472,2|0,1:2|1:2,0:0:0:0:
46,220,102548,1,10,0:0:0:0:
170,107,102722,1,0,0:0:0:0:
6,141,102897,1,2,1:2:0:0:
100,26,103071,1,0,1:2:0:0:
277,123,103245,2,0,P|342:172|370:201,1,85.4999973907472,10|0,0:0|0:0,0:0:0:0:
512,0,103594,1,4,1:2:0:0:
377,37,103769,1,0,1:2:0:0:
470,198,103943,6,0,P|501:304|503:353,1,128.249996086121,10|0,0:0|0:0,0:0:0:0:
488,342,104292,1,2,1:2:0:0:
368,305,104466,1,0,1:2:0:0:
228,355,104641,1,12,0:0:0:0:
76,284,104815,1,0,0:0:0:0:
167,185,104990,6,0,L|162:229,1,42.7499986953736,2|0,1:2|0:0,0:0:0:0:
153,302,105164,2,0,L|148:346,1,42.7499986953736,8|0,0:0|0:0,0:0:0:0:
85,208,105339,1,8,0:0:0:0:
245,153,105513,1,0,1:2:0:0:
278,158,105600,1,0,1:2:0:0:
311,163,105687,1,8,0:0:0:0:
476,106,105862,1,8,3:0:0:0:
412,211,106036,6,0,P|415:239|422:266,1,57,0|0,3:0|0:0,0:0:0:0:
492,310,106385,6,0,P|424:285|294:240,1,190,4|0,1:2|0:0,0:0:0:0:
340,335,106908,2,0,P|357:350|359:373,1,47.5,0|0,1:2|0:0,0:0:0:0:
510,219,107083,2,0,B|446:183|364:282|384:274|320:345|244:304,1,285.000010871888,8|0,0:0|0:0,0:0:0:0:
150,267,107606,6,0,L|96:257,1,47.5,0|0,1:2|0:0,0:0:0:0:
131,336,107780,2,0,L|84:328,1,47.5,0|0,1:2|0:0,0:0:0:0:
0,318,107955,2,0,P|105:292|208:275,1,190,0|0,0:0|1:2,0:0:0:0:
336,232,108478,2,0,L|346:178,1,42.7499986953736,8|0,0:0|0:0,0:0:0:0:
247,221,108652,2,0,P|334:284|413:352,1,170.999994781494,0|0,0:0|0:0,0:0:0:0:
420,249,109176,6,0,P|438:174|476:39,1,209.000006378174,0|0,1:2|0:0,0:0:0:0:
375,108,109699,2,0,P|368:134|359:165,1,52.2500015945435,0|0,1:2|0:0,0:0:0:0:
504,288,109873,6,0,B|522:210|444:144|452:176|380:125|386:39,1,285.000010871888,8|0,0:0|0:0,0:0:0:0:
473,47,110397,2,0,P|483:38|472:50,1,71.2500027179719,0|0,1:2|0:0,0:0:0:0:
343,196,110571,2,0,B|316:183|316:183|250:80,1,123.499994346619,0|0,1:2|0:0,0:0:0:0:
225,38,110833,2,0,B|191:58|191:58|142:159,1,132.999995941162,0|0,1:2|0:0,0:0:0:0:
87,202,111094,2,0,L|98:285,1,71.2500027179719,0|0,1:2|0:0,0:0:0:0:
179,284,111268,2,0,L|170:229,1,54.6250010418892,8|0,0:0|0:0,0:0:0:0:
255,251,111443,2,0,B|263:285|263:285|434:320,1,190,0|0,0:0|0:0,0:0:0:0:
472,257,111966,6,0,P|394:285|250:360,1,227.999993041992,0|0,1:2|0:0,0:0:0:0:
329,219,112490,2,0,P|358:209|383:196,1,56.9999982604981,0|0,1:2|0:0,0:0:0:0:
480,341,112664,6,0,B|462:384|383:375|341:310|375:323|366:238|267:222|246:259,1,285.000010871888,8|0,0:0|0:0,0:0:0:0:
91,288,113187,2,0,P|96:329|81:357,1,71.2500027179719,0|0,1:2|0:0,0:0:0:0:
67,364,113362,2,0,P|50:355|19:349,1,47.5,0|0,1:2|0:0,0:0:0:0:
0,210,113536,6,0,P|84:200|198:176,1,190,0|0,0:0|1:2,0:0:0:0:
232,76,114059,1,8,0:0:0:0:
124,68,114234,6,0,P|201:101|312:137,1,190,0|0,0:0|0:0,0:0:0:0:
426,255,114757,2,0,B|479:253|455:142|402:117|409:145|353:70|362:2|411:-5,1,285.000010871888,0|0,1:2|0:0,0:0:0:0:
467,44,115280,2,0,P|492:44|463:59,1,71.2500027179719,0|0,1:2|0:0,0:0:0:0:
306,105,115455,6,0,P|412:139|514:183,1,209.000006378174,8|0,0:0|0:0,0:0:0:0:
405,108,115978,1,0,1:2:0:0:
495,255,116152,1,0,1:2:0:0:
313,370,116327,1,0,0:0:0:0:
448,316,116501,1,8,0:0:0:0:
379,222,116676,1,0,1:2:0:0:
368,254,116763,1,0,1:2:0:0:
357,286,116850,5,8,0:0:0:0:
284,102,117025,1,8,3:0:0:0:
406,141,117199,5,0,3:0:0:0:
229,25,117373,1,0,1:0:0:0:
133,147,117548,6,0,P|100:251|74:360,1,209.000006378174,4|2,1:2|0:0,0:0:0:0:
148,369,118071,1,0,1:2:0:0:
16,217,118245,2,0,B|86:196|136:264|103:255|159:303|211:275,1,209.000006378174,8|2,0:0|0:0,0:0:0:0:
263,204,118769,1,0,1:2:0:0:
179,2,118943,5,0,1:2:0:0:
254,47,119118,2,0,P|310:62|357:71,1,104.500003189087,8|2,0:0|0:0,0:0:0:0:
463,113,119466,1,0,1:2:0:0:
506,27,119641,1,8,0:0:0:0:
383,158,119815,2,0,P|399:203|432:368,1,209.000006378174,0|0,1:2|0:0,0:0:0:0:
282,349,120339,6,0,B|229:368|181:317|203:316|161:266|90:285,1,209.000006378174,4|2,1:2|0:0,0:0:0:0:
128,374,120862,1,0,1:2:0:0:
282,271,121036,2,0,P|220:290|90:380,1,209.000006378174,8|2,0:0|0:0,0:0:0:0:
20,323,121559,1,0,1:2:0:0:
78,177,121734,6,0,L|181:165,1,104.500003189087,0|0,1:2|0:0,0:0:0:0:
175,182,121995,2,0,L|72:194,1,104.500003189087,0|0,1:2|0:0,0:0:0:0:
28,108,122257,6,0,L|19:49,1,52.2500015945435,0|0,1:2|0:0,0:0:0:0:
96,46,122432,2,0,L|104:98,1,52.2500015945435,8|0,0:0|0:0,0:0:0:0:
78,177,122606,1,8,3:0:0:0:
183,89,122780,6,0,P|267:115|359:168,1,156.750004783631,0|0,3:0|0:0,0:0:0:0:
329,163,123129,5,4,1:2:0:0:
329,163,123478,5,0,1:2:0:0:
423,142,123652,1,0,1:2:0:0:
286,303,123827,5,0,1:2:0:0:
370,330,124001,1,0,1:2:0:0:
213,240,124176,5,0,1:2:0:0:
250,112,124350,1,0,1:2:0:0:
137,307,124525,5,8,0:0:0:0:
17,335,124699,1,8,0:0:0:0:
266,378,124873,5,8,0:0:0:0:
122,211,125048,1,8,0:0:0:0:
330,151,125222,1,8,0:0:0:0:
228,247,125397,5,8,0:0:0:0:
216,175,125484,1,8,3:0:0:0:
204,103,125571,1,0,3:0:0:0:
382,259,125746,5,8,3:0:0:0:
376,294,125833,1,0,3:0:0:0:
370,330,125920,6,0,P|281:339|196:354,1,152,4|0,1:2|0:0,0:0:0:0:
67,289,126443,1,0,1:2:0:0:
143,375,126618,2,0,P|83:383|46:385,1,76,10|0,0:1|1:2,0:0:0:0:
148,283,126966,2,0,P|186:277|224:275,1,76,0|0,0:0|1:2,0:0:0:0:
44,152,127315,5,10,0:1:0:0:
21,232,127490,1,0,1:2:0:0:
199,155,127664,1,10,0:1:0:0:
127,51,127839,1,8,0:0:0:0:
133,75,127926,1,8,0:0:0:0:
139,99,128013,5,8,0:0:0:0:
224,238,128187,1,8,3:0:0:0:
133,297,128362,1,0,3:0:0:0:
228,361,128536,1,0,1:0:0:0:
60,384,128711,6,0,P|172:300|300:237,1,265.999991882324,4|2,1:2|0:0,0:0:0:0:
461,29,130106,6,0,P|349:113|221:176,1,265.999991882324,4|8,1:2|3:0,0:0:0:0:
235,190,131501,5,4,1:2:0:0:
200,217,131676,1,0,0:0:0:0:
157,219,131850,1,0,0:0:0:0:
121,193,132025,1,2,0:3:0:0:
121,193,132373,5,0,0:0:0:0:
59,260,132548,1,2,0:3:0:0:
59,260,132897,5,0,0:0:0:0:
147,315,133071,1,2,0:3:0:0:
147,315,133420,5,0,0:0:0:0:
128,218,133594,1,2,0:3:0:0:
216,234,133769,1,0,0:0:0:0:
244,136,133943,1,2,0:3:0:0:
339,202,134118,1,0,0:0:0:0:
504,102,134292,5,0,1:3:0:0:
453,109,134466,1,0,0:0:0:0:
402,116,134641,1,0,0:0:0:0:
351,123,134815,1,2,0:3:0:0:
351,123,135164,5,0,0:0:0:0:
253,82,135339,1,2,0:3:0:0:
253,82,135687,5,0,0:0:0:0:
301,193,135862,1,2,0:3:0:0:
301,193,136211,5,0,0:0:0:0:
438,162,136385,1,2,0:3:0:0:
355,132,136559,1,0,0:0:0:0:
383,235,136734,1,2,0:3:0:0:
228,277,136908,1,0,1:2:0:0:
157,0,137083,5,0,1:2:0:0:
171,59,137257,1,0,0:0:0:0:
180,121,137432,1,0,0:0:0:0:
188,184,137606,1,2,0:3:0:0:
188,184,137955,5,0,0:0:0:0:
84,113,138129,1,2,0:3:0:0:
84,113,138478,5,0,0:0:0:0:
261,82,138652,1,2,0:3:0:0:
261,82,139001,5,0,0:0:0:0:
188,184,139176,1,2,0:3:0:0:
307,160,139350,1,0,0:0:0:0:
233,0,139525,1,2,0:3:0:0:
357,83,139699,1,0,1:2:0:0:
435,16,139873,6,0,L|510:0,1,76,0|0,1:2|0:0,0:0:0:0:
397,157,140222,2,0,L|471:173,1,76,2|0,0:3|0:0,0:0:0:0:
278,239,140571,1,0,1:2:0:0:
360,310,140745,1,0,0:0:0:0:
152,281,140920,2,0,P|180:342|191:373,1,76,2|0,0:3|0:0,0:0:0:0:
42,217,141269,1,0,1:2:0:0:
12,353,141443,1,0,0:0:0:0:
74,288,141618,6,0,P|86:194|99:71,1,152,2|0,0:3|0:0,0:0:0:0:
25,0,142141,1,0,1:2:0:0:
142,64,142315,2,0,P|177:51|211:34,1,76,12|0,0:0|0:0,0:0:0:0:
371,0,142664,5,4,1:2:0:0:
285,104,142839,1,0,1:2:0:0:
330,219,143013,1,0,1:2:0:0:
170,374,143187,5,10,0:1:0:0:
256,270,143362,1,0,1:2:0:0:
211,155,143536,1,0,1:2:0:0:
316,383,143711,5,10,0:1:0:0:
164,288,143885,1,0,1:2:0:0:
5,339,144059,1,0,1:2:0:0:
104,175,144234,5,10,0:1:0:0:
256,270,144408,1,0,1:2:0:0:
415,219,144582,1,0,1:2:0:0:
496,277,144757,6,0,P|501:335|507:396,1,113.999996520996,10|0,0:1|1:2,0:0:0:0:
324,187,145106,2,0,P|319:129|313:68,1,113.999996520996,10|0,0:1|1:2,0:0:0:0:
512,52,145455,5,12,0:2:0:0:
391,97,145629,1,0,1:2:0:0:
262,19,145804,1,0,1:2:0:0:
56,111,145978,5,10,0:1:0:0:
188,159,146152,1,0,1:2:0:0:
319,76,146327,1,0,1:2:0:0:
168,17,146501,5,10,0:1:0:0:
276,161,146676,1,0,1:2:0:0:
196,309,146850,1,0,1:2:0:0:
370,144,147025,5,10,0:1:0:0:
309,288,147199,1,0,1:2:0:0:
439,384,147373,1,0,1:2:0:0:
268,374,147548,5,12,0:0:0:0:
444,299,147722,1,0,1:2:0:0:
196,309,147897,5,10,0:1:0:0:
20,234,148071,1,0,1:2:0:0:
138,98,148245,5,12,0:2:0:0:
117,236,148420,1,0,1:2:0:0:
96,374,148594,1,0,1:2:0:0:
226,194,148769,5,8,0:3:0:0:
215,124,148944,1,0,1:2:0:0:
205,55,149118,1,0,1:2:0:0:
57,304,149292,5,12,0:0:0:0:
195,283,149467,1,0,1:2:0:0:
333,262,149641,1,0,1:2:0:0:
205,55,149815,5,8,0:3:0:0:
215,124,149989,1,0,1:2:0:0:
226,194,150164,1,0,1:2:0:0:
117,235,150339,5,10,0:1:0:0:
194,360,150513,1,0,1:2:0:0:
345,153,150687,5,10,0:1:0:0:
307,334,150862,1,0,1:2:0:0:
512,246,151036,5,12,0:2:0:0:
376,159,151211,1,0,1:2:0:0:
226,194,151385,1,0,1:2:0:0:
270,54,151559,5,8,0:3:0:0:
169,110,151734,1,0,1:2:0:0:
131,213,151908,1,0,1:2:0:0:
29,107,152083,5,12,0:0:0:0:
226,194,152257,1,0,1:2:0:0:
318,379,152432,1,0,1:2:0:0:
92,325,152606,5,8,0:3:0:0:
194,270,152780,1,0,1:2:0:0:
320,278,152955,1,0,1:2:0:0:
429,342,153129,1,10,0:1:0:0:
416,203,153304,5,0,1:2:0:0:
423,176,153391,1,0,1:2:0:0:
445,163,153478,5,8,0:0:0:0:
411,145,153565,1,8,0:0:0:0:
387,98,153652,1,0,3:0:0:0:
399,42,153740,1,0,1:2:0:0:
440,15,153827,6,0,P|337:37|240:62,1,170.999994781494,4|0,1:2|0:0,0:0:0:0:
259,60,154176,2,0,B|216:54|216:54|191:29|191:29|125:17,1,113.999996520996,10|0,0:0|0:0,0:0:0:0:
96,99,154525,1,2,1:2:0:0:
28,18,154699,1,0,1:2:0:0:
71,227,154873,1,2,0:0:0:0:
142,184,155048,6,0,P|226:195|310:210,1,170.999994781494,8|0,0:0|0:0,0:0:0:0:
321,218,155397,1,0,1:2:0:0:
233,162,155571,1,10,0:0:0:0:
345,313,155745,1,0,0:0:0:0:
265,366,155920,2,0,P|227:370|140:387,1,113.999996520996,2|0,1:2|1:2,0:0:0:0:
457,295,156269,2,0,P|401:306|344:312,1,113.999996520996,10|0,0:1|0:0,0:0:0:0:
319,125,156618,6,0,P|403:224|458:211,1,170.999994781494,4|0,1:2|0:0,0:0:0:0:
460,156,156966,2,0,P|448:100|442:43,1,113.999996520996,10|0,0:0|0:0,0:0:0:0:
316,0,157315,1,2,1:2:0:0:
368,59,157490,1,0,1:2:0:0:
184,112,157664,1,2,0:0:0:0:
251,61,157839,6,0,P|166:75|82:87,1,170.999994781494,8|0,0:0|0:0,0:0:0:0:
45,151,158187,1,0,1:2:0:0:
184,112,158362,1,10,0:0:0:0:
281,251,158536,1,0,0:0:0:0:
50,310,158711,5,0,1:2:0:0:
44,292,158827,5,0,1:0:0:0:
50,277,158943,5,8,0:0:0:0:
101,263,159059,5,8,0:0:0:0:
154,273,159176,5,8,0:0:0:0:
192,311,159292,5,8,0:0:0:0:
220,357,159408,6,0,P|319:369|444:392,1,190,4|2,1:2|0:0,0:0:0:0:
318,274,159932,1,0,1:2:0:0:
512,267,160106,2,0,P|418:283|324:294,1,190,12|2,0:0|0:0,0:0:0:0:
206,200,160629,1,0,0:0:0:0:
237,276,160804,5,0,1:2:0:0:
301,130,160978,1,8,0:0:0:0:
407,170,161152,1,2,0:0:0:0:
459,19,161327,1,0,1:2:0:0:
381,71,161501,5,8,0:0:0:0:
488,106,161676,1,0,1:2:0:0:
301,130,161850,5,8,0:0:0:0:
510,207,162025,1,0,1:2:0:0:
222,184,162199,5,12,0:0:0:0:
488,106,162432,5,8,3:0:0:0:
313,0,162664,5,0,3:0:0:0:
396,288,162897,1,8,3:0:0:0:
340,95,163129,5,0,3:0:0:0:
425,381,163362,1,0,1:2:0:0:
369,193,163594,1,4,1:2:0:0:
256,192,163682,12,2,164990,0:3:0:0:
396,288,170571,6,0,P|319:268|270:259,1,113.999996520996,0|0,1:2|3:0,0:0:0:0:
200,252,171094,1,0,3:0:0:0:
236,325,171269,2,0,P|169:345|110:375,1,113.999996520996,0|0,3:0|0:0,0:0:0:0:
26,379,171792,1,0,1:2:0:0:
81,196,171966,6,0,P|72:279|67:331,1,113.999996520996,0|0,1:2|3:0,0:0:0:0:
10,161,172490,2,0,P|9:189|6:218,1,56.9999982604981,0|0,3:0|3:0,0:0:0:0:
150,157,172839,2,0,P|233:166|285:171,1,113.999996520996,0|0,0:0|0:0,0:0:0:0:
362,76,173362,6,0,B|335:63|301:79|315:91|276:100|247:85,1,113.999996520996,0|0,1:2|3:0,0:0:0:0:
199,19,173885,1,0,3:0:0:0:
131,55,174059,6,0,B|104:68|70:52|84:40|45:31|16:46,1,113.999996520996,0|0,3:0|0:0,0:0:0:0:
107,135,174583,1,0,1:2:0:0:
107,135,174757,1,0,1:2:0:0:
50,189,174932,1,0,1:2:0:0:
112,290,175106,1,8,0:0:0:0:
67,356,175280,5,0,1:2:0:0:
64,370,175368,1,0,1:2:0:0:
61,384,175455,1,8,0:0:0:0:
20,283,175629,1,8,3:0:0:0:
165,360,175804,2,0,L|226:348,1,57,0|0,3:0|0:0,0:0:0:0:
284,310,176152,6,0,P|350:328|455:371,1,152,4|2,1:2|0:0,0:0:0:0:
395,248,176676,1,0,1:2:0:0:
492,307,176850,2,0,P|489:265|489:223,1,76,8|0,0:0|0:0,0:0:0:0:
492,121,177199,1,2,0:0:0:0:
492,121,177373,1,0,1:2:0:0:
425,163,177548,6,0,P|383:166|341:166,1,76,0|0,1:2|0:0,0:0:0:0:
188,113,177897,1,2,1:2:0:0:
256,179,178071,1,0,0:0:0:0:
256,179,178158,1,0,0:0:0:0:
256,179,178245,2,0,P|278:121|286:76,1,76,8|0,0:0|0:0,0:0:0:0:
81,82,178594,1,2,0:0:0:0:
142,5,178769,1,8,0:0:0:0:
146,21,178856,1,8,0:0:0:0:
150,37,178943,5,0,1:2:0:0:
111,158,179118,1,8,0:0:0:0:
166,262,179292,1,2,1:2:0:0:
120,349,179466,1,0,1:2:0:0:
264,296,179641,2,0,P|208:306|97:332,1,152,8|2,0:0|0:0,0:0:0:0:
41,302,180164,1,0,1:2:0:0:
137,224,180339,5,0,1:2:0:0:
251,272,180513,1,8,0:0:0:0:
341,202,180687,1,2,1:2:0:0:
445,222,180862,1,0,1:2:0:0:
460,218,180949,1,8,0:0:0:0:
475,214,181036,1,8,0:0:0:0:
419,138,181211,1,8,3:0:0:0:
464,70,181385,2,0,P|461:42|450:12,1,57,0|0,3:0|0:0,0:0:0:0:
511,133,181734,6,0,P|459:104|331:90,1,170.999994781494,4|0,1:2|1:2,0:0:0:0:
285,44,182257,1,0,1:2:0:0:
257,143,182432,1,0,1:2:0:0:
182,108,182606,1,0,1:2:0:0:
220,234,182780,1,0,1:2:0:0:
350,215,182955,1,0,1:2:0:0:
303,377,183129,5,0,3:2:0:0:
287,289,183304,1,0,3:2:0:0:
123,287,183478,5,0,3:2:0:0:
150,191,183652,1,0,3:2:0:0:
350,215,183827,5,0,3:2:0:0:
316,89,184001,1,0,3:2:0:0:
48,185,184176,5,0,3:2:0:0:
111,16,184350,1,0,3:2:0:0:
237,247,184525,5,8,0:0:0:0:
40,306,184699,1,8,0:0:0:0:
228,131,184873,5,8,0:0:0:0:
481,188,185047,1,8,0:0:0:0:
379,0,185222,6,0,L|371:48,1,42.7499986953736,8|0,0:0|0:0,0:0:0:0:
356,131,185397,2,0,L|348:179,1,42.7499986953736,8|0,0:0|0:0,0:0:0:0:
334,259,185571,1,8,0:0:0:0:
332,269,185658,1,8,0:0:0:0:
330,279,185745,1,8,0:0:0:0:
328,289,185833,1,8,0:0:0:0:
328,289,186966,6,0,P|341:346|346:393,1,99.7499969558717,2|0,0:3|0:0,0:0:0:0:
369,379,187315,5,4,1:2:0:0:
249,256,187490,1,0,1:2:0:0:
334,86,187664,1,0,1:2:0:0:
468,196,187839,5,10,0:1:0:0:
245,169,188014,1,0,1:2:0:0:
76,307,188188,1,0,1:2:0:0:
214,44,188362,5,10,0:1:0:0:
321,207,188536,1,0,1:2:0:0:
216,345,188711,2,0,P|158:361|96:385,1,123.499994346619,10|0,0:1|1:2,0:0:0:0:
245,169,189059,1,0,1:2:0:0:
330,288,189234,2,0,P|388:304|450:328,1,123.499994346619,10|0,0:1|1:2,0:0:0:0:
334,87,189583,1,0,1:2:0:0:
160,176,189757,1,10,0:1:0:0:
6,32,189932,1,0,1:2:0:0:
101,251,190106,5,12,0:2:0:0:
142,85,190280,1,0,1:2:0:0:
275,18,190455,1,0,1:2:0:0:
330,190,190629,5,10,0:1:0:0:
160,176,190803,1,0,1:2:0:0:
19,292,190978,1,0,1:2:0:0:
246,235,191152,5,10,0:1:0:0:
142,85,191327,2,0,P|84:69|22:45,1,123.499994346619,0|10,1:2|0:1,0:0:0:0:
334,87,191676,2,0,P|392:71|454:47,1,123.499994346619,0|0,1:2|1:2,0:0:0:0:
213,17,192025,1,10,0:1:0:0:
246,235,192199,1,0,1:2:0:0:
330,190,192373,1,0,1:2:0:0:
288,363,192548,1,10,0:1:0:0:
101,284,192722,1,8,0:2:0:0:
51,289,192809,1,8,0:2:0:0:
1,294,192897,5,12,0:2:0:0:
164,370,193071,1,0,1:2:0:0:
339,267,193245,1,0,1:2:0:0:
259,35,193420,5,10,0:1:0:0:
203,208,193594,1,0,1:2:0:0:
288,363,193768,1,0,1:2:0:0:
74,171,193943,5,10,0:1:0:0:
220,296,194118,1,0,1:2:0:0:
428,192,194292,2,0,P|450:115|409:31,1,123.499994346619,10|0,0:1|1:2,0:0:0:0:
378,322,194641,1,0,1:2:0:0:
170,218,194815,2,0,P|148:141|189:57,1,123.499994346619,10|0,0:1|1:2,0:0:0:0:
326,23,195164,1,0,1:2:0:0:
280,135,195339,1,10,0:1:0:0:
72,30,195513,1,0,1:2:0:0:
37,231,195687,5,12,0:2:0:0:
233,61,195862,1,0,1:2:0:0:
459,80,196036,1,0,1:2:0:0:
204,322,196211,5,10,0:1:0:0:
250,210,196385,1,0,1:2:0:0:
359,168,196559,1,0,1:2:0:0:
392,384,196734,5,10,0:1:0:0:
311,334,196908,1,0,1:2:0:0:
338,249,197083,1,12,0:2:0:0:
512,288,197257,5,0,1:2:0:0:
488,285,197345,1,0,1:0:0:0:
464,282,197432,2,0,L|356:298,1,61.7499971733095,0|0,1:2|0:0,0:0:0:0:
311,334,197606,2,0,L|203:350,1,61.7499971733095,0|0,1:2|1:2,0:0:0:0:
92,282,197780,1,8,0:0:0:0:
116,309,197868,1,8,0:0:0:0:
105,358,197955,1,0,1:2:0:0:
64,365,198042,1,0,1:2:0:0:
13,341,198129,5,8,0:0:0:0:
0,269,198216,1,8,3:0:0:0:
37,203,198304,1,0,3:0:0:0:
107,187,198391,1,8,0:2:0:0:
174,207,198478,6,0,L|251:186,1,76,4|0,1:2|0:0,0:0:0:0:
151,112,198827,6,0,B|192:87|281:161|226:171|291:244|352:219,1,246.999988693238,14|2,0:2|0:0,0:0:0:0:
422,23,199350,1,0,1:2:0:0:
338,138,199525,1,10,0:0:0:0:
455,250,199699,1,0,0:0:0:0:
335,362,199873,6,0,P|274:373|213:384,1,123.499994346619,2|0,1:2|1:2,0:0:0:0:
350,219,200222,1,10,0:0:0:0:
129,308,200397,2,0,P|117:247|106:186,1,123.499994346619,0|2,0:0|0:0,0:0:0:0:
241,252,200745,1,0,1:2:0:0:
108,109,200920,1,10,0:0:0:0:
273,178,201094,1,0,0:0:0:0:
240,18,201269,5,4,1:2:0:0:
206,109,201443,1,0,1:2:0:0:
350,219,201618,2,0,P|386:278|420:428,1,185.249991519928,10|0,0:0|0:0,0:0:0:0:
406,384,201966,1,2,0:0:0:0:
459,232,202141,1,0,1:2:0:0:
308,339,202315,1,10,0:0:0:0:
119,272,202490,6,0,P|51:251|-8:235,1,123.499994346619,0|2,0:0|1:2,0:0:0:0:
252,200,202839,1,0,1:2:0:0:
188,384,203013,1,10,0:0:0:0:
292,98,203187,2,0,L|320:25,1,61.7499971733095,0|8,1:2|0:0,0:0:0:0:
218,293,203362,5,8,0:0:0:0:
360,179,203536,1,8,3:0:0:0:
186,112,203711,1,8,3:0:0:0:
328,0,203885,1,0,3:0:0:0:
252,200,204059,6,0,P|316:177|455:135,1,209.000006378174,4|0,1:2|0:0,0:0:0:0:
461,211,204583,1,0,1:2:0:0:
186,112,204757,6,0,P|250:135|389:177,1,209.000006378174,10|0,0:1|0:0,0:0:0:0:
161,198,205280,1,0,1:2:0:0:
271,113,205455,5,2,1:1:0:0:
79,34,205629,1,8,0:0:0:0:
150,0,205804,1,0,0:0:0:0:
73,145,205978,1,0,1:2:0:0:
111,269,206152,1,10,0:1:0:0:
25,377,206327,2,0,P|102:346|240:342,1,209.000006378174,0|0,1:2|0:0,0:0:0:0:
474,350,206850,6,0,B|433:378|433:378|266:299,1,190,4|0,1:2|0:0,0:0:0:0:
449,202,207373,1,0,1:2:0:0:
416,283,207548,2,0,P|411:225|441:163,1,95,10|0,0:1|0:0,0:0:0:0:
310,62,207896,1,0,0:0:0:0:
343,143,208071,6,0,P|348:85|318:23,1,95,0|2,1:2|1:1,0:0:0:0:
494,16,208420,1,8,0:0:0:0:
426,78,208594,1,0,0:0:0:0:
227,7,208769,1,0,1:2:0:0:
126,64,208943,6,0,P|64:51|0:39,1,95,10|0,0:1|1:2,0:0:0:0:
166,146,209292,2,0,P|156:193|147:239,1,95,8|0,3:0|0:0,0:0:0:0:
205,331,209641,1,4,1:2:0:0:
205,331,209990,5,0,1:2:0:0:
182,339,210164,1,0,1:2:0:0:
278,368,210339,5,0,1:2:0:0:
325,375,210513,1,0,1:2:0:0:
230,260,210687,5,0,1:2:0:0:
205,331,210862,1,0,1:2:0:0:
344,294,211036,5,0,1:2:0:0:
328,210,211211,1,0,1:2:0:0:
243,129,211385,5,0,1:2:0:0:
212,245,211559,1,0,1:2:0:0:
405,236,211734,5,0,1:2:0:0:
424,140,211908,1,0,1:2:0:0:
143,42,212083,5,0,1:2:0:0:
162,167,212257,1,0,1:2:0:0:
419,0,212432,5,8,1:2:0:0:
228,56,212606,1,8,1:2:0:0:
39,141,212780,5,8,1:2:0:0:
284,201,212955,1,8,1:2:0:0:
143,42,213129,5,8,1:2:0:0:
186,312,213304,1,8,1:2:0:0:
333,380,213478,5,8,1:2:0:0:
400,33,213652,1,8,1:2:0:0:
177,262,214873,6,0,P|135:270|93:279,1,85.4999973907472,8|0,3:0|0:0,0:0:0:0:
91,293,215222,5,4,1:2:0:0:
261,230,215397,1,0,1:2:0:0:
399,349,215571,1,0,1:2:0:0:
478,99,215746,5,10,0:1:0:0:
360,220,215920,1,0,1:2:0:0:
190,157,216095,1,0,1:2:0:0:
5,323,216269,5,10,0:1:0:0:
94,165,216443,1,0,1:2:0:0:
17,8,216618,1,0,1:2:0:0:
0,218,216792,5,10,0:1:0:0:
130,83,216967,1,0,1:2:0:0:
290,151,217141,1,0,1:2:0:0:
450,97,217315,6,0,L|466:-1,1,95,10|0,0:1|1:2,0:0:0:0:
190,157,217664,2,0,L|174:250,1,95,10|0,0:1|1:2,0:0:0:0:
408,370,218013,5,12,0:2:0:0:
270,264,218187,1,0,1:2:0:0:
79,327,218362,1,0,1:2:0:0:
0,197,218536,5,10,0:1:0:0:
177,281,218711,1,0,1:2:0:0:
345,194,218885,1,0,1:2:0:0:
464,273,219059,5,10,0:1:0:0:
325,108,219234,1,0,1:2:0:0:
464,0,219408,1,0,1:2:0:0:
431,183,219583,5,10,0:1:0:0:
236,124,219757,1,0,1:2:0:0:
93,275,219932,1,0,1:2:0:0:
50,29,220106,5,12,0:0:0:0:
170,301,220280,1,0,1:2:0:0:
236,124,220455,5,10,0:1:0:0:
204,373,220629,1,0,1:2:0:0:
14,211,220804,5,12,0:2:0:0:
209,380,220978,1,0,1:2:0:0:
297,277,221152,1,0,1:2:0:0:
190,121,221327,2,0,L|177:27,1,95,8|0,0:3|1:2,0:0:0:0:
37,231,221676,1,0,1:2:0:0:
187,215,221850,5,12,0:0:0:0:
104,31,222025,1,0,1:2:0:0:
16,134,222199,1,0,1:2:0:0:
123,290,222374,2,0,L|136:384,1,95,8|0,0:3|1:2,0:0:0:0:
37,231,222722,5,0,1:2:0:0:
238,304,222897,1,12,0:0:0:0:
187,215,223071,5,0,1:2:0:0:
363,360,223245,2,0,P|449:350|542:336,1,142.5,10|0,0:1|0:0,0:0:0:0:
512,347,223594,5,4,1:2:0:0:
394,267,223769,1,0,1:2:0:0:
471,63,223943,1,8,0:0:0:0:
349,193,224118,2,0,P|302:199|255:204,1,95,4|0,1:2|0:0,0:0:0:0:
120,22,224466,5,0,1:2:0:0:
120,22,224554,1,0,1:2:0:0:
120,22,224641,2,0,P|190:31|322:46,1,190,12|0,0:0|0:0,0:0:0:0:
190,123,225164,1,0,1:2:0:0:
375,89,225339,1,8,0:0:0:0:
207,7,225513,1,0,0:0:0:0:
349,193,225687,5,0,1:2:0:0:
340,188,225775,1,0,1:0:0:0:
327,186,225862,1,0,1:2:0:0:
307,195,225949,1,0,1:0:0:0:
266,232,226036,5,8,0:0:0:0:
211,265,226123,1,8,0:0:0:0:
139,261,226211,1,8,0:0:0:0:
86,205,226298,1,8,0:0:0:0:
71,125,226385,6,0,P|66:68|55:17,1,104.500003189087,4|0,1:2|0:0,0:0:0:0:
289,47,226734,1,10,0:0:0:0:
163,147,226908,2,0,P|166:112|170:88,1,52.2500015945435,0|0,1:2|1:2,0:0:0:0:
188,17,227083,1,2,1:2:0:0:
249,126,227257,1,0,1:2:0:0:
139,261,227432,1,2,1:2:0:0:
335,381,227606,6,0,P|258:364|180:353,1,156.750004783631,8|0,0:0|0:0,0:0:0:0:
156,365,227955,1,0,1:2:0:0:
322,298,228129,2,0,P|265:286|207:278,1,104.500003189087,10|0,0:0|1:2,0:0:0:0:
399,324,228478,1,2,1:2:0:0:
308,191,228652,1,0,1:2:0:0:
467,266,228827,2,0,P|477:188|494:111,1,156.750004783631,10|0,0:0|0:0,0:0:0:0:
438,53,229176,6,0,P|381:64|323:72,1,104.500003189087,4|0,1:2|0:0,0:0:0:0:
209,155,229525,1,10,0:0:0:0:
256,15,229699,2,0,L|240:65,1,52.2500015945435,0|0,1:0|1:2,0:0:0:0:
179,250,229873,1,2,1:2:0:0:
140,76,230048,1,0,1:2:0:0:
310,135,230222,1,2,1:2:0:0:
150,342,230397,6,0,P|56:363|-3:384,1,156.750004783631,8|0,0:0|0:0,0:0:0:0:
0,362,230745,1,0,1:2:0:0:
74,272,230920,1,10,0:0:0:0:
241,383,231094,1,0,1:2:0:0:
244,348,231182,1,0,1:2:0:0:
247,313,231269,5,10,0:0:0:0:
150,342,231443,1,8,3:0:0:0:
350,369,231618,1,0,3:0:0:0:
266,184,231792,1,0,1:0:0:0:
347,278,231966,6,0,P|360:211|400:63,1,190,4|0,1:2|0:0,0:0:0:0:
462,183,232490,1,0,1:2:0:0:
310,0,232664,6,0,P|297:67|257:215,1,190,10|0,0:1|0:0,0:0:0:0:
6,383,233362,5,2,1:1:0:0:
64,246,233536,2,0,P|82:314|96:384,1,142.5,8|0,0:0|0:0,0:0:0:0:
111,379,233885,1,0,1:2:0:0:
0,296,234059,1,10,0:1:0:0:
171,212,234234,1,0,1:2:0:0:
129,71,234408,6,0,P|118:33|111:-6,1,71.25,8|0,3:0|0:0,0:0:0:0:
37,25,234757,6,0,L|229:60,1,170.999994781494,4|0,1:2|0:0,0:0:0:0:
400,108,235280,2,0,L|250:135,1,152,4|0,1:2|0:0,0:0:0:0:
312,267,235804,6,0,B|344:202|314:145|305:168|278:95|327:31,1,227.999993041992,4|0,1:2|0:0,0:0:0:0:
400,108,236676,1,2,0:3:0:0:
400,108,236763,5,2,0:3:0:0:
400,108,236850,2,0,P|325:120|324:40,1,166.25,2|0,0:3|0:0,0:0:0:0:
326,36,237548,5,2,0:3:0:0:
385,22,237722,1,0,0:0:0:0:
447,13,237897,1,0,0:0:0:0:
510,5,238071,1,2,0:3:0:0:
510,5,238420,5,0,0:0:0:0:
413,143,238594,1,2,0:3:0:0:
413,143,238943,5,0,0:0:0:0:
307,87,239118,1,2,0:3:0:0:
307,87,239466,5,0,0:0:0:0:
401,54,239641,1,2,0:3:0:0:
318,5,239815,1,0,0:0:0:0:
211,61,239990,1,2,0:3:0:0:
237,200,240164,1,0,0:0:0:0:
182,140,240339,5,2,0:3:0:0:
131,133,240513,1,0,0:0:0:0:
80,126,240688,1,0,0:0:0:0:
29,119,240862,1,2,0:3:0:0:
29,119,241211,5,0,0:0:0:0:
106,27,241385,1,2,0:3:0:0:
106,27,241734,5,0,0:0:0:0:
171,96,241908,1,2,0:3:0:0:
171,96,242257,5,0,0:0:0:0:
110,157,242432,1,2,0:3:0:0:
171,236,242606,1,0,0:0:0:0:
273,177,242780,1,2,0:3:0:0:
251,66,242955,1,0,0:0:0:0:
279,205,243129,5,2,0:3:0:0:
320,222,243304,1,0,0:0:0:0:
361,212,243478,1,0,0:0:0:0:
389,177,243653,1,2,0:3:0:0:
389,177,244001,5,0,0:0:0:0:
468,212,244176,1,2,0:3:0:0:
468,212,244525,5,0,0:0:0:0:
396,274,244699,1,2,0:3:0:0:
396,274,245048,5,0,0:0:0:0:
474,319,245222,1,2,0:3:0:0:
361,348,245397,1,0,0:0:0:0:
256,277,245571,2,0,L|190:262,1,38,2|0,0:3|0:0,0:0:0:0:
0,310,245920,5,2,0:3:0:0:
19,290,246094,1,0,0:0:0:0:
48,285,246269,1,0,0:0:0:0:
77,300,246443,1,2,0:3:0:0:
77,300,246792,5,0,0:0:0:0:
157,323,246985,2,0,L|194:331,1,38,2|0,0:3|0:0,0:0:0:0:
365,384,247353,5,0,0:0:0:0:
423,341,247608,2,0,P|458:349|496:363,1,76,2|0,0:3|0:0,0:0:0:0:
356,373,248313,2,0,P|330:380|316:387,1,38,2|0,0:3|0:0,0:0:0:0:
249,378,249003,5,2,0:3:0:0:
256,384,249486,5,2,0:3:0:0:
256,384,250736,5,2,0:3:0:0:
313,289,251024,5,2,0:3:0:0:
276,310,251226,1,2,0:3:0:0:
236,309,251429,1,2,0:3:0:0:
200,288,251632,1,2,0:3:0:0:
256,192,251997,5,2,0:3:0:0:
